#TITLE:sO mUCH iN LUV;
#SUBTITLE:;
#ARTIST:3rd Coast;
#TITLETRANSLIT:;
#SUBTITLETRANSLIT:;
#ARTISTTRANSLIT:;
#GENRE:Hip Hop;
#CREDIT:Blood4Fame;
#MUSIC:sO mUCH iN LUV.mp3;
#BANNER:Banner.png;
#BACKGROUND:BG.png;
#CDTITLE:;
#SAMPLESTART:0.000;
#SAMPLELENGTH:0.000;
#SELECTABLE:YES;
#OFFSET:0.183;
#BPMS:0.000=129.878;
#STOPS:;
#BGCHANGES:0.183=sO mUCH iN LUV.mp4=1.000=1=0=1===CrossFade==,
99999.000=-nosongbg-=1.000=0=0=0=StretchNoLoop====;
#FGCHANGES:;

//--------------- dance-single - Blood4Fame ----------------
#NOTES:
     dance-single:
     Blood4Fame:
     Beginner:
     2:
     0,0,0,0,0:
0000
0000
0000
0000
,
0000
0000
0000
0000
,
0000
0000
0000
0000
,
1000
0000
0100
0000
,
1000
0000
0010
0000
,
0100
0000
0001
0000
,
0010
0000
0010
0000
,
1000
0000
0100
0000
,
0001
0000
0010
0000
,
0100
0000
0010
0000
,
1000
0000
1000
0000
,
1001
0000
0000
0000
,
0110
0000
0000
0000
,
1000
0000
0000
0000
,
0100
0000
0000
0000
,
0010
0000
0000
0000
,
0100
0000
0000
0000
,
0001
0000
0000
0000
,
0010
0000
0000
0000
,
0100
0000
0000
0000
,
0001
0000
0000
0000
,
0100
0000
0000
0000
,
0010
0000
0000
0000
,
1000
0000
0000
0000
,
0001
0000
0000
0000
,
0100
0000
0000
0000
,
0010
0000
1000
0000
,
0001
0000
0010
0000
,
0100
0000
0010
0000
,
0001
0000
1000
0000
,
1001
0000
0100
0000
,
0110
0000
0010
0000
,
1000
0000
0100
0000
,
0001
0000
0100
0000
,
1010
0000
0100
0000
,
0011
0000
0000
0000
,
1100
0000
0000
0000
,
1001
0000
0000
0000
,
0101
0000
0000
0000
,
0001
0001
0000
0100
,
0010
1000
0000
0010
,
0100
0100
0000
0001
,
0010
0100
0000
1000
,
0001
0000
0100
0000
,
0010
0000
0001
0000
,
0100
0000
0010
0000
,
1000
0000
1000
0001
,
0000
0000
0000
0000
,
0010
0000
0010
0000
,
0100
0000
0100
0000
,
0010
0000
0100
0000
,
0001
0000
1000
0000
,
0001
0000
0001
0000
,
1000
0000
1000
0000
,
0010
0000
0100
0000
,
0001
0000
0001
0100
,
0010
0000
1000
0000
,
0001
0000
0010
0000
,
0100
0000
0010
0000
,
0001
0000
1000
0000
,
0010
0000
0100
0000
,
0001
0000
0100
0000
,
0010
0000
1000
0000
,
0001
0000
0100
0000
,
0001
0001
0001
0000
,
1000
1000
1000
0000
,
0010
0010
0010
0000
,
0100
0100
0100
0000
,
1001
0000
0000
0000
,
0110
0000
0000
0000
,
0011
0000
0000
0000
;

//--------------- dance-single - Blood4Fame ----------------
#NOTES:
     dance-single:
     Blood4Fame:
     Easy:
     3:
     0,0,0,0,0:
0000
0000
0000
0000
,
0000
0000
0000
0000
,
0000
0000
0000
0000
,
0000
1000
0000
0001
,
0000
0100
0000
0001
,
0000
0100
0000
0010
,
0000
1000
0100
0100
,
0110
0100
0000
0001
,
0000
0010
0000
0001
,
0000
0100
0000
0010
,
1000
0100
0000
0010
,
1010
1000
0000
0100
,
0101
0001
0000
0010
,
0110
1000
0000
0100
,
1001
0100
0000
0010
,
0011
0100
0000
0100
,
1010
0100
0000
0100
,
1010
0000
1000
0000
0200
0300
0010
0000
,
0000
0010
0000
1000
,
1001
0100
0000
0010
,
0110
0100
0000
0001
,
0011
0010
0000
0100
,
1000
1100
0001
0010
,
0010
0001
0000
0100
,
0110
0010
0000
0010
,
1010
0010
0000
0001
,
1001
1001
0000
0001
,
1100
0010
0000
1000
,
0000
0010
0000
0010
,
0000
0001
0000
0100
,
0010
1000
0001
0100
,
0010
0010
0000
0100
,
0000
0110
0000
0010
,
0000
0001
0000
0100
,
0010
1100
1000
0100
,
0002
0000
0000
0000
,
2003
0000
0000
0000
,
3002
0000
0000
0000
0000
0000
0000
0003
,
0101
0000
0000
0100
,
1000
0010
0100
0100
,
0010
0001
0100
0010
,
0101
0010
1000
0110
,
0100
0010
0001
0010
,
1100
1100
0010
0100
,
1000
1001
0001
0010
,
0011
1001
0010
0100
,
0100
0000
0010
0001
,
0000
0000
0000
0000
,
0010
1100
0000
0001
,
0100
0001
0000
0010
,
0001
1000
0000
0001
,
1000
0010
0000
0001
,
1000
1000
0000
0010
,
1000
1000
0000
0001
,
0001
0010
0000
0010
,
1000
0000
0010
0000
,
1100
0010
0000
1000
,
0000
0001
0000
0100
,
0000
0100
0000
0010
,
1000
0010
0001
0100
,
1001
0010
0000
0001
,
0000
0100
0000
0001
,
0000
0010
0000
0010
,
0010
0100
0001
0100
,
1100
0100
0000
0010
,
0000
0100
0000
0010
,
0000
1000
0000
1000
,
0100
0001
0010
0100
,
1001
0010
0000
0010
,
0000
0010
0000
0100
,
0000
0000
0002
0000
0000
0003
0000
0000
;

//--------------- dance-single - Blood4Fame ----------------
#NOTES:
     dance-single:
     Blood4Fame:
     Medium:
     7:
     0,0,0,0,0:
0000
0000
0000
0000
,
0000
0000
0000
0000
,
0000
0000
0000
0000
,
0000
0000
0000
0000
1000
0000
0000
0010
0000
0000
0100
0000
0001
0000
0010
0000
,
0000
1000
0000
0000
0100
0000
0000
0010
0000
0000
1000
0000
0001
0000
0010
0000
,
0000
0000
0000
0000
0100
0000
0000
0001
0000
0000
0110
0000
0000
0000
1010
0000
,
0000
0100
0000
2200
3000
1300
0100
0010
,
0110
0000
0000
0000
0100
0000
0000
0100
0000
0000
0010
0000
0001
0000
1000
0000
,
0000
0010
0000
0000
0010
0000
0000
0100
0000
0000
0010
0000
0001
0000
1000
0000
,
0000
0010
0000
0000
0100
0000
0000
0010
0000
0000
0001
0000
0000
0000
0101
0000
,
0000
0220
0330
2000
0000
3200
0000
0300
,
0000
0000
0000
0000
1000
0000
0000
1000
0000
0000
0010
0000
0100
0000
0000
0000
,
0000
0000
0001
0000
0001
0000
0000
1000
0000
0000
0100
0000
0010
0000
0000
0000
,
0000
0000
0000
0000
1000
0000
0000
0100
0000
0000
0010
0000
0100
0000
2000
0000
,
0000
0000
3000
0000
0000
0000
0000
0000
0000
0000
0001
0000
0000
1000
0000
0000
,
0011
0000
0100
0000
0000
0010
0100
2000
,
3000
0002
0003
2000
3000
0010
0100
0000
,
0010
0010
1000
0000
0200
0300
0010
0001
,
0000
0000
0000
0000
0010
0000
0000
0100
0000
0000
0010
0000
1000
0000
0000
0000
,
1001
0000
0100
0020
0030
2000
3000
2002
,
3003
0000
0100
0020
0030
0202
0303
0020
,
0030
1000
0010
0100
0000
0010
0100
0002
,
0000
0003
0001
0010
,
0010
0000
1000
0200
0300
2200
3300
0220
,
0330
0000
0010
0002
0003
0110
0000
0020
,
0030
0001
0010
2000
0000
0000
3001
0000
,
1001
0000
0110
0000
1001
0000
0000
0100
0000
0000
0010
0000
0001
0000
0000
0000
,
1100
0000
0000
0000
0010
0000
0000
0100
0000
0000
0001
0000
1000
0000
0010
0000
,
0000
0000
0010
0000
0010
0000
0000
0100
0000
0000
0100
0000
0010
0000
1000
0000
,
0000
0000
1000
0000
0001
0000
0000
0010
0000
0000
0100
0000
0000
0000
1000
0000
,
0000
0010
0000
0100
0000
0001
0000
0110
,
0000
0000
0000
0000
0101
0000
0000
0101
0000
0000
0010
0000
1000
0000
0010
0000
,
0000
0000
0000
0000
0110
0000
0000
0110
0000
0000
1000
0000
0010
0000
0100
0000
,
0000
0000
0000
0000
0001
0000
0000
0001
0000
0000
0010
0000
0000
0000
1000
0000
,
0000
0010
0100
1000
0000
0010
0100
0000
,
0002
0000
0000
0000
0000
0000
0000
0000
0000
0000
0100
0000
0000
0100
0000
0000
,
2003
0000
0000
0000
0000
0000
0000
0000
0000
0000
0100
0000
0000
0010
0000
0000
,
3002
0000
0000
0000
0000
0000
0000
0000
0000
0000
0100
0000
0000
0010
0003
0000
,
0101
0000
0000
0202
0003
0301
0100
0010
,
1000
0001
0010
0010
0100
1000
0100
0100
,
0010
0010
0001
1000
0100
1000
0010
1000
,
0101
0010
0010
0000
1000
0100
0110
0000
,
0100
0000
0100
0000
0010
0000
0100
0000
0001
0000
0000
0010
0000
0000
0100
0000
,
1100
0000
1100
0000
0010
0100
0000
0001
,
1000
0000
1001
0000
0001
0001
0000
0000
,
0011
0000
0000
0000
1001
0000
0000
0000
0010
0000
0000
0100
0000
0000
1000
0000
,
0010
0000
0000
0010
0000
1000
0000
0010
0000
0000
1000
0000
0001
0000
0020
0000
,
0000
0000
0000
0030
,
0000
0000
0000
0000
1100
0000
0000
0010
0000
0000
0010
0000
0001
0000
0000
0000
,
0000
0100
0001
1000
0000
0100
0010
0000
,
0001
0000
0000
0000
1000
0000
0000
0010
0000
0000
0100
0000
0001
0000
0000
0000
,
1000
0000
1000
0000
0010
0000
0000
0100
0000
0000
0001
0000
0001
0000
0000
0000
,
1000
0000
0100
0000
1000
0000
0000
0010
0000
0000
0100
0000
0010
0000
0000
0000
,
1000
0000
0010
0000
1000
0000
0000
0010
0000
0000
0100
0000
0001
0000
0000
0000
,
0001
0000
1000
0000
0010
0000
0000
0100
0000
0000
0001
0000
0010
0000
0000
0000
,
1000
0000
0000
0010
0000
1000
0000
0000
0010
0000
0000
0100
0000
0000
0001
0000
,
1000
0000
0000
0000
0010
0000
0000
0100
0000
0000
0010
0000
1000
0000
0010
0000
,
0000
0000
0001
0000
0001
0000
0000
0010
0000
0000
0001
0000
0100
0000
0010
0000
,
0010
0000
0000
0000
0100
0000
0000
0010
0000
0000
1000
0000
0010
0000
1001
0000
,
0000
0110
0000
1010
0000
1000
0100
0010
,
1001
0000
0000
0000
0010
0000
0000
0010
0000
0000
0100
0000
0001
0000
0010
0000
,
0000
0000
0001
0000
0100
0000
0000
0010
0000
0000
0100
0000
0001
0000
0100
0000
,
0000
0000
1000
0000
0010
0000
0000
0100
0000
0000
1000
0000
0010
0000
0100
0000
,
0000
1010
0000
0001
0000
0010
0100
0000
,
1100
0000
0000
0000
0100
0000
0000
0100
0000
0000
1000
0000
0010
0000
0100
0000
,
0000
0000
0010
0000
0100
0000
0000
0010
0000
0000
1000
0000
0010
0000
0000
0000
,
0100
0000
0100
0000
1000
0000
0000
0010
0000
0000
0010
0000
1000
0000
0000
0000
,
0100
0000
0010
0000
0001
0000
0000
1000
0000
0000
0010
0000
0100
0000
0001
0000
,
1000
0000
0000
0000
0010
0000
0000
0010
0000
0000
1000
0000
0010
0000
0100
0000
,
0000
0000
0010
0000
0010
0000
0000
0100
0000
0000
0010
0000
0100
0000
0000
0000
,
0001
0010
0002
0000
0000
0003
0000
0000
;

//--------------- dance-single - Blood4Fame ----------------
#NOTES:
     dance-single:
     Blood4Fame:
     Hard:
     8:
     0,0,0,0,0:
0000
0000
0000
0000
,
0000
0000
0000
0000
,
0000
0000
0000
0000
,
0000
0000
0000
0000
0001
0000
0000
0100
0000
0000
0010
0000
1000
0000
0100
0000
,
1000
0001
0000
0000
0010
0000
0000
0100
0000
0010
0001
0000
1001
0000
0100
0000
,
0001
0000
0000
0000
0010
0000
0000
1000
0000
0000
0110
0000
0000
0000
0101
0000
,
0000
0010
0100
0022
0003
0031
0010
0100
,
0110
0000
0000
0000
0010
0000
0000
0010
0000
0000
0100
0000
1000
0000
0001
0000
,
0000
0100
0000
0000
0100
0000
0000
0010
0000
0000
0100
0000
1000
0000
0001
0000
,
1000
0100
0000
0000
0010
0000
0000
0100
0000
0000
1000
0000
0000
0000
1010
0000
,
0000
0000
0110
0000
0100
0000
0000
0000
0001
0000
0010
0000
0200
0000
0000
0300
,
0000
0000
0000
0000
0001
0000
0000
0001
0000
0000
0100
0000
0010
0000
0000
0000
,
0000
0000
1000
0000
1000
0000
0000
0001
0000
0000
0100
0000
0010
0000
0000
0000
,
0000
0000
0001
0000
0001
0000
0000
0010
0000
0000
1000
0000
0010
0000
0000
0000
,
0001
0100
0000
0010
0000
1000
0000
0010
0000
0000
0001
0000
0001
0000
0000
0000
,
1100
0000
0010
0000
0000
0100
0010
0000
,
0001
0000
0100
0000
1000
0000
0000
0001
0000
0000
0100
0000
0010
0000
0000
0000
,
0100
0000
0100
0000
0001
0000
0000
0001
0000
0000
0010
0000
0100
0000
0000
0000
,
1000
0001
0000
0000
0100
0000
0000
0010
0000
0000
0100
0000
0001
0000
0000
0000
,
1001
0000
0010
0200
0300
0002
0003
2002
,
3003
0000
0010
0200
0300
2020
3030
0200
,
0300
0001
0100
1010
0000
1100
0010
0002
,
0000
0000
0003
0000
1000
0000
0000
1000
0000
0000
0010
0000
0100
0001
0000
0000
,
0100
0000
0001
0020
0030
0022
0033
0220
,
0330
0000
0100
2000
3000
0110
0001
0200
,
0300
1000
0100
0001
0000
0001
1000
0001
,
1001
0000
0110
0000
1001
0000
0000
0010
0000
0000
0100
0000
1000
0010
0000
0000
,
0011
0000
0000
0000
0100
0000
0010
0100
0000
0000
1000
0000
0011
0000
0101
0000
,
0000
0000
0100
0000
0100
0000
0000
0010
0000
0000
1010
0000
0100
0000
0101
0000
,
0000
0000
0001
0000
1000
0000
0000
0100
0000
0000
0010
0000
0000
0000
0001
0000
,
0000
0100
0000
0010
0000
1000
0100
0110
,
0000
0000
0000
0000
1010
0000
0000
1010
0000
0000
0100
0000
0001
0000
0100
0000
,
0000
0000
0000
0000
0110
0000
0000
0110
0000
0000
0001
0000
0100
0000
0010
0000
,
0100
0001
0000
0000
1000
0000
0000
1000
0000
0000
0100
0000
0000
0000
0001
0000
,
0000
0100
0010
0001
0000
0100
0010
0000
,
2000
0000
0000
0000
0000
0000
0000
0000
0000
0000
0010
0000
0000
0010
0000
0000
,
3002
0000
0000
0000
0000
0000
0000
0000
0000
0000
0010
0000
0000
0100
0000
0000
,
2003
0000
0000
0000
0000
0000
0000
0000
0000
0000
0010
0000
0000
0100
3000
0000
,
1010
0000
0000
0000
0000
0000
2020
0000
3000
0000
1030
0000
0010
0000
0100
0010
,
1000
0000
1000
0000
0100
0000
0100
0000
0010
0000
0001
0100
0010
0000
0010
0000
,
0100
0000
0100
0000
0001
0000
0001
0000
0010
0000
0001
0010
0100
0000
1000
0000
,
1010
0100
0110
0000
0011
0010
0110
0000
,
0010
0001
0010
0000
0100
0000
0010
0000
0001
0100
0000
0100
0000
0001
0010
0000
,
0011
0000
0000
0000
0011
0000
0000
0000
0100
0000
0010
0100
0000
0010
1000
0000
,
0001
0000
0000
0000
1001
0000
0000
0000
1000
0000
1000
0001
0000
1000
0100
0000
,
1100
0000
0000
0000
1001
0000
0000
0000
0010
0000
0100
0010
0000
0000
0001
0000
,
0100
0010
0000
0100
0000
0001
0000
0100
0000
0010
1000
0000
0001
0000
0200
0000
,
0000
0000
0000
0301
,
0000
0000
0000
0000
0011
0000
0000
0100
0000
0000
0100
0000
0001
0000
0000
0000
,
0000
0000
0010
0000
1000
0000
0001
0100
0000
0000
0010
0000
0100
0000
0000
0000
,
1000
0000
0000
0000
0001
0000
0000
0100
0000
0000
0010
0000
1000
0000
0000
0000
,
0001
0000
0001
0000
0100
0000
0000
0010
0000
0000
1000
0000
1000
0000
0100
0000
,
0010
0000
0010
0000
0001
0000
0000
0100
0000
0000
0010
0000
0100
0000
0000
0000
,
0001
0000
0100
0000
0001
0000
0000
0100
0000
0000
0010
0000
1000
0000
0000
0000
,
1000
0000
0001
0000
0100
0000
0000
0010
0000
0000
1000
0000
0100
0000
0000
0000
,
0001
0100
0000
0100
0000
0001
0000
0000
0100
0010
0000
1000
0000
0000
1000
0000
,
0001
0000
0000
0000
0100
0000
0000
0010
0000
0000
0100
0000
0001
0000
0100
0000
,
0000
0000
1000
0000
1000
0000
0100
0010
0000
0000
0001
0000
0010
0000
0100
0000
,
0100
0000
0000
0000
0010
0000
0010
0100
0000
0000
1000
0000
0100
0000
1000
0000
,
0001
0100
0010
0100
0000
0001
0001
0100
,
1001
0000
0000
0000
0100
0000
0001
0100
0000
0000
0010
0000
1000
0000
0100
0000
,
0000
0000
1000
0000
0010
0000
0100
0001
0000
0000
0010
0000
1000
0000
0010
0000
,
0000
0000
0001
0000
0100
0000
0010
1000
0000
0000
0001
0000
0100
0000
0010
0000
,
0101
0000
0101
0000
0101
0000
0000
1000
0000
0000
0100
0000
0010
0000
0000
0000
,
0011
0000
0000
0000
0010
0000
0100
0010
0000
0000
0001
0000
0100
0000
0010
0000
,
0000
0000
0100
0000
0010
0000
1000
0100
0000
0000
0001
0000
0100
0000
0000
0000
,
0010
0000
0010
0000
0001
0000
0000
0100
0000
0001
0100
0000
0001
0000
0000
0000
,
0010
0000
0100
0000
1000
0000
0000
0001
0000
0000
0100
0000
0010
0000
1000
0000
,
0001
0000
0000
0000
0100
0000
0010
0100
0000
0000
0001
0000
0100
0000
0010
0000
,
1000
0000
0100
0000
0100
0000
0000
0010
0000
0001
0100
0000
0010
0000
0000
0000
,
1000
0100
2000
0000
0000
3000
0000
0000
;
