#VERSION:0.83;
#TITLE:Watch Your Step;
#SUBTITLE:;
#ARTIST:XeoN;
#TITLETRANSLIT:;
#SUBTITLETRANSLIT:;
#ARTISTTRANSLIT:;
#GENRE:Hip Hop;
#CREDIT:Blood4Fame;
#MUSIC:[DJMAX TECHNIKA Q] BGA XeoN - Watch Your Step.mp3;
#BANNER:Banner.png;
#BACKGROUND:BG.jpg;
#CDTITLE:;
#SAMPLESTART:48.131;
#SAMPLELENGTH:16.615;
#SELECTABLE:YES;
#OFFSET:-0.100;
#BPMS:0.000=130.000;
#STOPS:;
#SPEEDS:0.000=1.000=0.000=0;
#SCROLLS:0.000=1.000;
#TICKCOUNTS:0.000=4;
#TIMESIGNATURES:0.000=4=4;
#LABELS:0.000=Song Start;
#COMBOS:0.000=1;
#ORIGIN:;
#PREVIEWVID:;
#JACKET:;
#CDIMAGE:;
#DISCIMAGE:;
#BGCHANGES:0.000=[DJMAX TECHNIKA Q] BGA XeoN - Watch Your Step.avi=1.000=0=0=0=StretchNoLoop====,
99999.000=-nosongbg-=1.000=0=0=0=StretchNoLoop====
;
#FGCHANGES:;

//--------------- dance-single - Blood4Fame ----------------
#NOTEDATA:;
#STEPSTYPE:dance-single;
#DESCRIPTION:Blood4Fame;
#DIFFICULTY:Beginner;
#METER:2;
#RADARVALUES:0.183459,0.245079,0.421536,0,0,131,88,43,0,0,0,0,0,0,0.183459,0.245079,0.421536,0,0,131,88,43,0,0,0,0,0,0;
#CHARTNAME:;
#CHARTSTYLE:Pad;
#CREDIT:Blood4Fame;
#NOTES:
0000
0000
0000
0000
,
0000
0000
0000
0000
,
0100
0000
0100
0000
,
0010
0000
0010
0000
,
0001
0000
0001
0000
,
0010
0000
1000
0000
,
0100
0000
0100
0000
,
1100
0000
1100
0000
,
1001
0000
1001
0000
,
0011
0000
0011
0000
,
0100
0000
0010
0000
,
0001
0000
0010
0000
,
0100
0000
0010
0000
,
0011
0000
0011
0000
,
1000
0000
0001
0000
,
0100
0000
0010
0000
,
1100
0000
1100
0000
,
0001
0000
0001
0000
,
1010
0000
0000
0000
,
0101
0000
0000
0000
,
1100
0000
0000
0000
,
0011
0000
0000
0000
,
1001
0000
0000
0000
,
0110
0000
0000
0000
,
1010
0000
0000
0000
,
0011
0000
0000
0000
,
1100
0000
1100
0000
,
0011
0000
0011
0000
,
1001
0000
1001
0000
,
0110
0000
0110
0000
,
1010
0000
0011
0000
,
0101
0000
1100
0000
,
1001
0000
1010
0000
,
1100
0000
0011
0000
,
0101
0000
0000
0000
,
1000
1000
0000
0000
,
0010
0010
0000
0000
,
0100
0100
0000
0000
,
0001
0001
0000
0000
,
1000
1000
0000
0000
,
0001
1000
0000
0000
,
0010
0010
0000
0000
,
1100
0000
0010
0000
,
0011
0000
0100
0000
,
1100
0000
0010
0000
,
1010
0000
0100
0000
,
0011
0000
0100
0000
,
1010
0000
0001
0000
,
1001
0000
0100
0000
,
0011
0000
1000
0000
,
0010
0000
0000
0000
;

//--------------- dance-single - Blood4Fame ----------------
#NOTEDATA:;
#STEPSTYPE:dance-single;
#DESCRIPTION:Blood4Fame;
#DIFFICULTY:Easy;
#METER:4;
#RADARVALUES:0.313701,0.418717,0.460748,0.401929,0,224,177,47,41,0,0,0,0,0,0.313701,0.418717,0.460748,0.401929,0,224,177,47,41,0,0,0,0,0;
#CHARTNAME:;
#CHARTSTYLE:;
#CREDIT:Blood4Fame;
#NOTES:
0000
0000
0000
0000
,
0000
0000
0000
0000
,
1000
0010
1000
0010
,
0001
0100
0001
0100
,
1000
0001
1000
0001
,
0010
0100
0010
1001
,
1000
0100
1000
0100
,
0001
0010
0001
0010
,
1000
0010
0001
0100
,
0001
1000
0010
1010
,
0101
1000
0001
0010
,
0011
1000
0010
0100
,
1100
0001
0010
0001
,
0011
0001
0101
1000
,
1010
0010
1000
0100
,
0101
0001
0010
1000
,
1001
0001
0010
1000
,
0110
0010
0001
1000
,
2200
3300
2200
3300
,
0022
0033
0022
0033
,
2200
3300
0022
0033
,
2020
3030
2200
3300
,
0022
0033
0202
0303
,
2020
3030
2200
3300
,
2200
3300
0202
0303
,
2020
3030
0022
0033
,
0002
0003
0020
0030
2000
3000
0200
0300
,
0002
0003
2000
3000
0020
0030
0100
0000
,
0101
0101
1010
1010
,
0011
0011
1100
1100
,
0001
1000
0010
0100
,
0001
1000
0010
0001
,
0101
0101
1100
1100
,
1010
1010
0011
0011
,
1000
0010
1000
1000
,
0001
0100
0001
0001
,
1000
0010
0100
0100
,
0001
1000
0010
0101
,
1000
0001
0010
1000
,
0001
1000
0010
0100
,
0001
0100
0010
1000
,
0010
0100
0001
1100
,
0001
1000
0010
0001
,
0010
1000
0010
1000
,
1000
0100
0001
0100
,
0100
0010
0001
0101
,
1000
0010
1000
0100
,
0001
1000
0010
0010
,
0100
0001
1000
0100
,
1000
1000
1000
1000
,
2002
3003
0000
0000
;

//--------------- dance-single - Blood4Fame ----------------
#NOTEDATA:;
#STEPSTYPE:dance-single;
#DESCRIPTION:Blood4Fame;
#DIFFICULTY:Medium;
#METER:6;
#RADARVALUES:0.406131,0.40389,0.480354,0.509764,0,290,241,49,52,0,0,0,0,0,0.406131,0.40389,0.480354,0.509764,0,290,241,49,52,0,0,0,0,0;
#CHARTNAME:;
#CHARTSTYLE:;
#CREDIT:Blood4Fame;
#NOTES:
0000
0000
0000
0000
,
1000
0001
1000
0001
1000
0001
1000
0001
,
1001
0000
0000
0000
1001
0000
0010
1000
,
1010
0000
0000
0000
1010
0000
1010
1000
,
1100
0000
0000
0000
1100
0000
1100
0100
,
0110
0000
0000
0000
0110
0000
0110
0010
,
0011
0000
0000
0000
0011
0000
1100
0100
,
1100
0000
0000
0000
1100
0000
1100
0100
,
0110
0000
0000
0000
0110
0000
1010
0010
,
0011
0000
0000
0000
0011
0000
0011
0011
,
0010
0000
0001
0000
0100
0000
0010
1000
,
0100
0000
1000
0000
0010
0000
0001
0100
,
1000
0000
0100
0000
0010
0000
0100
0010
,
1000
0000
0001
0000
1000
0000
0100
1000
,
0010
0000
0001
0000
0100
0000
0010
1000
,
0100
0000
1000
0000
0010
0000
0001
0100
,
1000
0000
0100
0000
0010
0000
0100
0010
,
1000
0000
0001
0000
1000
0000
0100
1000
,
2200
3300
0220
0330
0022
0000
0033
0000
,
0220
0330
2020
3030
2200
0000
3300
0000
,
1000
0100
0100
0000
1000
0010
0010
0000
,
0100
0010
0100
0000
0010
0100
0010
0100
,
0220
0330
2020
3030
2200
0000
3300
0000
,
0022
0033
0202
0303
2020
0030
0010
3020
,
0030
1000
0100
0010
,
0001
0010
0100
1000
,
0022
0033
0220
0330
2200
0000
3300
0000
,
0220
0330
0202
0303
0022
0000
0033
0000
,
0001
0010
0010
0000
0001
0100
0100
0000
,
0010
0100
0010
0000
0100
0010
0100
0010
,
0220
0330
0202
0303
0022
0000
0033
0000
,
2200
3300
2020
3030
0202
0300
0100
0203
,
0300
0001
0010
0100
,
1000
0100
0010
0001
,
0001
0000
0100
0000
1000
0000
0001
0010
,
1000
0000
0010
0000
0001
0000
0100
1000
,
0010
0000
1000
0000
0001
0000
1000
0001
,
0010
0000
0100
0000
0010
0000
1000
0010
,
0001
0000
0100
0000
1000
0000
0001
0010
,
1000
0000
0010
0000
0001
0000
0100
1000
,
0010
0000
1000
0000
0001
0000
1000
0001
,
0010
0000
0100
0000
0010
0000
0100
0100
,
0100
0010
0001
0000
0001
0010
0100
0000
,
1000
0010
0100
0000
0100
0010
1000
0000
,
0100
0010
0100
0000
0010
0100
0100
0000
,
0010
0100
0001
1000
0100
0010
0001
0100
,
0010
0100
1000
0000
1000
0100
0010
0000
,
0001
0100
0010
0000
0010
0100
0001
0000
,
0010
0100
0010
0000
0100
0010
0010
0000
,
0100
0010
1000
0001
0010
0100
1000
0010
,
0220
0000
0000
0000
,
0000
0000
0330
0000
;

//--------------- dance-single - Blood4Fame ----------------
#NOTEDATA:;
#STEPSTYPE:dance-single;
#DESCRIPTION:Blood4Fame;
#DIFFICULTY:Hard;
#METER:8;
#RADARVALUES:0.574185,0.563436,0.34311,1.176378,0.318602,410,375,35,120,0,0,0,0,0,0.574185,0.563436,0.34311,1.176378,0.318602,410,375,35,120,0,0,0,0,0;
#CHARTNAME:;
#CHARTSTYLE:;
#CREDIT:Blood4Fame;
#NOTES:
2002
0000
0000
0000
0000
0000
0000
3003
,
0001
1000
0001
1000
0001
1000
0001
1000
0001
1000
0001
1000
0001
1000
0001
1000
,
0200
0000
0300
0200
0300
0100
0100
0010
,
0002
0000
0003
0002
0003
0001
0001
1000
,
0200
0000
0300
0200
0300
1000
0001
1000
,
0200
0000
0000
0000
0300
0000
0200
0000
0300
0000
0100
0000
0202
0303
0001
0000
,
0020
0000
0030
0020
0030
0010
0010
0100
,
2000
0000
3000
2000
3000
1000
1000
0001
,
0020
0000
0030
0020
0030
0001
1000
0001
,
0020
0000
0000
0000
0030
0000
0020
0000
0030
0000
0010
0000
2002
3003
1000
0000
,
1000
0000
0100
0000
0010
0000
0100
0010
0000
0001
1000
0000
0100
0000
1000
0000
,
0100
0000
0010
0000
0100
0000
1000
0100
0000
0010
0100
0000
0010
0000
0100
0000
,
0001
0000
0010
0000
0100
0000
0010
0100
0000
1000
0001
0000
0010
0000
0001
0000
,
0010
0000
0100
0000
0010
0000
0001
0010
0000
0100
0010
0000
0100
0000
0010
0000
,
0010
0000
1000
0000
0100
0000
1000
0100
0000
0001
0010
0000
1000
0000
0010
0000
,
1000
0000
0100
0000
1000
0000
0010
1000
0000
0100
1000
0000
0100
0000
1000
0000
,
0100
0000
0001
0000
0010
0000
0001
0010
0000
1000
0100
0000
0001
0000
0100
0000
,
0001
0000
0010
0000
0001
0000
0100
0001
0000
0010
0001
0000
0010
0000
0001
0000
,
0022
0033
0220
0330
2200
3300
2020
3030
,
0220
0330
0202
0303
0022
0033
1000
0100
,
1000
0100
1000
0000
0100
0000
0010
0001
0000
0000
0200
0000
0320
0000
0130
0000
,
0200
0320
2030
3000
2000
3200
0320
0031
,
2200
3300
0220
0330
0022
0033
0202
0303
,
0220
0330
2020
3030
2200
3300
1000
0200
,
0300
1000
1000
0100
0010
0000
0001
0000
1000
0100
0020
0000
0230
0000
0310
0000
,
0020
0230
0302
0003
0002
0023
0230
1300
,
0022
0033
0220
0330
2200
3300
2020
3030
,
0220
0330
0202
0303
0022
0033
1000
0100
,
1000
0100
1000
0000
0100
0000
0010
0001
0000
0000
0200
0000
0320
0000
0130
0000
,
0200
0320
2030
3000
2000
3200
0320
0031
,
0022
0033
0220
0330
2200
3300
2020
3030
,
0220
0330
0202
0303
0022
0033
0100
0020
,
0030
0000
1000
0100
0010
0000
1000
0100
1000
0000
0200
0000
0320
0000
0130
0000
,
0200
0320
2030
3000
2000
3200
0320
0031
,
1000
0000
0100
0000
0010
0000
0100
0010
0000
0001
1000
0000
0100
0000
1000
0000
,
0100
0000
0010
0000
0100
0000
1000
0100
0000
0010
0100
0000
0010
0000
0100
0000
,
0001
0000
0010
0000
0100
0000
0010
0100
0000
1000
0001
0000
0010
0000
0001
0000
,
0010
0000
0100
0000
0010
0000
0001
0010
0000
0100
0010
0000
0220
0330
0010
0000
,
0010
0000
1000
0000
0100
0000
1000
0100
0000
0001
0010
0000
1000
0000
0010
0000
,
1000
0000
0100
0000
1000
0000
0010
1000
0000
0100
1000
0000
0100
0000
1000
0000
,
0100
0000
0001
0000
0010
0000
0001
0010
0000
1000
0100
0000
0001
0000
0100
0000
,
0001
0000
0010
0000
0001
0000
0100
0001
0000
0010
0001
0000
0022
0033
0001
0000
,
0001
0000
0010
0000
0100
0000
0010
0100
0000
1000
0001
0000
0010
0000
0001
0000
,
0010
0000
0100
0000
0010
0000
0001
0010
0000
0100
0010
0000
0100
0000
0010
0000
,
1000
0000
0100
0000
0010
0000
0100
0010
0000
0001
1000
0000
0100
0000
1000
0000
,
0100
0000
0010
0000
0100
0000
1000
0100
0000
0010
0100
0000
0220
0330
0100
0000
,
0100
0000
0001
0000
0010
0000
0001
0010
0000
1000
0100
0000
0001
0000
0100
0000
,
0001
0000
0010
0000
0001
0000
0100
0001
0000
0010
0001
0000
0010
0000
0001
0000
,
0010
0000
1000
0000
0100
0000
1000
0100
0000
0001
0010
0000
1000
0000
0010
0000
,
1000
0000
0100
0000
1000
0000
0010
1000
0000
0100
1000
0000
0100
0000
1000
0000
,
2002
0000
0000
0000
,
0000
0000
0000
0000
,
0000
3003
0000
0000
;

//--------------- dance-single - Blood4Fame ----------------
#NOTEDATA:;
#STEPSTYPE:dance-single;
#DESCRIPTION:Blood4Fame;
#DIFFICULTY:Challenge;
#METER:9;
#RADARVALUES:0.665214,0.665879,0.362717,0.784252,0.43624,475,438,37,80,0,1,0,0,0,0.665214,0.665879,0.362717,0.784252,0.43624,475,438,37,80,0,1,0,0,0;
#CHARTNAME:;
#CHARTSTYLE:;
#CREDIT:Blood4Fame;
#NOTES:
2002
0000
0000
0000
0000
0000
0000
3003
,
0001
1000
0001
1000
0001
1000
0001
1000
0001
1000
0001
1000
0001
1000
0001
1000
,
0001
0000
0100
0000
0010
0000
0100
0010
0000
1000
0001
0000
0100
0000
0010
0000
,
1000
0000
0010
0000
0100
0000
0001
0100
0000
0010
0100
0000
0010
0000
0100
0000
,
0001
0000
0010
0000
0100
0000
0010
0100
0000
1000
0001
0000
0010
0000
0001
0000
,
0010
0000
0100
0000
0010
0000
0001
0010
0000
0100
0010
0000
0220
0330
0100
0000
,
0010
0000
0001
0000
0100
0000
0001
0100
0000
0001
0010
0000
0001
0000
0010
0000
,
0100
0000
1000
0000
1000
0000
0010
1000
0000
0100
1000
0000
0100
0000
1000
0000
,
0001
0000
0001
0000
0010
0000
0001
0010
0000
0001
0100
0000
0001
0000
1000
0000
,
0010
0000
0010
0000
1000
0000
0100
1000
0000
1000
0001
0000
0022
0033
0001
0000
,
1000
0000
0100
0000
0010
0000
0100
0010
0000
0001
1000
0000
0100
0000
1000
0000
,
0001
0000
0010
0000
0100
0000
1000
0100
0000
0010
0100
0000
0010
0000
0100
0000
,
1000
0000
0010
0000
0100
0000
0010
0100
0000
1000
0001
0000
0010
0000
0001
0000
,
0010
0000
0100
0000
0010
0000
0001
0010
0000
0100
0010
0000
0220
0330
0100
0000
,
0010
0000
0001
0000
0100
0000
1000
0100
0000
0100
0010
0000
1000
0000
0010
0000
,
1000
0000
0100
0000
1000
0000
0010
1000
0000
0100
1000
0000
0100
0000
1000
0000
,
0100
0000
1000
0000
0010
0000
0100
0010
0000
1000
0100
0000
0001
0000
0100
0000
,
1000
0000
0010
0000
0100
0000
0001
0010
0000
0010
0001
0000
0010
0000
0001
0000
,
0021
0031
0120
0130
2100
3100
1020
1030
,
0210
0310
0102
0103
0021
0031
1000
0100
,
1000
0100
1000
0000
0100
0000
0010
0001
0000
0000
0200
0000
0320
0000
0130
0000
,
0200
0310
2020
3030
2000
3200
0320
0032
,
1203
1300
0210
0310
2010
3010
0201
0301
,
0120
0130
2010
3010
1200
1300
1000
0200
,
0300
1000
0001
0100
0010
0000
1000
0000
0010
0100
0020
0000
0230
0000
0310
0000
,
0020
0230
0302
0003
0002
0023
0230
1300
,
0021
0031
0120
0130
2100
3100
1020
1030
,
0210
0310
0102
0103
0012
0013
0001
0100
,
0001
0100
0001
0000
0100
0000
0010
1000
0000
0000
0200
0000
0320
0000
0130
0000
,
0200
2300
3020
0000
2030
3200
0320
0031
,
0021
0031
0120
0130
2100
3100
1020
1030
,
0210
0310
0102
0103
0012
0013
0200
0020
,
0330
0000
0001
0100
0010
0000
1000
0100
1000
0000
0200
0000
0320
0000
0130
0000
,
0200
0320
0032
0003
2000
3200
0320
0031
,
1000
0000
0100
0000
0010
0100
0000
0010
0000
0001
1000
0000
0100
1000
0100
0000
,
0100
0000
0010
0000
0100
1000
0000
0100
0000
0010
0100
0000
0010
0000
0100
0000
,
0001
0000
0010
0100
0000
0010
0000
0100
0000
1000
0001
0000
0010
0001
0010
0000
,
0001
0000
0100
0000
0010
0000
0001
0010
0000
0100
0010
0000
0220
0330
0010
0000
,
0001
0000
1000
0000
0100
0000
1000
0100
0000
1000
0010
0000
1000
0001
0100
0000
,
0010
0000
0100
0000
0010
1000
0000
0001
0000
0100
1000
0000
0100
0000
0010
0000
,
0100
0000
1000
0000
0010
0000
1000
0010
0000
0001
1000
0000
0001
0000
0100
0000
,
0001
0000
0010
0000
0001
0000
0100
0001
0000
0010
0001
0000
0022
0033
0001
0000
,
1000
0000
0010
0000
0100
0000
0010
0100
0000
0001
1000
0000
0010
0000
1000
0000
,
0010
0000
0100
0000
0010
0000
0100
0001
0000
0100
0010
0000
1000
0000
0010
0000
,
1000
0000
0100
0000
0010
0000
0100
0010
0000
0001
1000
0000
0100
0000
1000
0000
,
0100
0000
0010
0000
0100
0000
1000
0100
0000
0010
0100
0000
0220
0330
0010
0000
,
0001
0000
0001
0000
0010
0000
0001
0010
0000
0001
0100
0000
0001
0000
0100
0000
,
0001
0000
0010
0000
0001
0000
0100
0001
0000
0010
0001
0000
0010
0000
0100
0000
,
0010
0000
0001
0000
1000
0000
0100
1000
0000
0001
0010
0000
0001
0000
1000
0000
,
0010
0000
0100
0000
1000
0000
0010
1000
0000
0100
1000
0000
0100
0000
1000
0000
,
0022
0000
0000
0000
,
0000
0000
0000
0000
,
0000
0033
0000
0000
;
