#TITLE:U.A.D;
#SUBTITLE:;
#ARTIST:Hayako;
#TITLETRANSLIT:;
#SUBTITLETRANSLIT:;
#ARTISTTRANSLIT:;
#GENRE:Chiptune;
#CREDIT:Blood4Fame;
#MUSIC:U.A.D.mp3;
#BANNER:Banner.png;
#BACKGROUND:BG.png;
#CDTITLE:;
#SAMPLESTART:85.912;
#SAMPLELENGTH:22.341;
#SELECTABLE:YES;
#OFFSET:-0.325;
#BPMS:0.000=129.000
,56.000=64.500
,64.000=77.400
,66.000=90.300
,68.000=103.200
,70.000=112.100
,72.000=129.000
,77.000=256.000
,79.000=129.000
,82.000=258.000
,84.000=129.000
,87.000=258.000
,89.000=129.000
,92.000=258.000
,98.000=129.000
,101.000=258.000
,103.000=129.000
,106.000=258.000
,108.000=129.000
,111.000=258.000
,115.000=64.500
,123.000=129.000
,124.000=64.500
,131.500=287.000
,136.000=129.000
,138.000=258.000
,142.000=129.000
,144.000=258.000
,148.000=129.000
,150.000=258.000
,154.000=129.000
,156.000=258.000
,160.000=129.000
,162.000=258.000
,166.000=129.000
,168.000=258.000
,172.000=129.000
,174.000=64.500
,176.000=129.000
,204.000=258.000
,208.000=516.000
,216.000=129.000
,217.000=258.000
,232.000=129.000
,248.000=172.098
,266.000=344.195
,266.500=86.049
,267.125=43.024
;
#STOPS:92.000=0.233
,93.000=0.233
,94.000=0.233
,95.000=0.233
,111.000=0.233
,112.000=0.233
,113.000=0.233
,114.000=0.233
,217.000=0.174
,217.750=0.174
,218.500=0.174
,219.250=0.291
,220.500=0.174
,221.250=0.174
,222.000=0.174
,222.750=0.174
,223.500=0.116
,224.000=0.233
,225.000=0.174
,225.750=0.174
,226.500=0.174
,227.250=0.291
,228.500=0.174
,229.250=0.174
,230.000=0.174
,230.750=0.174
,231.500=0.116
,265.000=0.294
,266.000=0.087
;
#DISPLAYBPM:64.000:258.000;
#BGCHANGES:-0.425=U.A.D.mp4=1.000=1=0=1===CrossFade==,
99999.000=-nosongbg-=1.000=0=0=0=StretchNoLoop====
;
#FGCHANGES:;

//--------------- dance-single - Blood4Fame ----------------
#NOTES:
     dance-single:
     Blood4Fame:
     Beginner:
     2:
     0,0,0,0,0:
0000
0000
0000
0000
,
0000
0000
0000
0000
,
1000
0000
0010
0000
,
1000
1000
1000
0000
,
1000
0000
0010
0000
,
0100
0100
0200
0300
,
1000
0000
0010
0000
,
1000
1000
1000
0000
,
1000
0000
0010
0000
,
0001
0001
0000
0010
,
1000
1000
1000
0000
,
0001
0001
0001
0000
,
0010
0001
0001
0000
,
1000
0000
0100
0000
,
0002
0003
0020
0030
0200
0300
0001
0001
,
0002
0003
0200
0300
0020
0030
1000
1000
,
2000
3000
0020
0030
0000
0002
0003
0000
,
0020
0030
0000
0200
0000
0000
0000
0000
,
0300
0001
0001
0001
,
0000
2002
0000
3003
,
0000
0000
0220
0000
,
0330
0000
0000
2020
,
0000
3030
0000
0000
,
0002
0003
0020
0030
,
2000
0000
3000
0000
,
0000
2200
0000
3300
,
0000
0000
2020
0000
,
3030
0000
0000
0002
,
0003
0000
0020
0000
0030
0000
2000
3000
,
0100
1000
0100
0010
,
0100
0000
1000
1000
1000
0000
0002
0003
,
0000
0010
0000
0100
0000
0010
0000
1000
,
0000
0020
0030
0002
0003
0020
0030
2000
,
0000
0000
3000
0000
,
0100
0000
0020
0000
,
0030
0000
0001
0000
,
0200
0000
0300
0000
,
0010
0000
2000
0000
,
3000
0000
0001
0000
,
0020
0000
0030
0000
,
0100
0000
0020
0000
,
0030
0000
0100
0000
,
0002
0000
0003
0000
,
0100
0000
0000
0000
1000
1000
1000
1000
,
0001
0000
0001
0000
,
1000
1000
1000
0000
,
1000
0000
1000
0000
,
0001
0010
0100
1000
,
0001
0001
0001
0000
,
1000
1000
1000
0000
,
0010
0001
0010
0000
,
1000
0000
0100
0000
,
1000
0000
0000
0000
,
0100
0000
0000
0000
,
0001
0000
0001
0000
0000
0001
0000
0000
,
0000
0010
0000
0000
0100
0000
0000
0000
,
0001
0000
0000
0000
0001
0000
0000
0000
0000
0000
0000
0000
0000
0010
0000
0000
,
0000
0000
0100
0000
,
1000
0000
0001
0000
,
0010
0000
1000
0000
,
0100
0000
0001
0000
,
0010
0000
1000
0000
,
0001
0000
0010
0000
,
0100
0000
1000
0000
,
1100
0000
0001
0000
,
0010
0000
0010
0000
,
0001
0000
0000
0000
0000
2002
0000
0000
,
3003
0000
0000
0000
;

//--------------- dance-single - Blood4Fame ----------------
#NOTES:
     dance-single:
     Blood4Fame:
     Easy:
     4:
     0,0,0,0,0:
0000
0000
0000
0000
,
0000
0000
0000
0000
,
0002
0000
0000
0000
1003
0000
0000
0000
0010
0000
0000
0000
0000
0000
0000
2000
,
0000
0000
3000
0000
0001
0000
0000
0000
0100
0000
0000
0000
0000
0100
0000
0000
,
0002
0000
0000
0000
1003
0000
0000
0000
0010
0000
0000
0000
0000
0001
0000
0000
,
2000
0000
0000
0000
0000
0000
0000
0000
0000
0000
0000
0000
0000
3000
0000
0000
0020
0000
0000
0000
0000
0000
0000
0000
0000
0000
0000
0000
0000
0030
0000
0000
0200
0000
0000
0000
0000
0000
0000
0000
0000
0000
0000
0000
0000
0300
0000
0000
0002
0000
0000
0000
0000
0000
0000
0000
0000
0000
0000
0000
0000
0003
0000
0000
,
0010
0000
0000
0000
1000
0000
0000
0000
0010
0000
0000
0000
0000
0001
0000
2000
,
0000
0000
3000
0000
0001
0000
0000
0000
0100
0000
0000
0000
0000
0100
0000
0000
,
0002
0000
0000
0000
1003
0000
0000
0000
0010
0000
0000
0000
0000
0001
0000
0000
,
1000
0100
0010
0001
,
0010
0001
0100
0000
,
0000
0010
1000
0000
,
0020
1000
0130
0000
,
0000
0010
0002
0000
,
0003
0000
0000
0000
0000
0000
0000
0000
0000
0020
0000
0000
0000
0000
0000
0000
0000
0000
0030
0000
0000
0000
0200
0000
0000
0000
0000
0000
0000
0000
0300
0000
0000
2000
0000
0000
3000
0000
0000
0002
0000
0000
0003
0000
0000
0020
0000
0000
,
0030
0000
0000
0000
0000
0000
0010
0000
0000
0000
0000
0000
1000
0000
0000
0000
0100
0000
0000
0010
0000
0000
0000
0000
0100
0000
0000
0000
2000
0000
0000
0000
,
3000
0000
0000
0000
0000
0000
0000
0000
0000
0000
2000
0000
0000
0000
0000
0000
0200
0000
0000
0000
0000
0000
0000
0000
0000
0000
0000
3000
0000
0300
0000
0000
0000
0000
0200
0000
0000
0000
0000
0000
0300
0000
0000
0000
0000
0000
0000
2000
0000
0000
0000
0000
0000
0000
0000
0000
0000
0000
0000
0000
0000
0000
3200
0000
,
0000
0000
0000
0000
0000
0320
0000
0000
0000
0000
0000
0000
0032
0000
0000
0000
0000
0000
0000
0000
0000
0000
0000
0000
0000
0000
0000
0000
0000
0000
0000
0000
,
0000
0000
0000
0000
0000
0000
0000
0000
0000
0000
0000
0000
0000
0000
0000
0000
0000
1000
0000
0000
0000
0000
0000
0000
0000
0000
0000
0000
0000
0000
0000
0000
0000
0000
0000
0000
0000
0000
0000
0000
0000
0000
0000
0000
0000
0000
0000
0000
0000
1000
0000
0000
0000
0000
0000
0000
0000
0000
0003
0000
0000
0000
0000
0000
,
0100
2000
0000
3001
,
1000
0001
0020
0000
,
1030
0000
0000
0000
0000
0000
0000
0000
0000
0000
0000
0000
0000
0000
0000
0000
0000
0000
0000
0000
0000
0000
0000
0000
0000
0000
0000
0000
0000
0000
0000
0000
0000
0000
0000
0000
0000
0000
0000
0000
0000
0000
0000
0000
0000
0000
0000
0000
0000
0000
0000
0010
0000
0000
0000
0000
0000
0000
0000
0000
0000
0000
0000
0000
0000
0000
0000
0000
0000
0000
0000
0000
0000
0000
0000
0000
0000
0000
0000
0000
0000
0000
0000
0000
0000
0000
0000
0000
0010
0000
0000
0000
0000
0000
0000
0000
0000
0000
0000
0000
0000
0000
0000
0000
0000
0000
0000
0000
0000
0000
0000
0000
0000
0000
0000
0000
0000
0000
0000
0000
0000
0000
0000
0000
0000
0000
0000
0000
0000
0000
0000
0000
0000
0000
0000
0000
0000
0000
0000
0000
0000
0000
0000
0000
0200
0000
0000
0000
0000
0000
0000
0000
0000
0000
0000
0000
0000
0000
0000
0000
0000
0000
0000
0000
0000
0000
0000
0000
0000
0000
0000
0000
0000
0000
0000
0000
0000
0000
0000
0000
0000
0000
0000
0000
0000
0000
0000
0000
0000
0000
0000
0000
,
0000
0300
0100
0000
1000
0000
0010
0000
,
0200
0000
0000
0300
0002
0000
0000
0003
0200
0000
0000
0300
2000
0000
0000
3000
,
0200
0000
0310
0100
,
1000
0000
2000
0000
0000
3000
1000
0000
,
0001
0000
1000
0000
0020
0000
0000
0030
,
0001
0000
0000
0000
0001
0000
0000
0000
0010
0000
0000
0000
2000
0000
0000
3000
,
0200
0000
0000
0300
0020
0000
0000
0030
0200
0000
0000
0300
0001
0000
0000
0000
,
0010
0000
0000
0000
0000
0000
0000
0000
0000
0000
0000
0000
0000
0000
0000
0000
0002
0000
0000
0000
0000
0000
0000
0003
0000
0000
0000
0000
0000
0000
0000
0000
0100
0000
0000
0000
0000
0000
0000
0000
0000
0000
0000
0000
0020
0000
0000
0000
0000
0000
0000
0000
0000
0000
0030
0200
0000
0000
0000
0000
0000
0000
0000
0000
,
0300
0000
0000
0000
0001
0000
0000
0000
0100
0000
0000
0100
0000
0000
0100
0000
0020
0000
0000
0000
0130
0000
0000
0000
0002
0000
0000
0000
0000
0000
0000
0000
,
1003
0000
0100
0000
1000
0002
0000
0000
0000
0000
1003
0000
1000
0000
0020
0000
,
0000
0000
0000
0000
0230
0000
0000
0000
0000
0000
0000
0000
2300
0000
0000
0000
0000
0000
0000
0000
3200
0000
0000
0000
0300
0000
0000
0000
0000
0200
0000
0000
0000
0000
0000
0000
0320
0000
0000
0000
0000
0000
0000
0000
0000
0032
0000
0000
0000
0000
0000
0000
0203
0000
0000
0000
0000
0000
0000
0000
0000
0000
0000
0000
,
0000
0000
0000
0000
0000
0300
0000
0000
,
0100
1000
0010
0000
,
0100
0000
0100
0001
,
0001
0000
0010
0000
,
0100
1000
0001
0000
,
0010
0000
0100
0001
,
0100
0000
0010
0000
,
1000
0100
0001
0000
,
1000
0000
0100
1000
,
0100
0000
0010
0000
,
1000
0000
0010
0000
0010
0001
0100
1000
,
0020
0000
0000
0000
0030
0000
0000
0000
0010
0000
0000
0000
0000
0100
0000
0010
,
0000
0000
0000
0000
0100
0000
0000
0000
0100
0000
0000
1000
0000
0100
0000
0000
,
0010
0000
0000
0000
0001
0000
0000
0000
1000
0000
0000
1000
0000
0001
0000
0000
,
1000
0100
0010
1000
,
0001
0000
0000
0000
1000
0000
0000
0000
0100
0000
0000
0001
0000
0000
0000
0100
,
0000
0000
0000
0000
0010
0000
0000
0000
0010
0000
0000
0000
0000
0010
0000
0000
,
0100
0000
0000
0000
1000
0000
0000
0000
0001
0000
0000
0000
0000
1000
0000
0000
,
0010
0000
1000
0000
,
0010
0000
0000
0000
,
0100
0000
0000
0000
,
0200
0000
0000
0000
0310
0000
0000
0000
0000
0000
0000
0000
0000
0001
0000
0000
,
0000
0010
0000
0000
0001
0000
0000
0000
,
0100
0000
0000
0000
1000
0000
0000
0000
0000
0000
0000
0000
0000
0100
0000
0000
,
0000
0010
0000
0000
0001
0000
0000
0000
,
0100
0001
1000
0010
,
1000
0100
0001
0010
,
1000
0000
0000
0000
0001
0000
0000
0000
0100
0000
0000
1000
0000
0000
0000
0010
,
0000
0000
0000
0000
0100
0000
0000
0000
0100
0000
0000
0000
0000
0001
0000
0000
,
2200
3300
0000
0000
2020
3030
0000
0000
,
0000
0010
1001
0000
,
0000
0010
0110
0000
,
1000
1000
0001
0001
,
1001
0000
1001
0000
0000
0002
0000
0000
,
0003
0000
0000
0000
;

//--------------- dance-single - Blood4Fame ----------------
#NOTES:
     dance-single:
     Blood4Fame:
     Medium:
     8:
     0,0,0,0,0:
0000
0000
0000
0000
,
0000
0000
0000
0000
,
0002
0000
0000
0000
1003
0000
0100
0000
0010
0000
0000
0010
0000
0001
0000
2000
,
0000
0000
3010
0000
0001
0000
0010
0000
0100
0000
0000
1000
0000
0100
0000
0000
,
0002
0000
0000
0000
1003
0000
0100
0000
0010
0000
0000
0010
0000
0001
0000
0000
,
2000
0000
0000
0000
0000
0000
0000
0000
0000
0000
0000
0000
0000
3000
0000
0000
0020
0000
0000
0000
0000
0000
0000
0000
0000
0000
0000
0000
0000
0030
0000
0000
0200
0000
0000
0000
0000
0000
0000
0000
0000
0000
0000
0000
0000
0300
0000
0000
0002
0000
0000
0000
0000
0000
0000
0000
0000
0000
0000
0000
0000
0003
0000
0000
,
0010
0000
0000
0000
1000
0000
0100
0000
0010
0000
0000
0010
0000
0001
0000
2000
,
0000
0000
3010
0000
0001
0000
0010
0000
0100
0000
0000
1000
0000
0100
0000
0000
,
0002
0000
0000
0000
1003
0000
0100
0000
0010
0000
0000
0010
0000
0001
0000
0000
,
1000
0000
0000
0000
1000
0000
0100
0000
1000
0000
0000
0100
0000
0010
0000
0000
,
0020
0000
0000
0000
0001
0000
0000
0000
0130
0000
0000
0100
0000
0010
0000
0002
,
0000
0000
0103
0000
0010
0000
0100
0000
1000
0000
0000
0001
0000
0200
0000
0000
,
0320
0000
0000
0000
1000
0000
0000
0000
0130
0000
0000
0100
0000
0010
0000
1000
,
0000
0000
1000
0000
0010
0000
0100
0000
0002
0000
0000
2000
0000
0000
0000
0000
,
3003
0000
0000
0000
0000
0000
0200
0000
0000
0020
0000
0000
0000
0000
0000
0300
0000
0000
0032
0000
0000
0000
0200
0000
0000
0000
0000
0003
0000
0000
0320
0000
0000
2030
0000
0000
3200
0000
0000
0302
0000
0000
0203
0000
0000
0020
0000
0000
,
0330
0000
0000
0000
0001
0000
0010
0000
0000
0000
0000
0000
1000
0000
0001
0000
0100
0000
0000
0010
0000
0000
0001
0000
0100
0000
0000
0000
2000
0000
0000
0000
,
3000
0000
0000
0000
0000
0000
0000
0000
0000
0000
2000
0000
0000
0000
0000
0000
0200
0000
0000
0000
0000
0000
0000
0000
0000
0000
0000
3000
0000
0302
0000
0000
0000
0000
0203
0000
0000
0000
0000
0000
0320
0000
0000
0000
0000
0000
0000
2030
0000
0000
0000
0000
0000
0000
0000
0000
0001
0000
0000
0000
0000
0000
3200
0000
,
0000
0000
0000
0000
0000
0320
0000
0000
0000
0000
0000
0000
0032
0000
0000
0000
0000
0000
0000
0000
0000
0000
0000
0000
0000
0000
0000
0000
0000
0000
0000
0000
,
0000
0000
0000
0000
0000
0000
0000
0000
0000
0000
0000
0000
0000
0000
0000
0000
0000
1000
0000
0000
0000
0000
0000
0000
0000
0000
0000
0000
0000
0000
0000
0000
1000
0000
0000
0000
0000
0000
0000
0000
0000
0000
0000
0000
0000
0000
0000
0000
0000
1000
0000
0000
0000
0000
0000
0000
0000
0000
0003
0000
0000
0000
0000
0000
,
0101
0000
2000
0000
0000
0000
3001
1000
,
1000
0100
0001
0100
0020
0000
0000
0000
,
1030
0000
0000
0000
0000
0000
0000
0000
0000
0000
0000
0000
0000
0000
0000
0100
0000
0000
0000
0000
0000
0000
0000
0000
1000
0000
0000
0000
0000
0000
0000
0000
0000
0000
0000
0000
0000
0000
0000
0000
0000
0000
0000
0000
0000
0000
0000
0000
0000
0000
0000
0010
0000
0000
0000
0000
0000
0000
0000
0000
0000
0000
0000
0000
0000
0000
0000
0000
0000
0000
0000
0000
0001
0000
0000
0000
0000
0000
0000
0000
0000
0000
0000
0000
0000
0000
0000
0000
0010
0000
0000
0000
0000
0000
0000
0000
0000
0000
0000
0000
0000
0000
0000
0000
0000
0000
0000
0000
0000
0000
0000
0001
0000
0000
0000
0000
0000
0000
0000
0000
0000
0000
0000
0000
0000
0000
0000
0000
0000
0000
0000
0000
0000
0000
0000
0001
0000
0000
0000
0000
0000
0000
0000
0000
0200
0000
0000
0000
0000
0000
0000
0000
0000
0000
0000
0000
0000
0000
0000
0000
0000
0000
0000
0000
0000
0000
0000
0000
0000
0000
0000
0000
0000
0000
0000
0000
0000
0000
0000
0000
0000
0000
0000
0000
0000
0000
0000
0000
0000
0000
0000
0000
,
0000
0300
0100
0001
1000
0001
0010
0001
,
2200
0000
0000
3300
2002
0000
0000
3003
0202
0000
0000
0303
2002
0000
0000
3003
,
0200
0000
0000
0000
0310
0001
0100
0010
,
1000
0000
0000
0000
0000
0000
0000
0000
0100
0000
0000
0000
0000
0000
0000
0000
2000
0000
0000
0000
0000
0000
0000
0000
0000
0000
0000
0000
0000
0000
0000
0000
0000
0000
0000
0000
0000
0000
0000
0000
3000
0000
0000
0000
0000
0000
0000
0000
1000
0000
0000
0000
0000
0100
0000
0000
0000
0010
0000
0000
0000
0000
0000
0000
,
0001
0000
0010
0000
1000
0010
1000
0000
0020
0000
0000
0000
0000
0000
0030
0000
,
0001
0000
0010
0000
0001
0000
1000
0000
0010
0000
0001
0000
2200
0000
0000
3300
,
0220
0000
0000
0330
2020
0000
0000
3030
0220
0000
0000
0330
2001
0000
3100
0000
,
0010
0000
0000
0000
0000
0000
0000
0000
0001
0000
0000
0000
0000
0000
0000
0000
0002
0000
0000
0000
0000
0000
0000
0003
0000
0000
0000
0000
0000
0000
0000
0000
0100
0000
0000
0000
0001
0000
0000
0000
1000
0000
0000
0000
0020
0000
0000
0000
0000
0000
0000
0000
0000
0000
0030
0200
0000
0000
0000
0000
0000
0000
0000
0000
,
0300
0000
0000
0000
0001
0000
0000
0001
0100
0000
0000
0100
0000
0000
0100
0000
0020
0000
0000
0000
0230
0000
0000
0000
0302
0000
0000
0000
0000
0000
0000
0000
,
1003
0000
0000
0000
0100
0000
0000
0000
0001
0010
0002
0000
0000
0000
0000
0000
0000
0100
0000
0000
1003
0000
0100
0000
1000
0000
0001
0000
0020
0000
0000
0000
,
0000
0000
0000
0000
0230
0000
0000
0000
0000
0000
0000
0000
2300
0000
0000
0000
0000
0000
0000
0000
3200
0000
0000
0000
0301
0000
0000
0000
0000
0200
0000
0000
0000
0000
0000
0000
0320
0000
0000
0000
1000
0000
0000
0000
0000
0032
0000
0000
0000
0000
0000
0000
0103
0000
0000
0000
0200
0000
0000
0000
0000
0000
0000
0000
,
0000
0000
0000
0300
,
0100
0001
1000
0001
0010
0000
0010
1000
,
0100
0000
0010
0000
0100
1000
0001
0100
,
0001
0010
0001
1000
,
0100
0001
1000
0100
0001
0000
0001
0000
,
0100
0000
1000
0000
0100
1000
0001
0010
,
0100
0010
1000
0010
,
1000
0010
0100
1000
0001
0000
0100
0000
,
1000
0000
0001
0000
0100
0100
1000
0010
,
0100
0010
0010
0100
,
1000
0000
0100
0000
0010
0000
0001
0000
0010
0100
0010
1000
0010
0100
1000
0001
,
0020
0000
0000
0000
0001
0000
0130
0000
0010
0000
0000
1000
0000
0100
0000
0010
,
0000
0000
0010
0000
0100
0000
0001
0000
0100
0000
0000
1000
0000
0100
0000
0000
,
0010
0000
0000
0000
0001
0000
0010
0000
1000
0000
0000
1000
0000
0001
0000
0000
,
1000
0100
0010
0000
0100
0010
0001
0000
0010
0001
0100
0000
1000
0100
0001
0000
,
0001
0000
0000
0000
1000
0000
0010
0000
0100
0000
0000
0001
0000
0010
0000
0100
,
0000
0000
0100
0000
0010
0000
1000
0000
0010
0000
0000
0001
0000
0010
0000
0000
,
0100
0000
0000
0000
1000
0000
0100
0000
0001
0000
0000
0001
0000
1000
0000
0000
,
0010
0001
0010
0000
1000
0100
1000
0000
,
0010
0000
1000
0000
,
0010
0000
0001
0000
,
0200
0000
0000
0000
0310
0000
0000
1000
0000
0000
0100
0000
0000
0001
0000
0000
,
0000
0000
0010
0000
0000
0100
0000
0000
0001
0000
0000
0100
0000
0000
0010
0000
,
0100
0000
0000
0000
1000
0000
0000
1000
0000
0000
0001
0000
0000
0100
0000
0000
,
0000
0000
0010
0000
0000
1000
0000
0000
0001
0000
0000
0010
0000
0000
0000
0000
,
0100
0000
0100
0001
1000
0001
0010
0100
,
1000
0010
0100
1000
0100
0001
0100
1000
,
0100
0000
0000
0000
0001
0000
0010
0000
0100
0000
0000
1000
0000
0100
0000
0010
,
0000
0000
0001
0000
0100
0000
0010
0000
0100
0000
0000
1000
0000
0001
0000
0000
,
1100
0000
0110
0000
1010
0000
1000
0010
,
0000
0000
0110
0000
1001
0000
0100
0010
,
0000
0000
0011
0000
0110
0000
1000
0001
,
0000
1001
0011
1001
,
0101
0000
1001
0000
0010
0002
0000
0000
,
0003
0000
0000
0000
;

//--------------- dance-single - Blood4Fame ----------------
#NOTES:
     dance-single:
     Blood4Fame:
     Hard:
     9:
     0,0,0,0,0:
0000
0000
0000
0000
,
0000
0000
0000
0000
,
0002
0000
0000
0000
1003
0000
0100
0000
0010
0100
0000
0010
0000
0001
0000
2000
,
0000
0000
3010
0000
0001
0000
0010
0000
0100
0010
0000
1000
0000
0100
0000
0000
,
0002
0000
0000
0000
1003
0000
0100
0000
0010
0100
0000
0010
0000
0001
0000
0000
,
2200
0000
0000
0000
0000
0000
0000
0000
0000
0000
0000
0000
0000
3300
0000
0000
2020
0000
0000
0000
0000
0000
0000
0000
0000
0000
0000
0000
0000
3030
0000
0000
0220
0000
0000
0000
0000
0000
0000
0000
0000
0000
0000
0000
0000
0330
0000
0000
0022
0000
0000
0000
0000
0000
0000
0000
0000
0000
0000
0030
0000
0003
0000
0000
,
0002
0000
0000
0000
1003
0000
0100
0000
0010
0100
0000
0010
0000
0001
0000
2000
,
0000
0000
3010
0000
0001
0000
0010
0000
0100
0010
0000
1000
0000
0100
0000
0000
,
0002
0000
0000
0000
1003
0000
0100
0000
0010
0100
0000
0010
0000
0001
0000
0000
,
1000
0000
0000
0000
0000
0001
0000
0000
0000
0000
0000
0000
0000
0000
0000
0000
1000
0000
0000
0000
0000
0000
0000
0000
0100
0000
0000
0000
0000
0000
0000
0000
0100
0000
0000
0000
0010
0000
0000
0000
0000
0000
0000
0000
0100
0000
0000
0000
0000
0000
0000
0000
0010
0000
0000
0000
0000
0000
0000
0000
0001
0000
0000
0000
,
0020
0000
0000
0000
0001
0000
0000
0000
0130
1000
0000
0100
0000
0010
0000
0002
,
0000
0000
0103
0000
0010
0000
0100
0000
1000
0100
0000
0001
0000
0200
0000
0000
,
0320
0000
0000
0000
1000
0000
0000
0000
0130
0001
0000
0100
0000
0010
0000
1000
,
0000
0000
1000
0000
0010
0000
0100
0000
0001
0200
0000
2000
0000
0000
0000
0000
,
3300
0000
0000
0000
0000
0000
0200
0000
0000
0020
0000
0000
0000
0000
0000
0300
0000
0000
0032
0000
0000
0000
0200
0000
0000
0000
0000
0003
0000
0000
0320
0000
0000
2030
0000
0000
3200
0000
0000
0302
0000
0000
0203
0000
0000
0020
0000
0000
,
0330
0000
0000
0000
0001
0000
0010
0000
0000
0000
0000
0000
1000
0000
0001
0000
0100
0000
0000
0010
0000
0000
0001
0000
0100
0000
0000
0000
2000
0000
0000
0000
,
3000
0000
0000
0000
0000
0000
0000
0000
0000
0000
2000
0000
0000
0000
0000
0000
0200
0000
0000
0000
0000
0000
0000
0000
0000
0000
0000
3000
0000
0302
0000
0000
0000
0000
0203
0000
0000
0000
0000
0000
0320
0000
0000
0000
0000
0000
0000
2030
0000
0000
0000
0000
0000
0000
0000
0000
0001
0000
0000
0000
0000
0000
3200
0000
,
0000
0000
0000
0000
0000
0320
0000
0000
0000
0000
0000
0000
0032
0000
0000
0000
0000
0000
0000
0000
0000
0000
0000
0000
0000
0000
0000
0000
0000
0000
0000
0000
,
0000
0000
0000
0000
0000
0000
0000
0000
0000
0000
0000
0000
0000
0000
0000
0000
0000
1000
0000
0000
0000
0000
0000
0000
1000
0000
0000
0000
0000
0000
0000
0000
1000
0000
0000
0000
0000
0000
0000
0000
0000
0000
0000
0000
0000
0000
0000
0000
0000
1000
0000
0000
0000
0000
0000
0000
0000
0000
0003
0000
0000
0000
0000
0000
,
0101
0000
2000
0000
0000
0000
3001
1000
,
1000
0100
0001
0100
0020
0000
0000
0000
,
1030
0000
0000
0000
0000
0000
0000
0000
0000
0000
0000
0000
0000
0000
0000
0100
0000
0000
0000
0000
0000
0000
0000
0000
1000
0000
0000
0000
0000
0000
0000
0000
0000
0000
0000
0000
0000
0000
0000
0000
0000
0000
0000
0000
0000
0000
0000
0000
0000
0000
0000
0010
0000
0000
0000
0000
0000
0000
0000
0000
0000
0000
0000
0000
0000
0000
0000
0000
0000
0000
0000
0000
0001
0000
0000
0000
0000
0000
0000
0000
0000
0000
0000
0000
0000
0000
0000
0000
0010
0000
0000
0000
0000
0000
0000
0000
0000
0000
0000
0000
0000
0000
0000
0000
0000
0000
0000
0000
0000
0000
0000
0001
0000
0000
0000
0000
0000
0000
0000
0000
0000
0000
0000
0000
0000
0000
0000
0000
0000
0000
0000
0000
0000
0000
0000
0001
0000
0000
0000
0000
0000
0000
0000
0000
0200
0000
0000
0000
0000
0000
0000
0000
0000
0000
0000
0000
0000
0000
0000
0000
0000
0000
0000
0000
0000
0000
0000
0000
0000
0000
0000
0000
0000
0000
0000
0000
0000
0000
0000
0000
0000
0000
0000
0000
0000
0000
0000
0000
0000
0000
0000
0000
,
0000
0300
0100
0001
1000
0001
0010
0001
,
2200
0000
0000
3300
2002
0000
0000
3003
0202
0000
0000
0303
2002
0000
0000
3003
,
0200
0000
0000
0000
0310
0001
0100
0010
,
0001
0000
0000
0000
0000
0100
0000
0000
0001
0000
0000
0000
0000
0000
0000
0000
2000
0000
0000
0000
0000
0000
0000
0000
0000
0000
0000
0000
0000
0000
0000
0000
0000
0000
0000
0000
0000
0000
0000
0000
3000
0000
0000
0000
0000
0000
0000
0000
1000
0000
0000
0000
0000
0100
0000
0000
0000
0010
0000
0000
0000
0000
0000
0000
,
0001
0000
0011
0000
0100
0010
0100
0010
0200
0000
0000
0000
0000
0000
0000
0000
,
0301
0000
0010
0000
0001
0000
1000
0000
0010
0000
1001
0000
2200
0000
0000
3300
,
0220
0000
0000
0330
2020
0000
0000
3030
0220
0000
0000
0330
2001
0000
3100
0000
,
0010
0000
0000
0000
0000
0000
0000
0000
0001
0000
0100
0000
0000
0000
0000
0000
0002
0000
0000
0000
0000
0000
0000
0003
1000
0000
0000
0000
0000
0000
0000
0000
0100
0000
0000
0000
0001
0000
0000
0000
1000
0000
0000
0000
0020
0000
0000
0000
0001
0000
0000
0000
0000
0000
0030
0200
0000
0000
0000
0000
0000
0000
0000
0000
,
1300
0000
0010
0000
0001
0000
0000
0001
0100
0000
0000
0100
0000
0000
0100
0000
0020
0000
0000
0000
0230
0000
0000
0000
0302
0000
0000
0000
0000
0000
0000
0000
,
1003
0000
0000
0000
0100
0000
0010
0000
0001
0010
0002
0000
0000
0000
0000
0000
0000
0100
0000
0000
1003
0000
0100
0000
1000
0000
0001
0000
0020
0000
0000
0000
,
0000
0000
0000
0000
0230
0000
0000
0000
0000
0000
0000
0000
2300
0000
0000
0000
0000
0000
0000
0000
3200
0000
0000
0000
0301
0000
0000
0000
0000
0200
0000
0000
0000
0000
0000
0000
0320
0000
0000
0000
1000
0000
0000
0000
0000
0032
0000
0000
0000
0000
0000
0000
0103
0000
0000
0000
0100
0000
0000
0000
0000
0000
0000
0000
,
0000
0000
0000
0000
0000
0000
0100
0000
0000
0000
0010
0000
0000
0000
1000
0000
0000
0000
0000
0000
0000
0000
0000
1000
0000
0000
0000
0000
0000
0000
0000
0000
,
0100
0010
0001
1000
0100
0000
0001
0100
0010
0000
0000
0000
0010
0000
1000
0000
,
0100
0000
0000
0000
0010
0000
0000
0000
0100
1000
0100
0010
0001
0000
0100
0010
,
0001
0000
0010
0100
0001
0000
1000
0000
,
0100
0010
0001
0010
0100
0000
0100
0010
0001
0000
0000
0000
0001
0000
0010
0000
,
0100
0000
0000
0000
1000
0000
0000
0000
0100
1000
0100
0010
0001
0000
0100
1000
,
0100
0000
0010
0001
1000
0000
0010
0000
,
1000
0100
0010
0001
0100
0000
1000
0100
0001
0000
0000
0000
0100
0000
0010
0000
,
1000
0000
0000
0000
0001
0000
0000
0000
0100
1000
0100
0010
1000
0000
0010
1000
,
0100
0000
0010
0001
0010
0000
0100
0000
,
1000
0000
0100
0000
0010
0000
0001
0000
0010
0000
0000
0000
0010
0000
0001
0000
0010
0100
0010
0000
0100
0010
1000
0000
0010
0001
0100
0000
1000
0100
0010
0000
,
0020
0000
0000
0000
0001
0000
0130
0000
0010
0001
0000
1000
0000
0100
0000
0010
,
0000
0000
0010
0000
0100
0000
0001
0000
0100
0010
0000
1000
0000
0100
0000
0000
,
0010
0000
0000
0000
0001
0000
0010
0000
1000
0100
0000
1000
0000
0001
0000
0000
,
1000
0100
0010
0001
0100
0010
1000
0100
0010
0001
0100
0010
1000
0100
0010
1000
,
0001
0000
0000
0000
1000
0000
0010
0000
0100
0001
0000
0001
0000
0010
0000
0100
,
0000
0000
0100
0000
0010
0000
1000
0000
0010
0100
0000
0001
0000
0010
0000
0000
,
0100
0000
0000
0000
1000
0000
0100
0000
0001
0010
0000
0001
0000
1000
0000
0000
,
0010
0001
0010
0000
1000
0100
1000
0000
,
0010
0001
1000
0000
,
0010
0100
0001
0000
,
0200
0000
0000
0000
0310
0000
0000
1000
0000
0000
0100
0000
0000
0011
0000
0000
,
0000
0000
1010
0000
0000
0100
0000
0000
0001
0000
0000
0100
0000
0000
0010
0000
,
0100
0000
0000
0000
1100
0000
0000
1000
0000
0000
0001
0000
0000
0100
0000
0000
,
0000
0000
0110
0000
0000
1000
0000
0000
0001
0000
0000
0010
0000
0000
0000
0000
,
0100
0000
0000
1000
0100
0000
0001
0000
1000
0100
0000
0001
0000
0010
0100
1000
,
0000
0100
0010
0000
0100
0001
0100
0000
0100
0010
0001
0000
0100
1000
0000
0010
,
0100
0000
0000
0000
0001
0000
0010
0000
0100
1000
0000
1000
0000
0100
0000
0010
,
0000
0000
0001
0000
0100
0000
0010
0000
0100
0010
0000
1000
0000
0001
0000
0000
,
1100
0000
0000
0000
0000
0000
0000
0000
0000
0000
0000
0000
0000
0000
0000
0000
0110
0000
0000
0000
0000
0000
0000
0000
0000
0000
0000
0000
0000
0000
0000
0000
1010
0000
0000
0000
0000
0000
0000
0000
0000
0000
0000
0001
0000
0000
0000
0000
1000
0000
0000
0000
0000
0000
0000
0000
0000
0000
0000
0010
0000
0000
0000
0000
,
0100
0000
0000
0000
0000
0000
0000
0000
0000
0000
0000
0000
0000
0000
0000
0000
0110
0000
0000
0000
0000
0000
0000
0000
0000
0000
0000
0001
0000
0000
0000
0000
1000
0000
0000
0000
0000
0000
0000
0000
0000
0000
1000
0000
0000
0000
0000
0000
0001
0000
0000
0000
0000
0000
0000
0000
0000
0000
0000
0001
0000
0000
0000
0000
,
1000
0000
0000
0000
0000
0000
0000
0000
0000
0000
0000
0000
0000
0000
0000
0000
0011
0000
0000
0000
0000
0000
0000
0000
0000
0000
0000
0000
0000
0000
0000
0000
0110
0000
0000
0000
0000
0000
0000
0000
0000
0000
0000
0000
0000
0000
0000
0000
1000
0000
0000
0000
0000
0001
0000
0000
0000
0000
0000
0000
0000
0000
0000
0000
,
0001
1001
0011
1010
,
0101
0000
1001
0000
0110
0022
0000
0000
,
0033
0000
0000
0000
;

//--------------- dance-single - Blood4Fame ----------------
#NOTES:
     dance-single:
     Blood4Fame:
     Challenge:
     11:
     0,0,0,0,0:
0000
0000
0000
0000
,
0000
0000
0000
0000
0000
0000
0000
0000
0000
0000
0000
0000
0000
0000
0000
0000
0000
0000
0000
0000
0000
0000
0000
0000
0000
0000
0000
0000
0000
0000
0000
0000
0000
0000
0000
0000
0000
0000
0000
0000
0000
0000
0000
0000
0000
0000
0000
0000
0000
0000
0000
0000
0000
0000
0000
0000
0000
0000
0000
0000
0000
1000
0000
0000
,
0002
0000
0000
0000
0000
0000
0000
0000
0000
0000
0000
0000
0000
0000
0000
0000
1003
0000
0000
0000
0000
0000
0000
0000
0100
0000
0000
0000
0000
0000
0000
0000
0010
0000
0000
0000
0100
0000
0000
0000
0000
0000
0000
0000
0010
0000
0000
0000
0000
0000
0000
0000
0001
0000
0000
0000
0000
0000
0000
1000
0200
0000
0000
0000
,
0000
0000
0000
0000
0000
0000
0310
0000
0000
0000
0000
0000
0001
0000
0000
0000
0000
0000
0010
0000
0000
0000
0000
0000
0100
0000
0000
0010
0000
0000
0000
0000
0000
0001
0000
0000
0000
0000
0000
0100
0000
0000
0000
0000
0000
0000
0001
0000
,
2000
0000
0000
0000
3010
0000
0100
0000
0010
0100
0000
0010
0000
1000
0000
0000
,
2200
0000
0000
0000
0000
0000
0000
0000
0000
0000
0000
0000
0000
3300
0000
0000
2020
0000
0000
0000
0000
0000
0000
0000
0000
0000
0000
0000
0000
3030
0000
0000
0220
0000
0000
0000
0000
0000
0000
0000
0000
0000
0000
0000
0000
0330
0000
0000
2020
0000
0000
0000
0000
0000
0000
0000
0000
3000
0000
0030
0000
0000
1000
0000
,
0002
0000
0000
0000
0000
0000
0000
0000
0000
0000
0000
0000
0000
0000
0000
0000
1003
0000
0000
0000
0000
0000
0000
0000
0100
0000
0000
0000
0000
0000
0000
0000
0010
0000
0000
0000
0100
0000
0000
0000
0000
0000
0000
0000
0010
0000
0000
0000
0000
0000
0000
0000
0001
0000
0000
0000
0000
1000
0000
0000
0200
0000
0000
0000
,
0000
0000
0000
0000
0000
0000
0000
0300
0010
0000
0000
0000
0000
0000
0000
0000
0001
0000
0000
0000
0000
0000
0000
0000
0010
0000
0000
0000
0000
0000
0000
0000
0100
0000
0000
0000
0010
0000
0000
0000
0000
0000
0000
0000
0001
0000
0000
0000
0000
0000
0000
0000
0100
0000
0000
0000
0000
0000
0000
0000
0100
0000
0000
0000
,
0002
0000
0000
0000
1003
0000
0100
0000
0010
0100
0000
0010
0000
0001
0000
0000
,
0000
1000
0001
0000
1000
0000
0100
0000
0100
0010
0000
0100
0000
0010
0000
0001
,
0020
0000
0000
0000
0001
0000
0000
0000
0130
1000
0000
0100
0000
0010
0000
0002
,
0000
0000
0000
0000
0000
0000
0000
0003
0100
0000
0000
0000
0000
0000
0000
0000
0010
0000
0000
0000
0000
0000
0000
0000
0100
0000
0000
0000
0000
0000
0000
0000
1000
0000
0000
0000
0100
0000
0000
0000
0000
0000
0000
0000
1000
0000
0000
0000
0000
0000
0000
0000
0200
0000
0000
0000
0000
0000
0000
0000
0000
0000
0000
0000
,
0320
0000
0000
0000
0001
0000
0000
0000
0130
0001
0000
0100
0000
1000
0000
0010
,
0000
0000
1000
0000
0010
0000
0100
0000
0001
0200
0000
0020
0000
0000
0000
0000
,
0330
0000
0000
0000
0000
0000
0000
0000
0000
0000
0000
0000
0000
0000
0000
0000
0000
0000
0000
0000
0000
0000
0000
0000
0200
0000
0000
0000
0000
0000
0000
0000
0000
0000
0000
0000
0020
0000
0000
0000
0000
0000
0000
0000
0000
0000
0000
0000
0000
0000
0000
0000
0000
0000
0000
0000
0000
0000
0000
0000
0300
0000
0000
0000
0000
0000
0000
0000
0000
0000
0000
0000
2030
0000
0000
0000
0000
0000
0000
0000
0000
0000
0000
0000
0000
0000
0000
3000
0200
0000
0000
0000
0000
0000
0000
0000
0000
0000
0000
0000
0000
0000
0000
0000
0000
0000
0000
0000
0000
0000
0000
0000
0000
0000
0000
0000
0000
0000
0000
0000
0320
0000
0000
0000
0000
0000
0000
0000
0000
0000
0000
0000
0032
0000
0000
0000
0000
0000
0003
0000
0000
0000
0000
0000
0200
0000
0000
0000
0000
0000
0000
0000
0000
0000
0000
0000
0302
0000
0000
0000
0000
0000
0000
0000
0000
0000
0000
0000
0203
0000
0000
0000
0000
0000
0000
0000
0000
0000
0000
0000
0020
0000
0000
0000
0000
0000
0000
0000
0000
0000
0000
0000
,
0330
0000
0000
0000
0000
0000
0000
0000
0002
0000
0000
0000
0023
0000
0000
0000
0000
0000
0000
0000
0000
0000
0000
0000
0032
0000
0000
0000
0000
0000
0000
0003
2000
0000
0000
0000
0000
0000
3010
0000
0000
0000
0000
0000
1000
0000
0000
0000
0200
0000
0000
0300
0000
0000
0000
0000
2000
0000
0000
0000
0000
0000
0000
0000
,
3000
0000
0000
0000
0000
0000
0000
0000
0000
0000
2000
0000
0000
0000
0000
0000
0002
0000
0000
0000
0000
0000
0000
0000
0000
0003
0000
3000
0000
0002
0000
0000
0000
0000
0203
0000
0000
0000
0000
0000
0320
0000
0000
0000
0000
0000
0000
2030
0000
0000
0000
0000
0000
0000
0000
0000
0001
0000
0000
0000
0000
0000
3200
0000
,
0000
0000
0000
0000
0000
0320
0000
0000
0000
0000
0000
0000
0032
0000
0000
0000
0000
0000
0000
0000
0000
0000
0000
0000
0000
0000
0000
0000
0000
0000
0000
0000
,
0000
0000
0000
0000
0000
0000
0000
0000
0000
0000
0000
0000
0000
0000
0000
0000
0000
1000
0000
0000
0000
0000
0000
0000
1000
0000
0000
0000
0000
0000
0000
0000
1000
0000
0000
0000
0000
0000
0000
0000
0000
1000
0000
0000
0000
0000
0000
0000
0000
1000
0000
0000
0000
0000
0000
0000
0100
0000
0003
0000
0000
0000
0000
0000
,
0101
0000
2000
0000
0000
0000
3001
1000
,
1000
0100
0001
0100
0020
0000
0000
0000
,
0031
0000
0000
0000
0000
0000
0000
0000
0000
0000
0000
0000
0000
0000
0000
0100
0000
0000
0000
0000
0000
0000
0000
0000
0001
0000
0000
0000
0000
0000
0000
0000
0000
0000
0000
0000
0000
0000
0000
0000
0000
0000
0000
0000
0000
0000
0000
0000
0000
0000
0000
0010
0000
0000
0000
0000
0000
0000
0000
0000
0000
0000
0000
0000
0000
0000
0000
0000
0000
0000
0000
0000
0010
0000
0000
0000
0000
0000
0000
0000
0000
0000
0000
0000
0000
0000
0000
0000
0010
0000
0000
0000
0000
0000
0000
0000
0000
0000
0000
0000
0000
0000
0000
0000
0000
0000
0000
0000
0000
0000
0000
0001
0000
0000
0000
0000
0000
0000
0000
0000
0000
0000
0000
0000
0000
0000
0000
0000
0000
0000
0000
0000
0000
0000
0000
0001
0000
0000
0000
0000
0000
0000
0000
0000
0200
0000
0000
0000
0000
0000
0000
0000
0000
0000
0000
0000
0000
0000
0000
0000
0000
0000
0000
0000
0000
0000
0000
0000
0000
0000
0000
0000
0000
0000
0000
0000
0000
0000
0000
0000
0000
0000
0000
0000
0000
0000
0000
0000
0000
0000
0000
0000
,
0000
0300
0100
0001
1000
0001
0010
0001
,
2200
0000
0000
3300
2002
0000
0000
3003
0202
0000
0000
0303
2002
0000
0000
3003
,
0200
0000
0000
0000
0310
1000
0100
0010
,
0001
0000
0000
0000
0000
0100
0000
0000
0001
0000
0000
0000
0000
0000
0000
0000
2000
0000
0000
0000
0000
0000
0000
0000
0000
0000
0000
0000
0000
0000
0000
0000
0000
0000
0000
0000
0000
0000
0000
0000
3000
0000
0000
0000
0000
0000
0000
0000
1000
0000
0000
0000
0000
0100
0000
0000
0000
0010
0000
0000
0000
0000
0000
0000
,
0001
0000
0011
0000
0100
0010
0100
0010
0200
0000
0000
0000
0000
0000
0000
0000
,
1300
0000
0010
0000
0001
0000
0001
0000
0010
0000
1001
0000
2200
0000
0000
3300
,
0220
0000
0000
0330
2020
0000
0000
3030
0220
0000
0000
0330
2001
0000
3010
0000
,
0010
0000
0000
0000
0000
0000
0000
0000
1000
0000
0100
0000
0000
0000
1000
0000
0002
0000
0000
0000
0000
0000
0000
0003
1000
0000
0010
0000
0000
0000
0000
0000
0100
0000
0000
0000
0010
0000
0000
0000
1000
0000
0000
0000
0020
0000
0000
0000
1000
0000
0000
0000
0000
0000
0030
0200
0000
0000
0000
0000
0000
0000
0000
0000
,
1300
0000
0010
0000
0100
0000
0001
1000
0100
0000
0000
0100
0000
0000
0100
0000
0020
0000
0000
0000
0032
0000
0000
0000
0203
0000
0000
0000
0000
0000
0000
0000
,
0301
0000
0000
0000
0100
0000
0010
0000
1000
0010
2000
0000
0100
0000
0000
0000
0000
3100
0000
0000
1000
0000
0100
0000
1000
0000
0001
0000
0020
0000
0000
0000
,
0000
0000
0000
0000
0230
0000
0000
0000
0000
0000
0000
0000
2300
0000
0000
0000
0000
0000
0000
0000
3001
0000
0000
0000
2000
0000
0000
0000
3000
0200
0000
0000
0000
0000
0000
0000
0320
0000
0000
0000
0001
0000
0000
0000
0000
2030
0000
0000
0000
0000
0000
0000
3100
0000
0000
0000
0100
0000
0000
0000
0000
0000
0000
0000
,
0000
0000
0000
0000
0000
0010
0000
0000
0000
0000
0000
0000
0000
0000
0001
0000
0000
0000
0000
0000
0000
0000
0100
0000
0000
0000
0000
0000
0000
0000
0000
0000
,
0100
0010
1000
0001
0100
0010
1000
0100
0010
0000
0000
0000
0010
0000
0001
0000
,
0100
0000
0000
0000
0010
0000
0000
0000
0100
0001
0100
0010
1000
0010
0100
0010
,
1000
0000
0010
0100
0001
0000
1000
0000
,
0100
0010
0001
0010
0100
1000
0100
0010
0001
0000
0000
0000
0001
0000
0010
0000
,
0100
0000
0000
0000
1000
0000
0000
0000
0100
1000
0100
0010
0001
0010
0100
1000
,
0100
0000
0010
0001
1000
0000
0010
0000
,
1000
0100
0010
0001
0100
0010
1000
0100
0001
0000
0000
0000
0001
0000
0010
0000
,
0100
0000
0000
0000
0010
0000
0000
0000
0100
1000
0100
0010
1000
0001
0010
1000
,
0100
0000
0010
0001
0010
0000
0100
0000
,
1000
0000
0100
0000
0010
0000
0001
0000
0010
0000
0100
0000
0010
0000
0001
0000
0010
0100
0010
0001
0100
0010
1000
0100
0010
0001
0100
0010
1000
0100
0010
0100
,
0020
0000
0000
0000
0001
0000
0130
0000
0010
1000
0000
1000
0000
0100
0000
0010
,
0000
0000
0010
0000
0100
0000
1000
0000
0100
0010
0000
0001
0000
0100
0000
0000
,
0010
0000
0000
0000
1000
0000
0010
0000
1000
0100
0000
1000
0000
0001
0000
0000
,
1000
0010
0100
0010
0100
0010
1000
0100
0010
0001
0010
0001
1000
0100
0010
0100
,
1000
0000
0000
0000
1000
0000
0010
0000
0100
0001
0000
1000
0000
0010
0000
0100
,
0000
0000
0100
0000
0010
0000
1000
0000
0010
0100
0000
0001
0000
0010
0000
0000
,
0100
0000
0000
0000
1000
0000
0100
0000
1000
0010
0000
1000
0000
0001
0000
0000
,
0010
0001
0010
0001
1000
0100
1000
0100
,
0010
0001
1000
0100
,
0010
0100
0010
1000
,
0200
0000
0000
0000
0310
0000
0000
0001
0000
0000
0100
0000
0000
1010
0000
0000
,
0000
0000
1010
0000
0000
0100
0000
0000
0001
0000
0000
0100
0000
0000
0010
0000
,
0100
0000
0000
0000
0110
0000
0000
1000
0000
0000
0001
0000
0000
0010
0000
0000
,
0000
0000
0110
0000
0000
1000
0000
0000
0001
0000
0000
0010
0000
0000
0001
0000
,
0100
0001
0010
0100
1000
0000
0001
0000
1000
0100
0000
0010
0000
0100
0010
0001
,
1000
0100
0010
0001
0100
0001
0100
1000
0100
0010
1000
0010
0100
1000
0100
0010
,
0100
0000
0000
0000
0001
0000
0010
0000
0100
1000
0000
1000
0000
0100
0000
0010
,
0000
0000
0001
0000
0100
0000
0010
0000
0100
0010
0000
1000
0000
0001
0000
0000
,
1100
0000
0000
0000
0000
0000
0000
0000
0000
0000
0000
0000
0000
0000
0000
0000
0110
0000
0000
0000
0000
0000
0000
0000
0000
0000
0000
0000
0000
0000
0000
0000
0011
0000
0000
0000
0000
0000
0000
0000
0000
0000
0000
0001
0000
0000
0000
0000
1000
0000
0000
0000
0000
0001
0000
0000
0000
0000
0000
0010
0000
0000
0000
0000
,
0100
0000
0000
0000
0000
0000
0000
0000
0000
0000
0000
0000
0000
0000
0000
0000
0110
0000
0000
0000
0000
0000
0000
0000
0000
0000
0000
0001
0000
0000
0000
0000
1000
0000
0000
0000
0000
0000
0000
0000
0000
0000
1000
0000
0000
0000
0000
0000
0100
0000
0000
0000
0000
1000
0000
0000
0000
0000
0000
0001
0000
0000
0000
0000
,
1000
0000
0000
0000
0000
0000
0000
0000
0000
0000
0000
0000
0000
0000
0000
0000
0011
0000
0000
0000
0000
0000
0000
0000
0000
0000
0000
0000
0000
0000
0000
0000
0110
0000
0000
0000
0000
0000
0000
0000
0000
0000
0000
0001
0000
0000
0000
0000
1000
0000
0000
0000
0000
0001
0000
0000
0000
0000
0000
1000
0000
0000
0000
0000
,
0001
1001
0011
0110
,
1100
0000
1001
0000
0110
0022
0000
0000
,
0033
0000
0000
0000
;
