#TITLE:Trip;
#SUBTITLE:;
#ARTIST:NieN;
#TITLETRANSLIT:;
#SUBTITLETRANSLIT:;
#ARTISTTRANSLIT:;
#GENRE:J/K-Pop;
#CREDIT:Blood4Fame;
#MUSIC:music.mp3;
#BANNER:banner.png;
#BACKGROUND:bg.png;
#CDTITLE:;
#SAMPLESTART:0.000;
#SAMPLELENGTH:0.000;
#SELECTABLE:YES;
#OFFSET:-0.458;
#BPMS:0.000=114.000;
#STOPS:;
#BGCHANGES:-0.758=video.mp4=1.000=1=0=1===CrossFade==,
99999.000=-nosongbg-=1.000=0=0=0=StretchNoLoop====;
#FGCHANGES:;

//--------------- dance-single - Blood4Fame ----------------
#NOTES:
     dance-single:
     Blood4Fame:
     Easy:
     3:
     0,0,0,0,0:
0000
0000
0000
0000
,
0000
0000
0000
0000
,
0000
0000
0000
0000
,
0000
0000
0000
0000
,
0000
0000
0000
0000
,
0002
0000
0000
0000
,
0000
0000
0000
0000
0000
0000
0000
0000
0000
0003
0000
0000
0200
0000
0000
0000
,
2300
0000
0000
3200
0000
0000
0000
0000
,
0300
0000
0000
0000
,
0100
0000
1000
0000
,
0001
0100
0000
0000
,
1000
0000
0010
0000
,
0001
0000
0000
0010
,
0100
0000
0000
0100
0000
0100
0000
0000
,
0001
0000
0000
0100
0000
0100
0000
0000
,
1000
0000
0010
0000
,
0000
1001
0000
0000
0000
0000
0010
0000
,
1001
0000
0100
0000
,
0001
0000
0000
0000
0010
0000
0000
0010
,
0000
0001
0000
0100
0000
0010
0000
1000
,
0000
0100
0020
0031
,
0100
0000
1010
0000
,
0100
0000
0000
0000
1100
0000
0000
1000
,
0000
0001
0000
0000
0001
0000
0000
1000
,
0000
0001
0000
0010
0000
0100
0000
0010
,
0000
0001
0000
0010
0000
0000
0001
0000
,
2002
3003
0000
2200
0000
0000
3300
0000
,
1000
0000
0000
0100
0000
0010
0000
0200
,
0000
0300
0000
0022
0000
0000
0033
0000
,
1000
0000
0000
2000
0000
0000
3000
0000
,
0001
0000
1000
0000
,
0010
0000
0100
0000
,
2020
0000
0000
0000
0000
3030
0000
0012
,
0000
0010
0000
0010
0010
0000
0000
0000
,
0000
0000
0000
0000
0000
0000
0000
0003
,
0000
0000
0000
0000
0000
0000
0000
0200
,
0000
0000
0300
2000
0000
0000
3000
0000
,
1001
0010
0010
0010
,
1100
0000
0100
0000
1000
0000
0000
0100
,
0000
0010
0000
0100
0000
0100
0000
1000
,
0000
0000
1000
0000
0100
0000
0000
0110
,
0000
0001
0000
0010
0000
1000
0000
0000
,
0000
1010
1000
0010
,
0000
0001
0000
0010
0000
0000
0000
1000
,
0000
0000
0000
0100
0000
0010
0000
0000
,
0002
0103
0020
1030
,
0100
0000
0000
0001
0000
0100
0000
1000
,
0000
0001
0000
0010
0000
1000
0000
0200
,
0000
0000
0300
0000
0000
0100
0000
1010
,
0000
0100
0000
0000
0100
0000
0000
1010
,
0000
0001
0001
0100
,
2002
0000
0000
0000
,
0000
0000
0000
0000
0000
3003
0000
0000
0000
0000
0000
0000
0000
0000
0000
0000
;

//--------------- dance-single - Blood4Fame ----------------
#NOTES:
     dance-single:
     Blood4Fame:
     Medium:
     4:
     0,0,0,0,0:
0000
0000
0000
0000
,
0000
0000
0000
0000
,
0000
0000
0000
0000
,
0000
0000
0000
0000
,
0000
0000
0000
0000
,
0002
0000
0000
0200
0000
0000
0000
0000
,
0303
0000
0000
0000
,
2000
0000
0000
0200
0000
0000
0000
0000
,
3300
0000
0000
0000
,
0100
0000
1000
0000
,
0001
0000
0100
0000
0000
0010
0000
0000
,
1000
0000
0010
0000
,
0001
0000
0000
0000
0000
0010
0010
0000
,
0100
0000
0000
0100
0000
0100
1000
0000
,
0001
0000
0000
0100
0000
0100
0010
0000
,
1000
0000
0010
0000
,
0000
1001
0000
0011
0000
0000
1010
0000
,
1001
0000
0110
0000
,
0101
0000
0000
0000
1010
0000
0100
0010
,
0000
0001
1000
0100
0000
0010
0100
1000
,
0002
0000
0103
0100
0020
0000
1030
0000
,
1100
0000
1010
0000
,
0101
0000
0000
0000
1100
0000
0001
1000
,
0000
0001
0100
0000
0001
1000
0000
1000
,
0000
0001
0100
0010
1000
0100
0000
0010
,
0000
0001
0100
0010
0100
0000
0001
0000
,
2002
3003
0000
2200
0000
0000
3300
0000
,
1001
0000
0000
0100
0000
0010
1000
0200
,
0000
0300
0000
0022
0000
0000
0033
0000
,
1000
0000
0000
1000
0000
0000
2000
0000
0000
0000
0000
0000
3000
0000
0000
0000
,
0001
0001
1000
1000
,
0010
0010
0100
0100
,
2020
0000
0000
0000
0000
3030
0000
0012
,
0000
0010
0010
0010
0010
0000
0000
0000
,
0000
0000
0000
0000
0000
0000
0000
0003
,
0000
0000
0000
0000
0000
0000
0000
0200
,
0000
0000
0300
2000
0000
0000
3000
0000
,
1001
0110
0011
0110
,
1100
0000
0100
0000
1000
0000
1000
0100
,
0000
0010
0001
0100
0000
0100
0010
1000
,
0000
0000
1000
1000
0100
0000
0100
0110
,
0000
0001
0100
0000
0010
1000
0000
0000
,
0000
0000
1010
0000
1100
0000
0010
0001
,
0000
0001
0100
0010
0000
0000
0000
1000
,
0000
0000
0100
0100
0000
0010
1000
0100
,
0002
0000
0103
0100
0020
0000
1030
1000
,
0100
0000
0010
0001
0000
0100
0010
1000
,
0000
0001
0100
0010
0000
1000
0100
0200
,
0000
0000
0300
0000
0001
0100
0010
1010
,
0000
0100
0010
0000
0100
0010
0000
1010
,
0000
0100
0001
0000
0001
0000
0100
0000
,
2002
0000
0000
0000
,
0000
0000
0000
0000
0000
3003
0000
0000
0000
0000
0000
0000
0000
0000
0000
0000
;

//--------------- dance-single - Blood4Fame ----------------
#NOTES:
     dance-single:
     Blood4Fame:
     Hard:
     7:
     0,0,0,0,0:
0000
0000
0000
0000
,
0000
0000
0000
0000
,
0000
0000
0000
0000
,
0000
0000
0000
0000
,
0000
0000
0000
0000
,
0002
0000
0000
0010
0000
0000
0200
0000
0000
0000
0000
0000
0000
0000
0000
0000
,
0303
0000
0000
0000
,
2000
0000
0000
0010
0000
0000
0200
0000
0000
0000
0000
0000
0000
0000
0000
0000
,
3300
0000
0000
0000
,
0100
0000
1000
0000
,
0001
0000
0000
0000
0100
0000
0000
0000
0000
0100
0010
0000
0000
0000
1000
0000
,
1000
0000
0010
0000
,
0001
0000
0000
0000
0000
0010
0010
0000
,
0100
0000
0000
0100
0000
0100
1000
0000
,
0001
0000
0000
0100
0000
0100
0010
0000
,
1000
0000
0010
0000
,
0000
1001
0000
0011
0000
1010
1010
0000
,
1001
0100
0110
0010
,
0101
0000
0010
0000
1010
0000
0100
0010
,
0000
0001
1000
0100
0000
0010
0100
1000
,
0001
0001
0100
0100
0010
0010
1000
1000
,
1100
0100
1010
0010
,
0101
0000
0010
0000
1100
0000
0001
1000
,
0000
0001
0100
0000
0001
1000
0100
1000
,
0000
0001
0100
0010
1000
0100
0000
0010
,
0000
0001
0100
0010
0100
0000
0001
0000
,
2002
3003
0000
2200
0000
0000
3300
0000
,
1001
0000
0000
0001
0000
0000
0100
0000
0000
0000
0010
0000
1000
0000
0100
0000
,
0220
0330
0000
0022
0000
0000
0033
0000
,
1000
0000
0000
1000
0000
0000
1000
0000
0100
0000
0001
0000
0100
0000
0010
0000
,
0001
0001
1000
1000
,
0010
0000
0010
0000
0100
0000
0100
0100
,
2020
0000
0000
0000
0000
3030
0100
0012
,
0000
0010
0010
0010
0010
0000
0000
0000
,
0000
0000
0000
0000
,
0000
0000
0000
0000
0000
0000
0003
0200
,
0000
0000
0300
2000
0000
0000
3000
0000
,
1001
1100
0110
0110
0011
0101
0110
1010
,
1100
0000
0100
0000
1000
0000
1000
0100
,
0000
0010
0001
0100
0000
0100
0010
1000
,
0001
0000
0000
0001
1000
0010
0000
0000
0100
0000
1000
0000
0100
0000
0110
0000
,
0000
0001
0100
0001
0010
0001
0000
0000
,
0000
0000
1010
0000
1100
0100
0010
0001
,
0000
0001
0100
0010
0000
0000
0000
1000
,
0000
0000
0010
0000
0100
0000
0100
0000
0000
0000
0010
0000
1000
0000
0100
0010
,
0001
0000
0001
0000
0100
0000
0100
0000
0010
0000
0010
0000
1000
0001
1000
0001
,
0100
0000
0000
0100
0010
0000
1000
0000
0000
0000
0100
0000
0010
0000
0001
0000
,
0000
0001
0100
0010
0000
1000
0100
0100
,
0000
0100
1000
0000
0001
0100
0010
1010
,
0000
0100
0010
0001
0100
0010
0000
1010
,
0000
0100
0001
0010
0001
0000
0100
0000
,
2002
0000
0000
0000
,
0000
0000
0000
0000
0000
3003
0000
0000
0000
0000
0000
0000
0000
0000
0000
0000
;
