#TITLE:너랑 있으면;
#SUBTITLE:;
#ARTIST:LENA;
#TITLETRANSLIT:To Be With You;
#SUBTITLETRANSLIT:;
#ARTISTTRANSLIT:;
#GENRE:J/K-Pop;
#CREDIT:Blood4Fame;
#MUSIC:music.mp3;
#BANNER:banner.png;
#BACKGROUND:bg.png;
#CDTITLE:;
#SAMPLESTART:94.409;
#SAMPLELENGTH:24.000;
#SELECTABLE:YES;
#OFFSET:-0.246;
#BPMS:0.000=130.000
,116.000=65.000
,118.000=260.000
,121.000=130.000
,206.000=260.000
,208.500=130.000
,210.000=260.000
,212.500=130.000
,258.000=260.000
,260.750=130.000
;
#STOPS:118.000=0.173
,118.750=0.173
,119.500=0.173
,120.250=0.173
,206.000=0.173
,206.750=0.173
,207.500=0.231
,210.000=0.173
,210.750=0.173
,211.500=0.231
,258.000=0.231
,259.000=0.231
,260.000=0.115
,260.500=0.058
;
#DISPLAYBPM:65.000:130.000;
#BGCHANGES:;
#FGCHANGES:;

//--------------- dance-single - Blood4Fame ----------------
#NOTES:
     dance-single:
     Blood4Fame:
     Easy:
     2:
     0,0,0,0,0:
0000
0000
0000
0000
,
1000
1000
1000
0000
,
0001
0001
0001
0010
,
0100
0000
0010
0000
,
1000
0100
1000
0000
,
0001
0001
0001
0000
,
1000
1000
1000
0000
,
0010
0000
0100
0000
,
0001
0010
0000
1000
,
0100
0000
0010
0000
,
0100
0000
0010
0000
,
1000
0000
0001
0000
,
1000
1000
1000
0001
,
0100
0000
0100
0000
,
0010
0000
0010
1000
,
0100
0000
0100
0000
,
0010
0000
0010
0001
,
0100
0000
0100
0000
,
0010
0000
0010
1000
,
0001
0000
0001
0000
,
0100
0000
0100
1000
,
1000
0100
0000
0001
,
0100
0010
0000
0100
,
1000
0100
0010
0001
,
0100
0100
0010
0000
,
2000
0000
3000
0000
,
0002
0000
0003
0000
,
0200
0000
0300
0000
,
0020
0000
0000
0000
,
2000
3030
2000
0000
,
0000
3001
0100
0000
,
0100
0000
0010
0000
,
0010
0000
1000
1000
,
1000
0000
0001
0001
,
0001
0000
0010
0010
,
0010
0100
0001
0100
,
0010
0000
1000
0000
,
0100
0000
0001
0000
,
0100
0000
0010
0000
,
1000
0000
0100
0000
,
1000
0000
0010
0000
,
0001
0000
0100
0100
,
0100
0000
1001
0000
,
0000
0000
1100
0000
,
0000
0000
1010
0000
,
0000
0000
0011
0000
,
0000
0000
0101
0000
,
1000
0000
0110
0000
,
1000
0000
1001
0010
,
0100
0000
0020
0000
,
0000
0030
0002
0000
,
0000
0000
1003
0000
,
0000
0000
0010
0000
,
0000
0001
0100
0100
,
0100
0000
0010
0010
,
0010
0000
1000
0100
,
0001
0100
1000
0100
,
0100
0000
0001
0001
,
0001
0000
0010
1000
,
0100
0000
0001
0000
,
0010
0000
0100
0000
,
0001
0000
1000
0000
,
0010
0000
0100
0000
,
0001
0000
1000
0000
,
0100
0000
2000
0000
,
0000
0000
3000
0000
;

//--------------- dance-single - Blood4Fame ----------------
#NOTES:
     dance-single:
     Blood4Fame:
     Medium:
     5:
     0,0,0,0,0:
0000
0000
0000
0000
,
0001
0000
0000
0000
0001
0000
0000
0020
0000
0000
0030
0000
0000
0000
0000
0000
,
1000
0000
0000
0000
1000
0000
0000
0020
0000
0000
0030
0000
0100
0000
0000
0000
,
1100
1000
0101
0001
,
0010
0000
0010
0002
0000
0003
0000
0000
,
1000
0000
0000
0000
1000
0000
0000
0200
0000
0000
0300
0000
0010
0000
0000
0000
,
0100
0000
0000
0000
1100
0000
0000
0000
0202
0000
0000
0303
0000
0000
0000
0000
,
0100
0000
0010
0002
0000
0200
0000
0303
,
0110
0000
0010
1000
0000
0101
0000
2020
,
0000
0000
0000
3030
0000
0010
0001
0000
,
0022
0000
0000
0033
0000
0000
1000
0000
,
0110
0001
0110
1000
,
0110
0000
0000
0000
1001
0000
0000
0000
0220
0000
0030
0300
0000
0000
0000
0000
,
1000
0000
0010
0000
0010
0100
0010
0000
,
0001
0000
0010
0000
0010
0100
0010
2000
,
0000
0000
0000
3000
1000
0000
0001
0000
0000
0000
0010
0000
0100
0000
0000
0000
,
0001
0001
0100
0001
0000
0002
1000
0000
,
1003
0000
0010
0000
0010
0100
0010
0000
,
0001
0000
0010
0000
0010
0100
0010
2000
,
0000
0000
0000
3000
1000
0000
0001
0000
0000
0000
0010
0000
0100
0000
0000
0000
,
0001
0001
0100
0001
0000
0001
1000
0000
,
2200
3000
1300
0000
2020
0030
3010
0000
,
0102
0000
0000
0000
0013
0000
0000
0200
0000
0000
0000
0000
0300
0000
0000
0000
,
0022
0003
0031
0000
0202
0300
0103
0000
,
2010
0000
0000
0000
3100
0000
0000
0020
0000
0000
0000
0000
0030
0000
0000
0000
,
2000
0000
3000
0200
0000
0300
1000
0200
,
0000
0300
0010
0002
0003
0002
0000
0003
,
0000
1000
0010
0000
0100
0000
0001
0020
,
0000
0000
0000
0000
0000
0000
0000
0000
0000
0000
0000
0000
0000
0000
0000
0030
,
0000
0000
0000
0000
0000
0000
0000
0000
0001
0000
0000
0010
0000
0000
0100
0000
,
0000
0010
0000
0000
0001
0000
0000
0000
0001
0000
0000
0000
0001
0000
0000
0020
,
0000
0000
0030
0000
0000
0000
0000
0000
1000
0000
0000
0000
1000
0000
0000
0020
,
0000
0030
0100
0000
1100
0000
1000
0000
,
0101
0000
0001
0000
0010
0000
0010
0002
,
0000
0000
0003
0000
0000
0000
0000
0000
1000
0000
0000
0000
1000
0000
0000
0200
,
0000
0300
0010
0000
0100
0000
1100
0000
,
0202
0000
0000
0303
0000
0000
0010
0000
0100
0000
0000
0000
0010
0000
0002
0000
,
0000
0200
0000
0303
0110
0000
0010
1000
,
0000
0101
0000
2020
0000
0000
0000
3030
,
0000
0000
0001
0000
0022
0000
0000
0033
,
0000
0010
1000
0000
0110
0000
0001
0000
,
0110
1000
0110
1001
,
0220
0000
0030
0300
0000
0000
0000
0000
0011
0000
0000
0000
0000
0000
0100
0000
,
0000
0000
0010
0000
1100
0000
0000
0001
,
0000
0000
0010
0000
1010
0000
0000
0100
,
0000
0000
0001
0000
0101
0000
0000
1000
,
0000
0001
1000
0020
0000
0030
0000
0020
,
0000
1030
0010
0100
0000
0000
0000
0200
,
0000
1300
0001
0000
0011
0000
0100
0000
,
0010
0000
0002
2000
0000
0000
0000
0000
,
0000
0000
0000
3003
0200
0000
0000
0000
,
0000
0000
0000
0000
0000
0000
0000
0000
0310
0000
0000
0001
0000
0000
0100
0000
,
0000
0000
0010
0000
0000
0000
0000
0000
0100
0000
0000
0001
0000
0000
0100
0000
,
0000
0010
0000
0000
2002
0000
0000
0000
,
0000
0000
0000
0000
0000
0000
0000
0000
0000
0000
0000
0000
0000
0000
3003
0020
,
0000
0030
0100
0000
1200
0000
1300
0000
,
0101
0000
0011
0000
0010
0000
0010
0002
,
0000
0000
0003
0000
0100
0000
0000
0000
1010
0000
0000
0000
1000
0000
0000
0200
,
0000
0300
0010
1000
0100
0000
1100
0000
,
0202
0000
0000
0303
0000
0000
0010
0000
0100
0000
0000
0000
0010
0000
0002
0000
,
0000
0200
0000
0303
0110
0000
0010
1000
,
0000
0101
0000
2020
0000
0000
0000
3030
,
0000
0010
0001
0000
0022
0000
0000
0033
,
0000
0010
1000
0000
0110
0000
0001
0000
,
0110
1000
0110
1001
,
0220
0000
0330
0000
;

//--------------- dance-single - Blood4Fame ----------------
#NOTES:
     dance-single:
     Blood4Fame:
     Hard:
     6:
     0,0,0,0,0:
0000
0000
0000
0000
,
0001
0000
0000
0000
0001
0000
1000
0020
0000
0000
0030
0000
0000
0000
0000
0000
,
1000
0000
0000
0000
1000
0000
0001
0020
0000
0000
0030
0000
0100
0000
0000
0000
,
1100
1000
0101
0001
,
0010
0000
0010
0002
0000
0003
0000
0000
,
1000
0000
0000
0000
1000
0000
0001
0200
0000
0000
0300
0000
0010
0000
1000
0000
,
0100
0000
0000
0000
1100
0000
0000
0000
0202
0000
0000
0303
0000
0000
0010
0000
,
0100
0000
0010
0002
0000
0200
0000
0303
,
0110
0000
0010
1000
0000
0101
0000
2010
,
0000
0000
0000
3100
0000
0010
0001
0000
,
0012
0000
0000
0103
0000
0010
1000
0000
,
0110
0001
0110
1000
,
0110
0000
0000
0000
1001
0000
0000
0000
0110
0000
0010
0100
0000
0000
0000
0000
,
1000
0000
0000
0100
0010
0000
0000
0000
0010
0000
0100
0000
0010
0000
0000
0000
,
0001
0000
0000
0100
0010
0000
0000
0000
0010
0000
0100
0000
0010
0000
2000
0000
,
0000
0000
0000
3100
1000
0000
0001
0000
0000
0000
0010
0000
0100
0000
0000
0000
,
0001
0001
0100
0001
0000
0002
1000
0000
,
1003
0000
0000
0100
0010
0000
0000
0000
0010
0000
0100
0000
0010
0000
0000
0000
,
0001
0000
0000
0100
0010
0000
0000
0000
0010
0000
0100
0000
0010
0000
2000
0000
,
0000
0000
0000
3100
1000
0000
0001
0000
0000
0000
0010
0000
0100
0000
0000
0000
,
0001
0000
0001
0000
0100
0000
0001
0000
0000
1000
0001
0000
1000
0000
0000
0000
,
2200
3000
1300
0000
2020
0030
3010
0000
,
0102
0000
0000
0000
0013
0000
0010
0200
0000
0000
0000
0000
0300
0000
0000
0000
,
0022
0003
0031
0000
0202
0300
0103
0000
,
2010
0000
0000
0000
3100
0000
0100
0020
0000
0000
0000
0000
0030
0000
0000
0000
,
2000
0000
3001
0200
0000
0310
1000
0200
,
0000
0301
0010
0002
0003
0002
0000
0003
,
0000
1000
0010
1000
0100
0010
0001
0020
,
0200
0000
0000
0000
0000
0000
0000
0000
0000
0000
0000
0000
0000
0000
0000
0330
,
0000
0000
0000
0000
0000
0000
0000
0000
1001
0000
0000
1010
0000
0000
0101
0000
,
0000
0011
0000
0000
0100
0000
0000
0000
0001
0000
0000
0000
0001
0000
1000
0020
,
0000
0000
0030
0000
0000
0000
0000
0000
1000
0000
0000
0000
1000
0000
0001
0020
,
0000
0030
0100
0000
1100
0000
1000
0000
,
0101
0000
0001
0000
0010
0000
0010
0002
,
0000
0000
0003
0000
0000
0000
0000
0000
1000
0000
0000
0000
1000
0000
0001
0200
,
0000
0300
0010
1000
0100
0000
1100
0000
,
0202
0000
0000
0303
0000
0000
0010
0000
0100
0000
0000
0000
0010
0000
0002
0000
,
0000
0200
0000
0303
0110
0000
0010
1000
,
0000
0101
0000
2010
0000
0000
0000
3100
,
0000
0010
0001
0000
0012
0000
0000
0103
,
0000
0010
1000
0000
0110
0000
0001
0000
,
0110
1000
0110
1001
,
0110
0000
0010
0100
0000
0000
0000
0000
0012
0000
0000
0000
0000
0000
0103
0000
,
0000
0000
0010
0000
2100
0000
0000
3001
,
0000
0000
0010
0000
1020
0000
0000
0130
,
0000
0000
0001
0000
0102
0000
0000
1003
,
0000
0001
1000
0020
0000
1030
0001
0020
,
0000
1030
0010
0100
0000
0001
0010
0200
,
0000
1300
0001
0000
0011
0000
0100
0000
,
0010
0000
0002
2000
0000
0000
0000
0000
,
0000
0000
0000
3003
0200
0000
0000
0000
,
0000
0000
0000
0000
0000
0000
0000
0000
0310
0000
0000
0001
0000
0000
0100
0000
,
0000
0000
0010
0000
1000
0000
0000
0000
0100
0000
0000
0001
0000
0000
0100
0000
,
0000
0000
0010
0000
0001
0000
0000
0000
0002
0000
0000
0000
1000
0000
0000
0020
,
0000
0000
0030
0000
0000
0000
0000
0000
1000
0000
0000
0000
1000
0000
0003
0020
,
0000
0030
0100
0000
1200
0000
1300
0000
,
0101
0000
0011
0000
0010
0000
0010
0002
,
0000
0000
0003
0000
0100
0000
0000
0000
1010
0000
0000
0000
1000
0000
0001
0200
,
0000
0300
0010
1000
0100
0000
1100
0000
,
0202
0000
0000
0303
0000
0000
0010
0000
0100
0000
0000
0000
0010
0000
0002
0000
,
0000
0200
0000
0303
0110
0000
0010
1000
,
0000
0101
0000
2010
0000
0000
0010
3100
,
0000
0010
0001
0000
0012
0000
0010
0103
,
0000
0010
1000
0000
0110
0000
0001
0000
,
0110
1000
0110
1001
,
0110
0000
0020
0200
0000
0000
0000
0000
0330
0000
0000
0000
0000
0000
0000
0000
;
