#TITLE:The Proposed, Flower, Wolf;
#SUBTITLE:[Full Version];
#ARTIST:ReX;
#TITLETRANSLIT:;
#SUBTITLETRANSLIT:;
#ARTISTTRANSLIT:;
#GENRE:World;
#CREDIT:Blood4Fame;
#MUSIC:The Proposed, Flower, Wolf.mp3;
#BANNER:Banner.png;
#BACKGROUND:BG.png;
#CDTITLE:;
#SAMPLESTART:109.229;
#SAMPLELENGTH:30.497;
#SELECTABLE:YES;
#OFFSET:-0.043;
#BPMS:0.000=220.000
,6.000=210.000
,12.000=197.000
,24.000=240.000
,33.000=206.000
,39.000=192.000
,40.000=130.000
,41.000=154.000
,42.000=137.000
,45.000=143.000
,48.000=158.000
,50.000=96.000
,54.000=120.000
,56.000=160.000
,308.000=148.000
,312.000=160.000
,376.000=80.000
,384.000=160.000
,544.000=73.000
,548.000=77.000
,552.000=61.000
,556.000=83.000
,559.000=92.000
;
#STOPS:;
#BGCHANGES:;
#FGCHANGES:;

//--------------- dance-single - Blood4Fame ----------------
#NOTES:
     dance-single:
     Blood4Fame:
     Easy:
     4:
     0,0,0,0,0:
1001
0000
0000
0000
0000
0000
0000
0000
0000
0000
0000
0000
0000
1010
0000
0000
,
0000
0000
1100
0000
,
0000
0011
0000
0000
,
1001
0000
0000
0000
,
0000
0000
0110
0000
,
0000
0000
0000
0000
,
1100
0000
0000
0000
0000
0000
0000
0000
0000
0000
0000
0000
0000
0011
0000
0000
,
0000
0000
1100
0000
,
0000
0110
0000
0000
,
0101
0000
0000
0000
,
0000
0000
2020
0000
,
0000
0000
0000
0000
,
0000
0000
0000
3030
,
2002
0000
0000
0000
0000
3003
0000
0000
,
1000
0000
1000
0100
,
0000
0000
0001
0000
,
0010
0000
0100
1000
,
0000
0000
0010
0000
,
0100
0000
0001
0100
,
0000
0000
0020
0000
,
0000
0000
0000
0000
,
0000
0000
0000
0000
0000
0030
0000
0000
,
0110
0000
1000
0001
,
0100
0000
1000
0010
,
0100
0000
0000
0001
0000
0000
1000
0000
,
0000
0000
1000
0100
,
0010
0000
0001
0100
,
0010
0000
1000
0100
,
0001
0000
0000
0100
0000
0000
1000
0000
,
0000
1000
0100
0000
,
0001
0000
0010
0000
,
0100
0000
0010
0000
,
0001
0000
0000
0100
0000
0000
0010
0000
,
0000
1000
0100
0000
,
0001
0000
0010
0000
,
0100
0000
1000
0000
,
0010
0000
0000
0100
0000
0000
0001
0000
,
0000
1000
0100
0000
,
0001
0000
0000
0100
0000
0000
0010
0000
,
0000
0100
1000
0100
,
0010
0000
0000
0001
0000
0000
0100
0000
,
0000
0010
0001
0000
,
1000
0000
0100
0000
,
0010
0000
0001
0100
,
1000
0000
0000
0001
0000
0000
0100
0000
,
0000
0010
0100
0000
,
0001
0000
0000
0000
0100
0000
0000
0010
,
0000
1000
0100
0001
,
0100
0000
0000
0010
0000
0000
1000
0000
,
0000
0100
0010
0000
,
1000
0000
0000
0000
,
0010
0000
0000
0000
,
0100
0000
0000
0000
,
0001
0000
0000
0000
,
0010
0000
0000
0000
,
0100
0000
0000
0000
,
0001
0000
0000
1000
0000
0000
0010
0000
,
0000
0000
0100
0010
,
1000
0000
0000
0100
0000
0000
0001
0000
,
0000
0010
0100
1000
,
0001
0000
1000
0000
,
0010
0000
0100
0001
,
0100
0000
0010
1000
,
0100
0000
0010
0100
,
0001
0000
1000
0000
,
0010
0000
0100
0000
,
0001
0000
1000
0100
,
0010
0001
0010
0000
,
1000
0000
0010
0100
,
0001
0000
0010
0100
,
0001
0000
1000
0100
,
0010
0000
0010
0100
,
1000
0000
0001
0000
,
1000
0000
0010
0000
,
1000
0002
0000
0000
,
0000
0000
0000
0000
,
0000
0000
0000
0000
,
0000
0000
0000
0003
0000
0000
1000
0000
,
0100
0000
0000
0000
,
0010
0000
0100
0010
,
0001
0000
0000
1000
0000
0000
0000
0000
,
0000
0000
0000
0010
,
0001
0000
0100
0010
,
1000
0001
0100
0010
,
1000
0000
0000
0100
0000
0000
0000
0000
,
0000
0000
0001
0000
,
1000
1000
0100
0000
,
0001
0001
0010
0000
,
0100
0100
0010
0000
,
0001
0100
0001
0000
,
0010
0010
0100
0000
,
1000
1000
0100
0000
,
0001
0001
0001
0000
,
0010
0010
0010
0000
,
1000
0000
0000
0000
,
0001
0000
0010
0000
,
0100
0000
0010
0000
,
1000
0000
0010
0000
,
0100
0000
0001
0000
,
0010
0000
1000
0000
,
0100
0000
0010
0000
,
1000
0000
0001
0000
,
0100
0000
0010
0000
,
1000
0000
0001
0000
,
0100
0010
0001
0000
,
1000
0100
0010
0000
,
0001
0010
0100
0000
,
0001
0100
0010
0000
,
1000
0010
0100
0000
,
0001
0100
0010
1000
,
0100
0010
0001
0000
,
1000
0011
0100
0000
,
1100
0010
0001
0000
,
0100
0010
1000
0000
,
1010
0000
0110
0000
,
0011
0000
1100
0000
,
0110
0000
0101
0000
,
1010
0000
1100
0000
,
0110
0000
1001
0000
,
1100
0000
0011
0000
,
1000
0100
0001
0100
,
0010
0001
0100
1000
,
0100
0010
0001
0100
,
0010
0100
1000
0001
,
0100
0010
1000
0001
,
0001
0100
0010
0001
,
0100
1000
0010
0100
,
1000
1000
0010
0100
,
0001
0100
0010
1000
,
0001
0100
0010
1000
,
0001
0100
0001
0100
,
1000
0100
0010
0001
,
0100
0010
1000
0001
,
0100
0010
1000
0001
,
0100
0010
0001
0100
,
0010
0100
1000
0001
,
2002
3003
0000
0000
0000
0000
0000
0000
,
2020
0000
3030
0000
,
0022
0000
0033
0000
,
0220
0000
0330
0100
,
0002
0000
0000
0000
,
0000
0003
0000
0000
0000
0000
0000
0000
;

//--------------- dance-single - Blood4Fame ----------------
#NOTES:
     dance-single:
     Blood4Fame:
     Medium:
     8:
     0,0,0,0,0:
0101
0000
0010
0101
,
0000
0010
0110
0000
,
1000
1010
0000
0010
,
0022
0000
0000
0000
0000
0033
0011
0000
,
1000
0000
0100
0000
0220
0000
0000
0300
,
0030
0000
0000
0000
1000
0000
0000
0100
0000
0000
0000
0001
0000
0000
0000
0000
,
0022
0000
0000
0003
0000
0000
0030
0000
0001
0000
0000
0000
0100
0000
0000
0000
,
0000
0000
1000
0000
2002
3000
0003
0000
,
0001
0100
0000
0001
,
0022
0000
0000
0000
0003
0030
0001
0000
,
0110
0000
1100
0000
0001
0200
0000
0000
,
0000
0000
0000
0000
0320
0000
0000
0000
0000
0000
0000
0000
0000
0000
0000
0030
,
0020
0000
0000
0000
0000
0000
0000
0000
0000
0000
0000
0000
0230
0000
0000
0000
0000
0000
0000
0000
0000
0000
0000
0300
,
0020
0000
0000
0000
0000
0000
0000
0000
0000
0000
0000
0030
0000
0000
0000
0000
0000
0000
0001
0000
0100
0000
0000
0002
,
0000
0003
0000
0000
0010
0000
0000
0000
0010
0000
0000
0000
2200
0000
0000
0000
,
3300
0001
0100
0010
1000
0000
0010
0000
,
0101
0000
0001
0100
0001
0000
0011
0000
,
1001
0000
0010
0100
0001
0000
0200
0000
,
0020
0300
1030
0002
0000
0003
2020
0000
,
3030
0100
0001
0000
2200
0000
0000
0000
,
0000
0000
0000
3300
4400
0000
0000
0000
,
3300
0000
0000
0100
0000
0000
0000
0000
0000
0000
0000
0000
0100
0000
0000
0000
0001
0000
0000
0000
0100
0000
0000
0000
,
1000
0000
0100
0001
0100
0000
0010
0200
,
0000
0001
0000
0000
0301
0000
1000
0000
,
0202
0000
0303
0022
0033
2000
0200
0000
,
3000
0000
0310
0000
0001
0000
1000
0010
,
0100
0000
0001
1000
0200
0000
1300
0020
,
0000
0100
0130
0001
,
2000
0000
0000
3020
0000
0000
0200
0000
,
0000
0000
0000
0330
0001
1000
0100
0000
,
0022
0000
0000
0033
2002
0000
0000
3003
,
2020
0000
0000
3030
2200
0000
0000
3300
,
0110
0000
0100
0010
0000
1000
0002
0000
,
0000
0000
1003
0100
0010
0000
0001
0010
,
0200
0000
0300
0010
0002
0000
0003
0010
,
0200
0000
0300
1000
0020
0000
0000
0030
,
0220
0000
0330
0022
0000
0033
2200
0000
,
0000
0000
0000
0300
3100
0000
1000
0100
,
0020
0000
0000
0230
0000
1300
0020
0000
,
0000
0000
0130
0010
1000
0001
1000
0000
,
0200
0000
0300
2200
0000
3300
0220
0000
,
0300
0130
0010
0000
1001
0000
1000
0000
,
0110
0000
0001
0100
0001
0000
0100
2000
,
0000
0000
3001
0100
0010
0000
0100
0010
,
0002
0000
0000
0103
0010
0100
0002
0000
,
0000
0000
0000
0000
0003
0000
0010
0001
,
2000
0000
0000
3001
0200
0000
0301
0000
,
0020
0230
0320
0032
,
2003
0000
0000
3001
0000
0000
0220
0000
,
0000
0000
0000
0000
0330
0000
0001
1000
,
0010
0000
0100
0010
0000
0100
0001
0000
,
0220
0000
0330
0010
0100
0000
0101
0000
,
2020
3030
0000
0022
0000
0033
1000
0010
,
0100
0000
0100
1000
0000
1000
0010
0100
,
0002
0003
0001
1000
0000
0001
0200
0000
,
0000
0300
0020
0000
1030
0000
0001
0000
0000
0000
0010
0000
0100
0000
1000
0000
,
0020
0000
0000
0100
0000
0000
0100
0000
,
0000
0000
0100
0000
0130
0001
0010
0100
,
2001
0000
0000
0001
0000
0000
3001
0000
0000
0000
0000
0000
0220
0000
0000
0000
,
0300
1030
0100
0000
0100
0010
0100
0000
,
0200
0000
0000
0000
0000
0000
1000
0300
0002
0000
0000
0000
0000
0000
0003
0000
,
2000
0000
0000
3000
0110
0000
0010
0000
,
0022
0000
0000
0030
1003
0000
1000
0100
,
0020
0000
0000
0000
0030
0010
0001
0000
,
2200
0000
0000
3300
0201
0000
0310
0000
,
1010
0000
0000
1000
0000
0000
0100
0000
0010
0000
0001
0000
0000
0100
0000
0000
,
0020
0000
2030
3002
,
0013
0000
1000
0001
0100
0000
0000
0001
,
0010
0000
0001
0000
1000
0001
0010
0000
,
0010
0000
0100
0000
1000
0000
0010
0100
,
0010
0000
1000
0100
0010
0000
0100
1000
,
0010
0000
0001
0010
0001
0000
0010
0100
,
1000
0000
0000
0010
0000
0000
0100
0000
0001
0000
0000
0010
0000
0000
0001
0000
,
0200
0000
0300
0200
0000
0300
1100
0000
,
0011
2002
0000
0000
,
0000
0000
0003
3001
0010
0000
0100
0000
,
2002
0000
0003
3001
0000
1000
0000
0002
,
0000
0000
0000
0000
0000
0000
1003
0100
,
2200
0000
0000
0000
0000
0000
0000
0000
0000
0000
0000
0000
0000
0000
0000
0000
0000
3000
0000
0000
1300
0000
0010
0000
,
2000
0000
0000
3000
0011
0000
0110
0000
,
0101
0000
0000
2000
0000
0000
0001
0000
,
0002
0000
0000
0000
0000
3003
0002
0000
,
0200
0000
0000
0003
0002
0000
0003
0301
,
0200
0000
0010
0000
0001
0300
0002
0000
,
0203
0000
0300
0100
0002
0000
0000
0000
,
0000
0000
0000
0000
0000
0000
0000
0000
0000
0003
0000
0000
0000
0000
0000
0000
,
0001
0010
0000
0010
0001
0010
0000
1000
,
0010
0000
0001
1000
0010
0000
0000
0010
,
1000
0000
0000
0011
0000
0000
0100
0000
0000
0000
0100
0000
0000
1000
0000
0000
,
0010
0000
0100
0000
0001
0000
0000
0000
0100
0000
0000
0001
0000
0000
0001
0000
,
0100
0000
0101
0000
1001
0000
0010
0001
,
0100
0000
0000
0001
0000
0000
0010
0000
0000
0000
0001
0000
0010
0000
0000
0000
,
2200
0000
3000
0000
0300
0000
0002
0000
0000
0000
1000
0000
0003
0100
0000
0000
,
0010
0000
0010
0000
0010
0100
1000
0000
,
2002
0000
0000
3003
0000
0000
1000
0000
0000
0100
0000
0000
0010
0000
1000
0000
0100
0001
1000
0000
0010
0100
0000
0000
,
0001
0000
0010
0000
0001
0100
0010
0000
1000
0001
0000
0100
0010
0000
1000
0100
0000
0001
1000
0000
0010
1000
0000
0100
,
0020
0000
0031
1000
0000
0000
2000
0000
3002
0000
0003
0000
,
0001
0000
0010
0100
0000
0000
0020
0000
0032
0000
0003
0000
,
0010
0000
0020
0000
0030
0000
0001
0000
2000
0000
3000
0000
,
0010
0000
0020
0000
0130
0000
1000
0000
0000
0100
0000
0000
,
1000
0000
1000
0010
0000
0000
0002
0000
1003
0000
0100
0000
,
0010
0000
0100
0000
0000
0000
0010
0000
0100
0000
0000
0000
,
1000
0000
0001
2000
0000
3000
0100
0000
0001
0020
0000
0030
,
0100
0000
0001
0020
0000
0030
1000
0000
0010
1000
0000
0001
,
1000
0000
2000
0000
3001
0000
0100
0000
0200
0000
0301
0000
,
0100
0000
0010
0000
0000
0100
0020
0000
1030
0000
0000
0000
,
0001
0000
2000
0000
3001
0000
0100
0000
0100
0000
0001
0000
,
0010
0000
0020
0000
0130
0000
1000
0000
0000
0200
0000
0310
,
0001
0000
2000
0000
3200
0000
0310
0000
0020
0000
0031
0000
,
1000
0000
0002
0000
0013
0000
0020
0000
0230
0000
2300
0000
,
3010
0000
0020
0000
0130
0000
0010
0000
0000
0001
0000
0000
,
0001
0000
0001
0010
0000
0010
0100
0000
0000
1000
0000
0000
,
0100
0000
0001
0010
0000
0001
1000
0000
0000
1000
0000
0000
,
0010
0000
1000
0100
0000
0100
0010
0000
0002
0000
0003
0000
,
1001
0000
0000
0000
0000
0000
0000
0000
0000
0000
0000
0000
2002
0000
0000
0000
0000
0000
0000
0000
0000
0000
0000
0000
0000
0000
0000
0000
0000
0000
0000
0000
0000
3003
0000
0000
0000
0000
0000
0000
0001
0000
0000
0000
0000
0000
0000
0000
,
2000
0000
3010
0000
0200
0000
0310
0000
0200
0000
0301
0000
,
2000
0000
3000
0020
0000
0000
0001
0000
0000
0000
0031
0000
,
0100
0000
0010
0000
0020
0000
1000
0000
0000
0000
1030
0000
,
0002
0000
0203
0000
0320
0000
2030
0000
3200
0000
2300
0000
,
3020
0000
2030
0000
3020
0000
0230
0000
0302
0000
0023
0000
,
2230
0000
0000
0000
0000
0000
0000
0000
0000
3300
0000
0000
2020
0000
0000
0000
3030
0000
0202
0000
0000
0000
0303
0000
,
0022
0030
0010
0000
0010
0000
0003
1000
,
0002
0010
0010
0010
,
0000
0000
0000
0003
0002
0000
0000
0003
0020
0000
0000
0030
0002
0000
0000
0003
,
1000
0000
0001
0000
0010
0000
0100
0000
0020
0000
0000
0030
0001
0000
0010
0000
,
0200
0000
1300
0010
2000
0000
3100
0000
,
0220
0000
0330
0202
0000
0303
2002
0000
,
0000
3003
0020
0000
0000
0000
0000
0000
,
0000
0030
0010
0100
1000
0000
1100
0000
,
0220
0000
0000
0330
2020
0000
3000
0030
,
0200
0000
0000
0310
0100
0010
0000
0001
,
0100
0001
0000
1000
0010
1000
0000
0000
,
0220
0000
0330
0000
2002
0000
0000
3003
,
0202
0000
0000
0303
2020
3000
0130
0000
,
0202
0000
0003
0002
0000
0000
2300
0000
,
3000
0023
0000
0000
0000
0000
0030
0000
,
2002
3003
0000
0000
0000
0000
0000
0000
,
0220
0000
0000
0000
0000
0000
0000
0000
0000
0330
0000
0000
0000
0000
0000
0000
0000
0001
0000
0000
0000
0001
0000
0000
0000
0000
0000
0000
0220
0000
0000
0000
0000
0000
0000
0000
0000
0000
0000
0000
0000
0000
0000
0000
0330
0000
0000
0000
,
0101
0000
0000
0000
0000
0000
0001
0000
0000
0000
0020
0000
0030
0000
0011
0000
0000
1000
0000
0000
0000
0000
0000
0020
0000
0000
0000
0000
2030
0000
3000
0000
0000
0202
0000
0303
0000
0000
2020
0000
0000
0000
0000
0000
0000
3030
0000
0000
,
0202
0000
0000
0000
0000
0000
0000
0000
0000
0000
0000
0000
0000
0000
0000
0000
0000
0000
0000
0000
0000
0000
0000
0000
0000
0000
0000
0000
0000
0000
0303
0000
0000
0000
0000
0000
0202
0000
0000
0000
0000
0000
0000
0000
0000
0300
0000
2003
,
0000
0000
3020
0030
0000
0000
0220
0000
0000
0000
0000
0000
0000
0000
0000
0000
0000
0000
0000
0000
0000
0330
0000
0000
;

//--------------- dance-single - Blood4Fame ----------------
#NOTES:
     dance-single:
     Blood4Fame:
     Hard:
     9:
     0,0,0,0,0:
1010
0010
0100
1010
,
0010
0100
0110
0100
,
0001
0101
0010
0100
,
2200
0000
0000
0000
0000
3300
1100
0000
,
0001
0000
0010
0000
0220
0000
0000
0030
,
0300
0000
0000
0000
0001
0000
0000
0010
0000
0000
0000
1000
0000
0000
0000
0000
,
2200
0000
0000
3000
1000
0000
0300
0000
1000
0000
0000
0000
0010
0000
0000
0000
,
0100
0000
0001
0000
2002
0003
3001
0000
,
1000
0010
0100
1000
,
2200
0000
0000
0000
3000
0300
1000
0000
,
0110
0000
0011
0000
1000
0020
0000
0000
,
0000
0000
0000
0000
0230
0000
0000
0000
0000
0000
0000
0000
0000
0000
0000
0300
,
0200
0000
0000
0000
0000
0000
0000
0000
0000
0000
0000
0000
0320
0000
0000
0000
0000
0000
0000
0000
0000
0000
0000
0030
,
0200
0000
0000
0000
0000
0000
0000
0000
0000
0000
0000
0300
0000
0000
0000
0000
0000
0000
1000
0000
0010
0000
0000
2000
,
0000
3000
0000
0000
0100
0000
0000
0000
0100
0000
0010
0000
0022
0000
0000
0000
,
0033
0000
1000
0000
0010
0000
0100
0000
0001
0000
0000
0001
0100
0000
0010
0000
,
1010
0000
1000
0010
1000
0100
1100
0000
,
1001
0000
0100
0010
1000
0000
0020
0000
,
0200
0030
0301
2000
0000
3000
0202
0000
,
0303
0010
1000
0100
0022
0000
0000
0000
,
0000
0000
0000
0033
0044
0000
0000
0000
,
0033
0000
0000
0010
0000
0000
0000
0000
0000
0000
0001
0000
0010
0000
0100
0000
1000
0000
0001
0000
0010
0000
0100
0000
,
1000
0000
0010
1000
0010
0000
0100
0020
,
0000
1000
0000
0000
1030
0000
0001
0100
,
2020
0000
3030
2200
3300
0002
0020
0000
,
0003
0000
0130
0000
1000
0000
0001
0100
,
0010
0000
1000
0001
0020
0000
0031
0200
,
0000
0010
0310
1000
,
0002
0000
0000
0203
0000
0000
0020
0000
,
0000
0000
0000
0330
1000
0001
0010
0100
,
2200
0000
0000
3300
2002
0000
0000
3003
,
0202
0000
0000
0303
0022
0000
0000
0033
,
0110
0000
0010
0100
0000
0001
2000
0000
,
0000
0000
3001
0010
0100
0000
1000
0100
,
0020
0000
0030
0100
2000
0000
3000
0100
,
0020
0000
0030
0001
0200
0000
0000
0300
,
0220
0000
0330
2200
0000
3300
0022
0000
,
0000
0000
0000
0030
0013
0000
0001
0010
,
0200
0000
0000
0320
0000
0031
0200
0000
,
0000
0000
0310
0100
0001
1000
0001
0000
,
0020
0000
0030
2020
0000
3030
0220
0000
,
0030
0310
0100
0001
1001
0000
0001
0010
,
0110
0000
1000
0010
1000
0100
0010
0002
,
0000
0000
1003
0010
0100
0001
0010
0100
,
2000
0000
0000
3010
0100
0010
2000
0000
,
0000
0000
0000
0000
3100
0010
0100
1000
,
0002
0000
0000
1003
0020
0000
1030
0100
,
0200
0320
0230
2300
,
3002
0000
0000
1003
0000
0000
0220
0000
,
0000
0000
0000
0000
0330
0000
1000
0001
,
0100
0000
0010
0100
0000
0010
1000
0000
,
0220
0000
0330
0100
0010
0000
1010
0000
,
0202
0303
0000
2200
0000
3300
0001
0100
,
0010
0000
0010
0001
0000
0001
0100
0010
,
2000
3000
1000
0001
0000
1000
0020
0000
,
0100
0030
0200
0000
0301
0000
1000
0000
0000
0000
0100
0000
0010
0000
0001
0000
,
0200
0000
0000
0010
0000
0000
0010
0000
,
0000
0000
0010
0000
0310
1000
0100
0010
,
1002
0000
0000
1000
0000
0000
1003
0000
0000
0000
0000
0000
0220
0000
0000
0000
,
0030
0301
0010
0001
0010
0100
0010
0001
,
0020
0000
0000
0000
0000
0000
0001
0030
2000
0000
0000
0000
0000
0000
3000
1000
,
0002
0000
0000
0000
0000
0000
0003
0100
0010
0000
0000
0000
0100
0000
0000
0100
,
2000
0000
0000
0000
3001
0000
0001
0010
,
0200
0000
0000
0000
1300
0100
1000
0001
,
0022
0000
0000
0033
1020
0000
0130
0000
,
0101
0000
0000
0001
0000
0000
0010
0000
0100
0000
1000
0000
0000
0010
0000
0000
,
0200
0000
0302
2003
,
3100
0000
0001
1000
0010
0000
0000
1000
,
0100
0000
1000
0000
0001
1000
0100
0000
,
0100
0000
0010
0000
0001
0000
0100
0010
,
0100
0000
0001
0010
0100
0000
0010
0001
,
0100
0010
1000
0100
1000
0000
0100
0010
,
0001
0000
0000
0100
0000
0000
0010
0000
1000
0000
0000
0100
0000
0000
1000
0000
,
0020
0000
0130
0020
0000
0030
0011
0000
,
1100
2002
0000
0000
,
0000
0000
3000
1003
0100
0000
0010
0100
,
2002
0000
0000
0000
0000
0000
3000
0000
0000
1003
0000
0100
0000
0010
0000
0001
0000
0010
0000
0100
0000
2000
0000
0000
,
0000
0000
0000
0000
0000
0000
3001
0010
,
0022
0000
0000
0000
0000
0000
0000
0000
0000
0000
0000
0000
0000
0000
0000
0000
0000
0003
0000
0000
0031
0000
0100
0000
,
0002
0000
0000
0003
1100
0000
0110
0000
,
1010
0000
0000
0002
0000
0000
1000
0000
,
2000
0000
0000
0000
0000
3003
2000
0000
,
0020
0000
0000
0000
0000
0000
3000
0000
2000
0000
0000
0000
3000
0000
1030
0100
,
0020
0000
0100
0000
0001
0030
2000
0000
,
3020
0000
0000
0000
0030
0000
0010
0100
0002
0000
0000
0000
0000
0000
0000
0000
,
0000
0000
0000
0000
,
1003
0000
0100
0010
0000
0000
0100
0000
1000
0000
0100
0000
1000
0000
0001
0000
,
0100
0000
0000
0010
1000
0000
0001
0000
0100
0000
0010
0000
0000
0000
0100
0000
,
0001
0000
0000
1100
0000
0000
0010
0000
0002
0000
0010
0000
0000
0010
0000
0003
,
0001
0000
1000
0000
0010
0000
0000
0100
0010
0000
0000
1000
0000
0000
1000
0000
,
0010
0000
0000
0100
0010
0000
0000
0010
0001
0000
0010
0000
0100
0000
1000
0000
,
0010
0000
0000
1000
0000
0000
0100
0000
0000
0000
1000
0000
0100
0000
0010
0000
,
0022
0000
0003
0000
0032
0000
2000
0000
0003
0000
0001
0000
3000
0010
0000
0000
,
0100
0000
1000
0000
0100
0000
0000
1000
0100
0000
0010
0000
0001
0000
0100
0000
,
2002
0000
0000
3003
0000
0000
0001
0000
0000
0010
0000
0000
0100
0000
0001
0000
0010
1000
0001
0000
0100
0010
0000
0000
,
1000
0000
0100
0000
1000
0010
0100
0000
0001
1000
0000
0010
0100
0000
0001
0010
0000
1000
0001
0000
0100
0001
0000
0010
,
0200
0000
1300
0001
0000
0010
0002
0000
2003
0000
3100
0000
,
1000
0000
0100
0000
0010
0000
0200
0000
2300
0000
3010
0000
,
0100
0000
0200
0000
0300
0001
1000
0000
0002
0000
1003
0000
,
0100
0000
0200
0000
0310
0000
0001
0000
0100
0010
0000
0010
,
1000
0000
0001
0100
0000
0010
2000
0000
3001
0000
0010
0000
,
0100
0000
0010
0000
0001
0000
0100
0000
0010
0000
1000
0000
,
0001
0000
1000
0002
0000
0103
0010
0000
1000
0200
0000
1300
,
0010
0000
1000
0200
0000
0310
0001
0000
0100
0001
0000
1000
,
0001
0000
0002
0000
1003
0100
0010
0000
0020
0000
0031
0000
,
1000
0000
0001
1000
0000
0010
0200
0000
0301
0000
0010
0000
,
0001
0000
0002
0000
1003
0000
0010
0000
0010
0000
1000
0000
,
0100
0000
0200
0000
0310
0000
0001
0000
1000
0020
0000
0130
,
0001
0000
0002
0000
0023
0000
0130
0000
0200
0000
1300
0000
,
0001
0000
2000
0000
3100
0010
0002
0000
0023
0000
0032
0000
,
0103
0000
0200
0000
0310
0000
0100
0000
0001
1000
0000
0100
,
1000
0000
1000
0100
0000
0100
0010
0000
0010
0001
0000
0100
,
0010
0000
1000
0100
0000
1000
0001
0000
0100
0001
0000
0001
,
0100
0000
1000
0010
0000
0010
1000
0000
0002
0000
0003
0000
,
1001
0000
0000
0000
0000
0000
0000
0000
0000
0000
0000
0000
2002
0000
0000
0000
0000
0000
0000
0000
0000
0000
0000
0000
0000
0000
0000
0000
0000
0000
0000
0000
0000
3003
0000
0000
0000
0000
0000
0000
1000
0000
0000
0000
0000
0000
0000
0000
,
0002
0000
0103
0000
0020
0000
0130
0000
0020
0000
1030
0000
,
0002
0000
1003
0200
0000
0000
1000
0000
1000
0000
1300
0000
,
0010
0000
0100
0010
0200
0000
0001
0000
0001
0000
0301
0000
,
2000
0000
3020
0000
0230
0000
0302
0000
0023
0000
0032
0000
,
0203
0000
2300
0000
3200
0000
0320
0000
2030
0000
3200
0000
,
0322
0000
0000
0000
0000
0000
0000
0000
0000
0033
0000
0000
0202
0000
0000
0000
0303
0000
2020
0000
0000
0000
3030
0000
,
2200
0300
0100
0000
0100
0000
3000
0001
,
2000
0100
0100
0100
,
0000
0000
0000
3010
2000
0000
0000
3001
0200
0000
0000
0310
2000
0000
0000
3010
,
0100
0000
0001
0000
0100
0000
0010
0000
0200
0000
0000
0300
0001
0000
0100
0000
,
0020
0000
1030
0100
2000
0000
3010
0000
,
0220
0000
0330
2020
0000
3030
2002
0000
,
0000
3003
0200
0000
0000
0000
0000
0000
,
1000
1300
0100
0010
0001
0000
0011
0000
,
0220
0000
0000
0330
0202
0000
0003
0301
,
0020
0000
0000
0130
0110
0110
0000
1000
,
1010
1010
0000
0001
0101
0101
0000
0000
,
0220
0000
0330
0000
2002
0000
0000
3003
,
2020
0000
0000
0000
0000
0000
3030
0000
0202
0000
0003
0000
0310
0000
0000
1000
,
0020
0000
0000
2000
0000
0000
0032
0000
,
0003
3200
0000
0000
0000
0000
0300
0000
,
2002
3003
0000
0000
0000
0000
0000
0000
,
0220
0000
0000
0000
0000
0000
0000
0000
0000
0330
0000
0000
0000
0000
0000
0000
0000
1000
0000
0001
0000
1000
0000
0000
0000
0100
0000
0000
0220
0000
0000
0000
0000
0000
0000
0000
0000
0000
0000
0000
0000
0000
0000
0000
0330
0000
0000
0000
,
1010
0000
0000
0000
0010
0000
1000
0000
0000
0000
0200
0000
0300
0000
1100
0000
0000
0001
0000
0000
0000
0001
0000
0200
0000
0000
0000
0000
0302
0000
0003
0000
0000
2020
0000
3030
0000
0000
0202
0000
0000
0000
0000
0000
0000
0303
0000
2000
,
0020
0000
0000
0000
0000
0000
0000
0000
0000
0000
0000
0000
0000
0000
0000
0000
0000
0000
0000
0000
0000
0000
0000
0000
0000
0000
0000
0000
0000
0000
3030
0000
0000
0000
0000
0000
2020
0000
0000
0000
0000
0000
0000
0000
0000
0030
0000
3002
,
0000
0000
0203
0300
0000
0000
0220
0000
0000
0000
0000
0000
0000
0000
0000
0000
0000
0000
0000
0000
0000
0330
0000
0000
;

//--------------- dance-single - Blood4Fame ----------------
#NOTES:
     dance-single:
     Blood4Fame:
     Challenge:
     10:
     0,0,0,0,0:
1010
0010
0100
1010
,
0010
0100
0110
0100
,
0001
0101
0010
0100
,
2200
0000
0000
0000
0000
3300
1100
0000
,
0001
0000
0010
0000
0220
0000
0000
0030
,
0300
0000
0001
0100
0001
0000
0000
0010
0000
0000
0000
1000
0000
0000
0000
0000
,
2200
0000
0000
3000
1000
0000
0300
0000
1000
0000
0000
0000
0010
0000
0000
0000
,
0100
0000
0001
0000
2002
0003
3001
0000
,
1000
0010
0100
1000
,
2200
0000
0000
0000
0000
0000
0000
0000
3000
0000
1300
0100
1000
0000
0000
0000
,
0110
0000
0000
0000
0011
0000
0000
0000
1000
0001
0020
0000
0000
0000
0000
0000
,
0000
0000
0000
0000
0000
0000
0000
0000
0000
0000
0000
0000
0230
0000
0000
0000
0000
0000
0000
0000
0000
0000
0000
0000
0000
0000
0000
0000
0000
0000
0000
0000
0000
0000
0000
0000
0000
0000
0000
0000
0000
0000
0000
0000
0000
0300
1000
0000
,
0200
0000
0000
0000
0000
0000
0000
0000
0000
0000
0000
0000
0320
0000
0000
0000
0000
0000
0000
0000
0000
0000
0000
0032
,
0203
0000
0000
0000
0000
0000
0000
0000
0000
0000
0000
0300
0000
0000
0000
0000
0000
0000
1000
0000
0010
0000
0000
2000
,
0000
3000
0000
1000
0100
0000
0000
0000
0100
0000
0010
0000
0022
0000
0000
0000
,
0033
0000
1000
0000
0010
0000
0100
0000
0001
0100
0000
0001
0100
0000
0010
0000
,
1010
0000
1000
0010
1000
0100
1100
0000
,
1001
0000
0100
0010
1000
0000
0020
0000
,
0200
0030
0301
2000
0000
3000
0202
0000
,
0303
0010
1000
0100
0022
0000
0000
0000
,
0000
0000
0000
0033
0044
0000
0000
0000
,
0033
0000
0000
0010
0000
0000
0000
0000
0000
0000
0001
0000
0010
0000
0100
0000
1000
0000
0001
0000
0010
0000
0100
0000
,
1000
0000
0010
1000
0010
0000
0100
0020
,
0000
1000
0000
0000
1030
0000
0001
0100
,
2020
0000
3030
2200
3300
0002
0020
0000
,
0003
0000
0130
0000
1000
0000
0001
0100
,
0010
0000
1000
0001
0020
0000
0031
0200
,
0000
0010
0310
1000
,
0002
0000
0000
0203
0000
0000
0020
0000
,
0000
0000
0000
0330
1000
0001
0010
0100
,
2200
0000
0000
3300
2002
0000
0000
3003
,
0202
0000
0000
0303
0022
0000
0000
0033
,
0110
0000
0010
0100
0000
0001
2000
0000
,
0000
0000
3001
0010
0100
0000
1000
0100
,
0020
0000
0030
0100
2000
0000
3000
0100
,
0020
0000
0030
0001
0200
0000
0000
0300
,
0220
0000
0330
2200
0000
3300
0022
0000
,
0000
0000
0000
0030
0013
0000
0001
0010
,
0200
0000
0000
0320
0000
0031
0200
0000
,
0000
0000
0310
0100
0001
1000
0001
0000
,
0020
0000
0030
2020
0000
3030
0220
0000
,
0030
0310
0100
0001
1001
0000
0001
0010
,
0110
0000
0000
0000
1000
0000
0010
0000
1000
0010
0100
0000
0010
0100
0002
0000
,
0000
0000
1003
0010
0100
0001
0010
0100
,
2000
0000
0000
0000
0000
0000
3010
0000
0100
0000
0010
1000
0002
0000
0000
0000
,
0000
0000
0000
0000
0103
0010
0100
1000
,
0002
0000
0000
0000
0000
0000
1003
0000
0020
0000
0000
0000
1030
0000
0100
0010
,
0200
0320
0230
2300
,
3002
0000
0000
0000
0000
0000
1003
0000
0000
0000
0000
0000
0100
0020
0200
0000
,
0000
0000
0000
0000
0330
0000
1000
0001
,
0100
0000
0010
0100
0000
0010
1000
0000
,
0200
0010
0000
0000
0300
0000
0100
0000
0010
0000
0000
0000
0011
0000
0000
0000
,
0202
0000
0303
0000
1000
0000
0200
1000
0000
0000
0300
0000
0001
0000
0100
0000
,
0010
0000
0010
0001
0000
0001
0100
0010
,
2000
3000
1000
0001
0000
1000
0020
0000
,
0130
0010
0200
0000
0301
0000
1000
0000
0000
0000
0100
0000
0010
0000
0001
0000
,
0200
0000
0000
0010
0000
0000
0010
0000
,
0000
0000
0010
0000
0310
1000
0100
0010
,
1002
0000
0000
1000
0000
0000
1003
0000
0000
0000
0000
0000
0220
0000
0000
0000
,
0030
0000
0301
0000
0010
0000
0001
0100
0010
0000
1000
0000
0010
0000
0100
0000
,
0020
0000
0000
0000
0000
0000
1030
0010
2000
0000
0000
0000
0000
0000
3001
1000
,
0002
0000
0000
0000
0000
0000
0013
0100
0010
0000
0000
0000
0100
0000
1000
0100
,
2000
0000
0000
0000
3001
0000
0001
0010
,
0100
0010
0200
0000
0000
0000
0000
0000
1300
0000
0100
0000
1000
0000
0001
0000
,
0022
0000
0000
0033
1020
0000
0130
0000
,
0101
0000
0000
0001
0000
0000
0010
0000
0100
0000
1000
0000
0000
0010
0000
0000
,
0200
0000
0302
2003
,
3100
0000
0000
0010
0001
0000
1000
0000
0010
0000
0100
0000
0001
0000
1000
0000
,
0100
0000
0000
0000
1000
0000
0000
0000
0001
0000
1000
0010
0100
0000
0001
0000
,
0100
0000
0000
0000
0010
0000
0000
0000
1000
0000
0000
0000
0100
1000
0010
0000
,
0100
0000
0000
0100
0001
0000
0010
0000
0100
0000
0000
0000
0010
0000
0001
0000
,
0100
0000
0000
0010
1000
0000
0100
0000
1000
0000
0000
0001
0100
0000
0010
0000
,
1000
0000
0000
0100
0000
0000
1000
0000
0010
0000
0000
0100
0001
0000
0000
0000
,
0020
0000
0031
0020
0000
0030
0011
0000
,
1100
2002
0000
0000
,
0000
0000
0000
0000
3000
0000
1003
0001
0100
0000
0000
0000
0010
0000
0100
0000
,
2002
0000
0000
0000
0000
0000
3000
0000
0000
1003
0000
0100
0000
0010
0000
0001
0000
0010
0000
0100
0000
2000
0000
0000
,
0000
0000
0000
0000
0000
0000
3001
0010
,
0022
0000
0000
0000
0000
0000
0000
0000
0000
0000
0000
0000
0000
0000
0000
0000
0000
0003
0000
0000
0031
0000
0100
0000
,
0002
0000
0000
0003
1100
0000
0110
0000
,
1010
0000
0000
0002
0000
0000
1000
0000
,
2000
0000
0000
0000
0000
3003
2000
0000
,
0020
0000
0000
0000
0000
0000
3000
0000
2000
0000
0000
0000
3000
0000
1030
0100
,
0020
0000
0100
0000
0001
0030
2000
0000
,
3020
0000
0000
0000
0030
0000
0010
0100
0002
0000
0000
0000
0000
0000
0000
0000
,
0000
0000
0000
0000
,
1003
0000
0100
0010
0001
0000
0100
0010
1000
0000
0100
0000
1000
0000
0001
0000
,
0100
0000
0000
0010
1000
0000
0001
0000
0100
0000
0010
0000
0000
0000
0100
0010
,
1000
0000
0000
1100
0000
0000
0120
0000
0032
0000
0010
0000
0000
0010
0000
0013
,
0001
0000
1000
0000
0010
0000
1000
0100
0010
0000
0000
0001
0000
0000
1000
0000
,
0010
0000
1000
0100
0010
0000
0100
0010
0001
0000
0010
0000
0100
0000
1000
0000
,
0010
0000
0000
1000
0000
0000
0100
0000
0000
0000
1000
0000
0100
0000
0010
0000
,
0022
0000
0003
0000
0032
0000
2000
0000
0003
0000
0001
0000
3000
0010
0000
0010
,
0100
0000
0001
0000
0100
0000
0000
1000
0100
0000
0010
0000
0100
0000
0001
0000
,
2002
0000
0000
3003
0000
0000
0001
1000
0001
0010
0000
0000
0100
0010
0001
0100
0010
1000
0001
0010
0100
0010
0000
0000
,
1000
0001
0100
0010
0000
0000
0010
0100
0001
1000
0001
0010
0100
1000
0001
0010
0100
1000
0001
0010
0100
1000
0001
0010
,
0200
0000
1300
0001
0100
0010
2000
0000
3002
0000
0103
0010
,
1000
0000
0100
0000
0001
0010
0200
0000
0302
0000
1003
0010
,
0100
0000
0200
0000
0310
0100
0001
0000
0002
0000
1003
0010
,
0100
0000
0200
0000
0310
0100
0001
1000
0100
0010
0000
0010
,
0001
0000
0001
0100
0001
0010
0002
0000
1003
0000
0010
0100
,
0010
0000
0010
0000
0010
0100
0001
0000
0001
0000
0001
0010
,
0001
0000
1000
0002
0000
0103
0010
0000
1000
0200
0000
1300
,
0010
0100
1000
0200
0000
0310
1000
0100
0010
1000
0000
1000
,
0001
0000
0002
0000
1003
0100
0010
0000
0020
0000
0031
0100
,
0001
0000
0001
1000
0100
0010
0002
0000
1003
0000
0100
0010
,
0001
0000
0002
0000
1003
0100
0010
0000
0010
0000
0001
0010
,
0100
0000
0200
0000
0310
0100
1000
0001
1000
0020
0000
0130
,
0001
0000
0002
0000
0023
0000
0130
0000
0200
0000
1300
0100
,
1000
0000
2000
0000
3100
0010
0002
0000
0023
0000
0032
0010
,
0103
0010
0200
0000
1300
0001
0100
0010
0100
0001
0100
0001
,
1000
0100
1000
0100
1000
0100
0010
0001
0010
0001
0010
0100
,
1000
0001
1000
0100
0010
0001
0100
0010
0100
0001
1000
0001
,
0100
0000
0010
0000
1000
0000
0010
0000
0100
0000
0010
0000
1000
0000
0002
0000
1000
0000
0000
0000
0000
0003
0000
0000
,
1001
0000
0000
0000
0000
0000
0000
0000
0000
0000
0000
0000
2002
0000
0000
0000
0000
0000
0000
0000
0000
0000
0000
0000
0000
0000
0000
0000
0000
0000
0000
0000
0000
3003
0000
0000
0000
0000
0000
0000
0001
0000
0000
0000
0010
0000
0000
0000
,
0002
0000
0103
0010
2000
0000
3100
0010
0002
0000
0013
0100
,
0002
0000
1003
0200
0000
0000
1000
0000
1000
0000
1300
0000
,
0010
0000
0100
0010
0200
0000
0001
0000
0001
0000
0301
0000
,
2000
0000
3020
0000
0230
0000
0302
0000
0023
0000
0032
0000
,
0203
0000
2300
0000
3200
0000
0320
0000
2030
0000
3200
0000
,
0322
0000
0000
0000
0000
0000
0000
0000
0000
0033
0000
0000
0202
0000
0000
0000
0303
0000
2020
0000
0000
0000
3030
0000
,
2200
0000
0300
0000
0100
0000
0000
0000
0100
0000
0000
0000
3000
0000
1000
0100
,
1000
0002
0000
0000
0100
0000
0000
0000
0100
0000
0000
0000
0100
0000
0000
0000
,
0003
0000
0000
0010
0002
0000
0000
1003
0200
0000
0000
0310
0002
0000
0000
0013
,
0100
0000
1000
0000
0100
0000
0001
0000
0200
0000
0000
0310
0001
0000
0100
0000
,
0020
0000
1030
0100
2000
0000
3010
0000
,
0220
0000
0330
2020
0000
3030
2002
0000
,
0000
3003
0200
0000
0000
0000
0000
0000
,
1000
1300
0100
0010
0001
0000
0011
0000
,
0220
0000
0000
0000
0000
0000
0330
0000
0202
0000
0000
0000
0003
0000
0301
0100
,
0020
0000
0000
0130
0110
0110
0000
1000
,
1010
1010
0000
0001
0101
0101
0000
0000
,
0220
0000
0330
0000
2002
0000
0000
3003
,
2020
0000
0000
0000
0000
0000
3030
0000
0202
0000
0003
0000
0310
0000
0000
1000
,
0020
0000
0000
2000
0000
0000
0032
0000
,
0003
3200
0000
0000
0000
0000
0300
0000
,
2002
0000
0000
0000
0000
0000
3003
0000
0000
0000
0000
0000
0000
0000
0000
0000
0000
0000
0000
0000
0000
0000
0000
0000
0000
0000
0000
0000
0000
0000
0000
0000
0000
0000
0000
0000
0000
0000
0000
0000
0000
0000
0000
0000
0000
0000
1000
0100
,
0020
0000
0000
0000
0000
0000
0030
0000
0001
0000
0000
0100
0000
0000
0010
0000
0000
1000
0000
0001
0000
1000
0000
0000
0000
0100
0000
0000
0220
0000
0000
0000
0000
0000
0000
0000
0000
0000
0000
0000
0000
0000
0000
0000
0330
0000
0001
0100
,
0010
0000
0000
0000
1010
0000
1001
0000
0000
1000
0200
0000
0300
0000
1100
0000
0000
0001
0000
1000
0000
0001
0000
0200
0000
0000
0000
0000
2300
0002
3000
0003
0000
2020
0000
3030
0000
0000
0202
0000
0000
0000
0000
0000
0000
0303
0000
2000
,
0020
0000
0000
0000
0000
0000
0000
0000
0000
0000
0000
0000
0000
0000
0000
0000
0000
0000
0000
0000
0000
0000
0000
0000
0000
0000
0000
0000
0000
0000
3030
0000
0000
1000
0010
0000
2000
0000
0000
0000
0000
0000
0000
0000
0000
0000
0000
3002
,
0000
0000
0000
0000
0203
0000
0000
0000
0000
0000
0000
0000
0320
0200
0000
0000
0000
0000
0000
0000
0000
0000
0000
0000
0000
0000
0000
0000
0000
0000
0000
0000
0000
0000
0000
0000
0000
0000
0000
0000
0000
0000
0330
0000
0000
0000
0000
0000
;
