#TITLE:SuperSonic;
#SUBTITLE: ;
#ARTIST:Planet Boom;
#TITLETRANSLIT:;
#SUBTITLETRANSLIT:;
#ARTISTTRANSLIT:;
#GENRE:Rock;
#CREDIT:Blood4Fame;
#MUSIC:music.mp3;
#BANNER:banner.png;
#BACKGROUND:bg.png;
#CDTITLE:;
#SAMPLESTART:0.000;
#SAMPLELENGTH:0.000;
#SELECTABLE:YES;
#OFFSET:-0.210;
#BPMS:0.000=156.000
,60.000=106.000
,61.500=130.000
,63.000=156.000
,141.000=78.000
,142.500=130.000
,145.000=156.000
;
#STOPS:;
#BGCHANGES:;
#FGCHANGES:;

//--------------- dance-single - Blood4Fame ----------------
#NOTES:
     dance-single:
     Blood4Fame:
     Easy:
     3:
     0,0,0,0,0:
0000
0000
0000
0000
,
0000
0000
0000
0000
,
0000
0000
0000
0000
,
0000
0000
0000
0000
,
1000
0000
1000
0000
,
1000
0000
1000
1000
,
0001
0000
0001
0000
,
0001
0000
0001
0001
,
0100
0000
0100
0010
,
1000
0000
1000
0100
,
0010
0000
0001
0100
,
0010
0000
1000
0100
,
0010
0000
0001
0010
,
0100
0000
1000
0010
,
0001
0000
0100
0010
,
0001
0000
0000
0100
,
0100
0100
0000
0010
,
0010
0010
0000
1000
,
0001
1000
0001
0100
,
0100
0010
0000
1000
,
0100
0001
0000
0100
,
0010
0001
0000
0010
,
0100
0010
0000
1000
,
0100
1000
0001
0100
,
0000
0010
1000
0100
,
0000
0001
0010
0100
,
0000
0001
0100
0010
,
1000
0100
0010
0001
,
0000
0100
0010
1000
,
0000
1000
0100
1000
,
0000
0001
0100
0001
,
0000
0010
1000
0100
,
0000
0100
0000
0010
,
0010
0001
0000
1000
,
0000
0100
0000
0001
,
0000
0110
0000
0000
,
0000
1100
0100
0100
,
0000
0100
0010
0001
,
0000
0011
0010
0010
,
0000
0100
0010
1000
,
0000
1010
1000
1000
,
0000
0001
0100
0010
,
0000
0101
0010
0010
,
0000
0100
0010
1000
,
0000
0100
0000
0010
,
0000
0100
0000
1000
,
0010
0001
0100
0010
,
0000
1000
0000
0100
,
0010
0001
0100
0010
,
0000
1000
0000
0100
,
0000
0010
1000
0010
,
0100
0001
0000
0100
,
0010
1000
0000
1000
,
0000
0001
0000
0010
,
0100
0001
0000
0100
,
0000
0010
0000
1000
,
0100
1000
0000
0010
,
0000
0001
0000
0100
,
0010
0100
0000
0001
,
0000
0010
0000
1000
,
0100
1000
0000
0000
,
0000
0001
0000
0001
,
0000
1000
0000
1000
,
1000
0001
0000
0001
,
0000
1000
0000
2000
,
0000
0000
0000
3000
;

//--------------- dance-single - Blood4Fame ----------------
#NOTES:
     dance-single:
     Blood4Fame:
     Medium:
     7:
     0,0,0,0,0:
0000
0000
0000
0000
,
0000
0000
0000
0000
,
0000
0000
0000
0000
,
0000
0000
0000
0000
,
1001
0001
0000
0000
1001
0000
0001
1000
,
0000
1001
1001
0110
,
1001
0001
0000
0000
1001
0000
0001
1000
,
0000
1001
1001
0110
,
1001
0100
0100
0011
,
0100
0010
0000
0100
0010
0000
1100
0000
,
1010
0010
0001
0110
,
0001
1000
0000
0010
0100
0000
1000
0000
,
0100
0001
0000
0001
1000
0000
1000
0000
,
0010
0100
0000
0001
1000
0000
1000
0000
,
0100
0010
0000
1000
0100
0000
0100
0000
,
0022
0000
0000
0000
0000
0033
0011
0000
,
1000
0000
0010
0000
1010
0000
0010
0100
,
0000
0001
0100
0000
0100
0000
1001
0000
,
0110
0000
1001
0000
0110
0000
0100
0010
,
0000
0010
0100
0000
0010
0000
1100
0000
,
0001
0100
0001
1010
,
1000
0100
1000
0010
,
0001
0100
1000
1010
,
1000
0010
0100
0000
0110
0000
0001
0010
,
0000
0010
0001
0000
0010
0000
0100
0010
,
0000
0100
0010
0000
1000
0000
0100
0001
,
0000
1000
0100
0000
0010
0000
0001
0010
,
0000
1000
0001
0000
0001
0000
0100
1000
,
0000
1000
0010
0000
0001
0000
0100
0010
,
0000
0001
0100
0000
1000
0000
0100
0010
,
0000
0001
0010
0000
1000
0000
0100
0010
,
0000
0010
0100
0000
0010
0000
0001
0001
,
0000
1000
0001
0000
1100
0000
0010
0100
,
0000
0001
1000
0000
0110
0000
1000
0010
,
0000
0100
0001
0000
0011
0000
1000
0000
,
0010
2000
0000
0000
,
0000
3000
0001
0000
0001
0010
0100
0000
,
0001
0000
2000
0000
0000
0000
3001
0000
0200
0000
0000
0300
1000
0000
0100
0000
,
1000
0000
0100
0000
1000
0100
0010
0002
,
0000
2003
0000
3001
0200
0300
0020
0030
,
2000
3000
0001
0000
0010
0100
1000
0020
,
0000
1030
0000
0100
0100
0000
0010
0100
,
1000
0000
0100
0000
0010
0100
0010
2000
,
0000
3002
0000
0013
0100
0000
0001
0000
,
0100
0000
0010
0000
0100
1000
0010
0100
,
0000
0010
0000
1000
0001
0010
0001
0000
,
0010
0000
0100
0000
0001
0010
0100
0010
,
0000
0100
0000
1000
0010
0000
0010
1000
,
0100
0000
0001
0000
0100
0000
1000
0100
,
0000
0100
0000
0010
0010
0000
0001
0010
,
0100
0000
0100
0000
0010
0001
0100
0010
,
0000
0100
0000
0100
0100
0000
1000
0100
,
0010
0000
0011
0000
0000
0101
0000
0000
,
1010
0000
0000
1000
0100
0010
0001
0000
,
0010
0000
1010
0000
0000
1100
0000
0000
,
0011
0000
0000
0010
0100
0010
1000
0000
,
0010
0000
1001
0000
0000
0110
0000
0000
,
1001
0000
0000
0010
0100
0010
1000
0000
,
0010
0110
1001
0110
,
1001
0000
0110
0000
0001
1000
0010
0000
,
0010
1000
2000
0000
0000
0000
0000
0000
,
3000
0000
1001
0001
0000
0000
1001
0000
,
0001
1000
0000
0000
1001
0000
1001
0000
,
0110
0000
1001
0001
0000
0000
1001
0000
,
0001
1000
0000
0000
1001
0000
0220
0000
,
0000
0000
0000
0000
0000
0330
0000
0000
;

//--------------- dance-single - Blood4Fame ----------------
#NOTES:
     dance-single:
     Blood4Fame:
     Hard:
     9:
     0,0,0,0,0:
0000
0000
0000
0000
,
0000
0000
0000
0000
,
0000
0000
0000
0000
,
0000
0000
0000
0000
,
1001
0001
0000
1000
1001
0000
0001
1000
,
0000
1000
0001
0000
1001
0000
0110
0000
,
1001
0001
0000
1000
1001
0000
0001
1000
,
0000
1000
0001
0000
1001
0000
0110
0000
,
1001
0000
0100
1000
0100
0000
0011
0000
,
0100
0010
1000
0100
0010
0000
1100
0000
,
1010
0000
0010
0100
0001
0000
0110
0000
,
0001
1000
0100
0010
0100
0000
1000
0010
,
0100
0001
0000
0001
1000
0100
1000
0001
,
0010
0100
0000
0001
1000
0100
1000
0001
,
0100
0010
0000
1000
0100
0000
0100
0000
,
0022
0000
0000
0000
0000
0033
0011
0000
,
1000
0000
0010
0000
1010
0000
0010
0100
,
0000
0001
0100
0000
1100
0000
1001
0000
,
0110
0000
1001
0000
0110
0000
0100
0010
,
0001
0000
0100
0001
0010
0000
1100
0000
,
0001
0010
0100
0010
0001
0000
1010
0000
,
1000
0010
0100
0010
1000
0000
1010
0000
,
0011
0101
1100
1010
,
1000
0010
0100
0000
0110
0000
0001
0010
,
0000
0010
0001
0100
0010
1000
0100
0010
,
0000
0100
0010
0100
1000
0010
0100
0001
,
0000
1000
0100
1000
0010
1000
0001
0010
,
0000
1000
0001
0010
0001
1000
0100
1000
,
0000
1000
0010
0100
0001
0010
0100
0010
,
0000
0001
0100
0001
1000
0100
0100
0010
,
0000
0001
0010
0100
1000
1000
0100
0010
,
0000
0010
0100
1000
0010
0100
0001
0001
,
0000
1000
0001
0000
1100
0000
0010
0100
,
0000
0001
1000
0000
0110
0000
1000
0010
,
0000
0100
0001
0000
0011
0000
1000
0100
,
0010
0100
2000
0000
0000
0000
0000
0000
,
0000
0000
3000
0000
0001
0000
0000
1000
0001
0000
0010
0000
0100
0000
0010
0000
,
0001
0000
2000
0000
0000
0000
3001
0000
0200
0000
0000
0310
1000
0000
0100
0000
,
1000
0000
0001
0000
0100
0000
0000
0010
1000
0000
0100
0000
0010
0000
0002
0000
,
0000
2003
0000
3001
0200
0300
2020
3030
,
2200
0000
3300
0000
0001
0000
0010
0001
0010
0000
0100
0000
1000
0000
0020
0000
,
0000
0000
1030
0000
0001
0000
0100
0010
0100
0000
0001
0000
0010
0000
0100
0000
,
1000
0000
0010
0000
0100
0000
0010
1000
0010
0000
0100
0000
0010
0000
2000
0000
,
0000
3002
0000
0013
0100
0010
0001
0001
,
0100
0000
0100
0000
0010
0000
0000
1000
0100
0000
1000
0000
0010
0000
0100
0000
,
0001
0000
0010
0000
0100
0000
0000
1000
0001
0000
0010
0000
0001
0000
0100
0000
,
0010
0000
1000
0000
0100
0000
0000
1000
0001
0000
0010
0000
0100
0000
0010
0000
,
0001
0000
0100
0000
0010
0000
0000
1000
0010
0000
0100
0000
0010
0000
1000
0000
,
0100
0000
0010
0000
0001
0000
0000
0001
0100
0000
0010
0000
1000
0000
0100
0000
,
0010
0000
0100
0000
1000
0000
0000
1000
0010
0000
0100
0000
0001
0000
0010
0000
,
0100
0000
1000
0000
0100
0000
0000
0100
0010
0000
0001
0000
0100
0000
0010
0000
,
1000
0000
0100
0000
1000
0000
0000
0010
0100
0000
0010
0000
1000
0000
0100
0000
,
0010
0001
0011
0000
0000
0101
0000
0000
,
1010
0000
0010
1000
0100
0010
0001
0100
,
0010
1000
1010
0000
0000
1100
0000
0000
,
0011
0000
1000
0010
0100
0010
1000
0100
,
0010
0001
1001
0000
0000
0110
0000
0000
,
1001
0000
0100
0010
0100
0010
1000
0100
,
0010
0001
0110
0000
1001
0000
0110
0000
,
1001
0000
0110
0000
0001
1000
0010
0100
,
0010
1000
2000
0000
0000
0000
0000
0000
,
3000
0000
1001
0001
0000
1000
1001
0000
,
0001
1000
0000
1000
0001
0000
1001
0000
,
0110
0000
1001
0001
0000
1000
1001
0000
,
0001
1000
0000
1000
0001
0000
1001
0020
,
0000
0000
0000
0000
0000
0000
0000
0000
0000
0030
0000
0000
0000
0000
0000
0000
;
