#TITLE:Sunny Side;
#SUBTITLE:~Deepn'Soul Mix~;
#ARTIST:Croove;
#TITLETRANSLIT:;
#SUBTITLETRANSLIT:;
#ARTISTTRANSLIT:;
#GENRE:R&B;
#CREDIT:Blood4Fame;
#MUSIC:Sunny Side -Deepn'Soul Mix.mp3;
#BANNER:Banner.png;
#BACKGROUND:BG.png;
#CDTITLE:;
#SAMPLESTART:31.835;
#SAMPLELENGTH:16.117;
#SELECTABLE:YES;
#OFFSET:-0.687;
#BPMS:0.000=122.000
,188.250=244.000
,191.000=122.000
,252.000=244.000
,254.000=122.000
;
#STOPS:188.250=0.184
,189.000=0.184
,189.750=0.184
,190.500=0.123
,252.000=0.061
,252.250=0.061
,252.500=0.061
,252.750=0.123
,253.250=0.184
;
#DISPLAYBPM:122.000;
#BGCHANGES:;
#FGCHANGES:;

//--------------- dance-single - Blood4Fame ----------------
#NOTES:
     dance-single:
     Blood4Fame:
     Easy:
     2:
     0,0,0,0,0:
0000
0000
0000
0000
,
0000
0000
0000
0000
,
0000
0000
0000
0000
,
0000
0000
0000
0000
,
0000
0000
0000
0000
,
0000
0000
0000
0000
,
0220
0000
0000
0000
0000
0000
0000
0330
,
2000
0000
3002
0000
,
0003
0000
0000
0000
,
0010
0000
0010
0000
,
0000
0000
0000
0000
,
0000
0000
0002
0003
0000
0000
0010
0000
,
0000
0000
0000
0000
,
1000
0000
0100
0100
,
0000
0000
0000
0000
,
1000
0000
0020
0000
0000
0030
0000
0000
,
1001
0000
0010
0000
,
0100
0100
1000
0001
,
0100
1000
0001
0100
,
0010
0010
0010
0000
,
1000
0000
0001
0000
,
1000
0100
1000
1000
,
0000
0002
1003
0010
,
0000
0100
0100
0001
,
0000
0000
0001
0100
,
0010
0000
0000
2000
,
3010
0001
0100
0000
,
1000
0010
0010
0001
,
0010
0000
0100
0100
,
0001
0000
0000
0000
0010
0000
0000
0000
2000
0000
0000
3000
1000
0000
0000
0000
,
0000
0001
0100
0010
,
0000
1000
1000
0001
,
0100
0000
0010
0010
,
0000
1010
0000
0000
,
1001
0000
0000
0100
,
0100
0100
0001
0100
,
0100
0010
1000
0000
,
0001
0100
0010
1000
,
0002
0003
0000
0000
0100
0000
0000
0000
,
0100
1000
0010
0010
,
0000
1000
0001
0001
,
1000
0000
0100
0010
,
0001
0000
0000
0001
,
1000
0100
0010
0000
,
0000
1020
0030
0100
,
0000
0000
0001
0100
,
1000
0000
0100
0100
,
0000
1000
0000
0000
0000
0000
0000
0001
0000
0000
0000
0000
0000
0000
0000
0000
,
0200
0000
0000
0300
1001
0000
0000
0000
,
0010
0010
1000
0000
,
0001
0100
0010
0000
,
0010
0100
1000
0010
,
0000
0110
0000
1001
,
1000
0100
0001
0100
,
0000
0010
0000
1000
,
0000
0001
0010
0100
,
0012
0000
0000
0003
0000
0000
0000
0000
0000
0000
0000
0000
0000
0000
0000
0000
,
2010
3000
0000
0000
,
0001
0100
1000
0000
,
0001
1000
0001
1000
,
1000
0001
0100
0100
,
1000
0000
0000
0000
,
0010
0001
0010
0000
,
1000
0000
0001
0000
;

//--------------- dance-single - Blood4Fame ----------------
#NOTES:
     dance-single:
     Blood4Fame:
     Medium:
     6:
     0,0,0,0,0:
0000
0000
0000
0000
,
0000
0000
0000
0000
,
0000
0000
0000
0000
,
0100
1100
0110
0011
,
0100
0000
1000
0000
0000
0000
0000
0000
0000
0110
0000
0000
0000
0000
0000
0110
,
0000
0000
0000
0100
0000
0000
0000
0100
,
2200
0000
0000
0300
0001
0000
0000
3000
,
0102
0000
1000
0003
2002
3000
0010
0000
,
0003
0100
1000
0000
0000
0010
0100
0000
,
1000
0001
0100
0100
,
0000
1000
0001
0000
0000
0010
0100
0000
,
0002
2003
3200
0302
,
0013
0000
0010
0000
0000
0100
0010
0000
,
0001
0000
0010
0000
0100
0000
1000
0010
,
0100
1000
0100
0020
0000
0032
0000
0203
,
0000
0320
0000
0000
0000
0030
0000
0000
,
2100
0000
3001
0000
0120
0000
1030
0001
,
2010
0000
0000
3010
0000
0000
0000
0000
0000
0000
0001
0000
0000
1000
0000
0000
,
0201
0000
0310
0000
0012
0000
1003
0020
,
0000
0000
0230
0000
2300
0000
3200
0300
,
0011
0000
1000
0000
0020
0000
0031
1000
,
0101
0000
0000
0000
0100
0000
0000
0002
0000
0000
1003
0000
0100
0000
0000
0000
,
2020
0000
0000
3030
2100
0000
3001
0000
,
0100
0100
0010
0010
0001
0001
0100
0100
,
0001
0010
0100
0000
0100
0001
0100
2000
,
0000
3000
0100
0001
0010
0100
0001
0001
,
0020
2000
3030
0010
0000
0010
0010
0001
,
2000
0000
0020
3000
0030
0000
0000
0000
0000
0000
0000
0000
0100
0000
0100
0000
,
0010
0001
0000
0010
0000
1200
0000
1300
,
0001
0000
0010
0001
0001
0000
0100
0010
,
0220
0000
0000
0330
0001
1000
0100
0001
,
1002
0000
0100
0000
0023
0030
0022
0000
,
0033
0000
0000
1000
0000
0000
0000
0000
0000
0000
0000
0000
0100
0000
0000
0000
0000
0000
0010
0000
0000
0000
0000
0000
0000
0000
0000
0001
0000
0000
0000
0000
0000
0000
0000
0000
1000
0000
0000
0000
0010
0000
0000
0000
0100
0000
0000
0000
,
0000
0001
0000
0000
0001
0000
0000
1000
0000
0000
0000
1000
0000
0000
0000
0100
,
0000
0100
1000
0100
0001
0001
0100
0100
,
0010
0200
0000
0310
0002
0000
2003
0000
,
3100
0001
0010
0100
0000
0010
0001
1000
,
0000
0021
0030
0000
0100
0100
0010
0001
,
1000
0001
1000
0100
1000
0010
0100
0000
,
1001
0000
0100
1000
0001
0001
0010
0001
,
0020
0000
0000
0000
,
0032
0000
0000
0000
0023
0000
0000
0000
2030
0000
0000
3000
0110
0000
0000
0000
,
1001
1000
1000
0100
0101
0000
1001
0000
,
0010
0000
0001
0010
0000
0000
0010
0000
,
1000
1000
0001
0001
,
0110
0000
1000
0000
0100
0100
0000
0100
,
2020
0000
0000
3030
0202
0000
0000
0303
,
0000
0100
0000
0000
0100
0000
0000
1000
0000
0000
0001
0000
0000
0000
0000
0000
,
0010
0000
0001
0010
0000
1000
0001
0100
,
0010
0000
0001
0000
2000
0000
0200
0000
0000
0000
0000
3000
0301
0000
0000
0000
,
1000
0010
0001
0100
0010
1000
0100
0010
,
2200
0000
3300
0010
0002
0000
0203
0000
,
1300
1000
0001
0100
0010
0001
0010
0000
,
1010
0000
0000
0000
0020
0000
0000
0000
0001
0000
0000
0030
1000
0000
0000
0000
,
1001
0000
1001
0000
,
0000
0011
0000
0000
0100
0000
0110
0000
,
1000
0000
0100
0010
0001
1000
0100
0000
,
0001
0000
0001
0100
0010
1000
0010
0000
,
0000
0001
0000
0000
1000
0001
0010
1000
,
0100
1000
0100
0001
1000
0100
0010
0100
,
0010
0000
1000
0000
0000
0000
0000
0000
0000
0110
0000
0000
0000
0000
0000
0000
,
0100
0000
1000
0001
0000
0010
0100
0000
,
0100
0010
1000
0001
,
0100
1000
0001
0000
0101
0000
0000
0000
;

//--------------- dance-single - Blood4Fame ----------------
#NOTES:
     dance-single:
     Blood4Fame:
     Hard:
     8:
     0,0,0,0,0:
0000
0000
0000
0000
,
0000
0000
0000
0000
,
0000
0000
0001
0000
0000
0001
0000
0000
0100
0000
0000
0000
0000
0000
2000
0000
,
3100
0000
2200
3300
0220
0330
0022
0033
,
0100
0000
1000
0100
0000
0002
0000
0013
0000
2000
3000
0000
0000
0000
0000
2200
,
3300
0000
0010
0001
0000
1000
0100
1000
0000
0000
0000
0001
0000
0010
0100
0000
,
2200
0000
0000
0000
0000
0000
0300
0000
0001
0000
0000
0001
0000
0000
0000
0000
,
3202
0300
1000
0003
2002
0000
0000
0000
,
3003
0000
0000
0000
1000
0000
0000
0001
0000
0000
0010
0000
0100
0000
0000
0010
,
0000
0000
0000
0010
0002
0000
0000
0020
0003
0000
0000
0000
0230
0000
0000
0000
,
1300
0000
0000
1000
0000
0000
0002
0000
0103
0000
0000
0000
0100
0000
0010
0000
,
0000
2000
3200
0302
,
0013
0000
0000
0000
0010
0000
0000
0001
0000
0000
0000
0000
0010
0000
0100
1000
,
0000
0000
0000
0000
0000
0000
0000
0000
0000
0000
0000
1000
0000
0001
0010
0000
,
0100
1000
0100
0020
0000
0032
0000
0203
,
0000
0320
0000
0000
0000
0000
0000
0030
,
1100
0000
0000
0100
0001
0000
0000
0000
0110
0000
0000
0100
1000
0000
0001
0000
,
1010
0000
0000
0100
0010
0000
1000
0000
0000
0000
0001
0000
0000
0010
0000
0000
,
0101
0000
0000
1000
0010
0000
0000
0000
0011
0000
0000
0000
1001
0000
0000
0001
,
0020
0000
0000
0000
0230
0000
0000
0000
2300
0000
0000
0000
3200
0000
0000
0300
,
0011
0000
0000
0010
1000
0000
0000
0110
0000
0000
0000
0010
0001
0000
1000
0000
,
0101
0000
0000
0000
0100
0000
0000
0002
0000
0000
1003
0000
0100
0000
0000
0000
,
2020
0000
0000
0000
0000
0000
3030
0000
1100
0000
0000
0000
1001
0000
0000
1000
,
0100
0000
0000
0100
0010
0000
0000
0010
0001
0000
0001
0000
0100
0001
0100
0000
,
0001
0000
0010
0000
0100
0001
0000
0001
0000
0100
0000
0100
0000
0000
2000
0000
,
0000
0000
3000
0000
0100
0010
0001
0100
0010
0000
0100
0010
0001
0000
0001
1000
,
0020
0000
1030
0000
0000
0001
0010
0000
0000
0100
0010
0000
0021
0000
0031
0000
,
2010
0000
3010
0000
0000
2000
0000
3000
2000
0000
0000
3000
0100
0001
0100
0000
,
0010
1000
0001
0000
0000
0001
0010
0100
0000
0000
2200
0000
0000
3000
1300
0200
,
0300
0000
0000
0000
0010
0000
0001
0100
0001
0010
0000
0000
0100
1000
0010
0000
,
0220
0000
0000
0000
0000
0000
0330
0000
0001
0000
1000
0000
0100
1000
0001
0010
,
0002
0003
0202
0303
0022
0000
0000
0033
,
0000
0000
0000
1000
0000
0000
0000
0000
0000
0001
0000
0000
0000
0000
0000
0000
0000
0000
0010
0000
0000
0000
0000
0000
0000
0000
0000
0100
0000
0000
0000
0000
0000
0000
0000
0000
1000
0000
0000
0000
0010
0000
0000
0000
0100
0000
0000
0000
,
0000
0001
0000
0100
0001
0000
0000
0220
0000
0000
0330
0120
0000
0000
0130
1000
,
0000
0000
0100
1000
0100
0000
0100
0010
0001
0000
0001
0010
0100
0000
0100
1000
,
0100
0000
0100
1000
0000
0100
0010
0000
0001
0100
0000
0010
2000
0000
0000
0000
,
3100
0000
0001
0000
0010
0000
0100
0001
0000
0100
0010
0000
0001
0000
1000
0100
,
0000
0000
0002
0000
0013
0000
0000
0000
0100
1000
0100
0000
0010
0001
0100
0000
,
1000
0001
0100
0000
1000
0100
1000
0000
1000
0100
0010
0001
0000
0000
0000
0000
,
1001
0000
0000
1000
0100
0000
1000
0000
0001
1000
0001
0000
0010
0100
0001
0000
,
0020
0000
1000
0000
0130
0000
0000
1000
0000
0000
0000
0000
0000
0000
0000
0000
,
0000
0000
0000
0000
0000
0000
0000
0000
0000
0011
0000
0000
0110
0000
0000
1200
,
0000
0000
1300
0000
1000
0000
0100
0000
0101
0000
0000
0000
1001
0000
0000
0001
,
0020
0000
0031
0020
0000
0030
0020
0000
,
0030
0000
0000
0000
0000
0110
0000
0000
0000
1001
0000
0000
0000
0000
0000
1001
,
0000
0000
0000
0000
0000
0000
0000
0000
0100
0000
0100
0010
0000
0010
0100
0000
,
2020
0000
0000
3030
0202
0000
0000
0303
,
0000
1000
0000
0000
0100
0000
0000
0010
0000
0000
1001
0000
0000
0000
0000
0100
,
0020
0000
0000
0000
0031
0000
0010
0001
0000
0000
1000
0000
0001
0000
0100
0000
,
0010
0000
0001
0000
1000
0000
0100
0000
0000
0000
0000
0010
0001
0000
0000
0001
,
1000
0010
0001
0100
0010
1000
0100
0010
,
2100
0000
0000
3100
0000
0000
0110
0000
0002
0000
0003
0000
0220
0000
0330
0000
,
1000
1000
0001
0100
0010
0001
0010
0000
,
1010
0000
0000
0100
0010
0000
0000
0010
0001
0000
0000
0000
1000
0000
0000
0000
,
1001
0000
0000
1010
0000
0000
0000
0000
1001
0000
0000
1100
0000
0000
0000
0000
,
0000
0000
0012
0000
0000
0023
0000
0000
0130
0000
0000
0000
0220
0000
0330
0000
,
1000
0000
0000
0001
0100
0000
0010
0000
0001
0000
1000
0000
0100
0010
0000
0000
,
0001
0000
0000
0100
0001
0000
0100
0000
0010
0000
1000
0000
0010
0100
0000
0000
,
0000
0000
0001
0000
0000
0100
0000
0001
1000
0000
0001
0000
0010
0000
1000
0000
,
0100
1000
0100
0001
1000
0100
0010
0100
,
0010
0000
1000
0010
0000
1000
0000
0001
0100
0000
0000
0000
0000
0000
0000
0000
,
0100
0010
0000
0000
1000
0000
0001
0000
0000
0000
0010
0001
0100
0001
0000
0000
,
0200
0320
2030
3002
,
0103
0001
1000
0100
0001
0000
0000
0000
0101
0000
0000
0000
0000
0000
0000
0000
;

//--------------- dance-single - Blood4Fame ----------------
#NOTES:
     dance-single:
     Blood4Fame:
     Challenge:
     10:
     0,0,0,0,0:
0000
0000
0000
0000
,
0000
0000
0000
0000
,
0000
0000
0001
0000
0000
0001
0000
0000
0100
0000
0000
0000
0000
0000
2000
0000
,
3100
0000
2200
3300
0220
0330
0022
0033
,
0100
0000
1000
0100
0000
2000
0000
3010
0000
2002
3003
0000
0000
0000
0000
2200
,
3300
0000
0010
0001
0000
0010
0100
1000
0000
0000
0000
0001
0000
0100
0010
0000
,
2020
0000
0000
0000
0030
0000
0000
0000
0001
0000
0000
0001
0000
0000
0000
0000
,
3202
0000
0300
0000
1000
0100
0003
0000
2002
0000
0000
0000
0000
0000
0000
0000
,
3003
0000
0000
0000
1000
0000
0000
0001
0000
0000
0010
0000
0100
0000
0000
0010
,
0000
0000
0000
0010
0002
0000
0000
0020
0003
0000
0000
0000
0230
0000
0000
0000
,
1300
0000
0000
1000
0000
0000
0002
0000
0103
0000
0000
0000
0100
0000
0010
0000
,
0020
0030
2000
0000
3020
0000
2030
0000
,
3010
0000
0000
0000
0010
0200
0000
0301
0000
0000
0000
0000
0110
0000
0010
1000
,
0000
0000
0000
0000
0000
0000
0000
0000
0000
0000
0000
1000
0000
0001
0010
0000
,
0100
1000
0100
0020
0000
0032
0000
0203
,
0000
0320
0000
0000
0000
0000
0000
0030
,
1010
0000
0000
0100
0001
0000
0000
0000
0110
0000
0000
0010
1000
0000
0001
0000
,
1010
0000
0000
0100
0010
0000
1000
0000
0000
0000
0001
0000
0000
0010
0000
0000
,
0011
0000
0000
1000
0110
0000
0000
0000
0011
0000
0000
0000
1001
0000
0000
0001
,
0020
0000
0000
0000
0230
0000
0000
0000
2300
0000
0000
0000
3200
0000
0000
0300
,
0011
0000
0000
0010
0100
0000
0000
0110
0000
0000
0000
0010
0001
0000
1000
0000
,
0101
0000
0000
0000
0100
0000
0000
2000
0000
0000
3010
0000
0100
0000
0000
0000
,
2020
0000
0000
0000
0000
0000
3030
0000
1100
0000
0000
0000
1001
0000
0000
1000
,
0100
0000
0000
0100
0010
0000
0000
0010
0001
0000
0001
0010
0100
0001
0100
1000
,
0001
0000
0010
0000
0100
0001
0000
0001
0000
0100
0000
0100
0000
0000
0002
0000
,
0000
0000
0003
1000
0100
0010
0001
0100
0010
1000
0100
0010
0001
0100
0001
1000
,
0020
0000
1030
0000
0000
0001
0010
0000
0000
0100
0010
0000
0021
0000
0031
0000
,
0210
0000
0310
0000
0000
2000
0000
3000
2000
0000
0000
3010
0100
0001
0100
0000
,
0010
1000
0001
0000
0000
0001
0010
0100
0000
0000
2200
0000
0000
3000
1300
0200
,
0300
0000
0000
0000
0010
0000
0001
0100
0001
0010
0001
1000
0100
1000
0010
0000
,
0220
0000
0000
0000
0330
0000
0000
0000
0001
1000
0001
0010
0100
1000
0001
0010
,
2002
3003
0202
0303
0022
0000
0000
0033
,
0000
0000
0000
1100
0000
0000
0000
0000
0000
0000
0000
0000
0011
0000
0000
0000
0000
0000
0110
0000
0000
0000
0000
0000
0000
0000
0000
1001
0000
0000
0000
0000
0000
0000
0000
0000
1010
0000
0000
0000
0010
0000
0000
0000
0100
0000
0000
0000
,
0000
0001
0000
0100
0001
0000
0000
0220
0000
0000
0330
0120
0000
0000
0130
1000
,
0000
0000
1000
0100
0010
1000
0100
0010
0001
0010
0001
0010
0100
0010
0100
1000
,
0100
0000
1000
0001
0000
0100
0010
0000
1000
0100
0000
1000
0002
0000
0000
0003
,
0100
0000
0001
0000
0010
0000
0100
1000
0000
0100
0010
0000
0001
0000
1000
0100
,
0000
0000
0002
0000
0013
0000
0000
0000
0100
1000
0100
1000
0001
0010
0100
0010
,
1000
0001
0100
0010
1000
0100
1000
0001
1000
0100
0010
0001
0000
0000
0000
0000
,
1001
0000
0000
1000
0100
0010
0001
0100
0001
1000
0001
0100
0010
0100
0001
1000
,
0020
0000
1000
0000
0100
0000
0000
1000
0000
0000
0000
0000
0030
0000
0000
0000
,
0000
0000
0000
0000
0000
0000
0000
0000
0000
0011
0000
0000
0110
0000
0000
1200
,
0000
0000
1300
0000
1000
0000
0100
0000
0110
0000
0000
0000
1001
0000
0000
0001
,
0020
0000
0031
0020
0000
0030
0020
0000
,
0030
0000
0000
0000
0000
0110
0000
0100
0000
1001
0000
0000
0000
0000
0000
1001
,
0000
0000
0000
0000
0000
0000
0000
0000
0100
0000
0100
0010
0000
0010
0100
0000
,
2020
0000
0000
3030
0202
0000
0000
0303
,
0000
1001
0000
0000
1001
0000
0000
1001
0000
0000
1001
0000
0100
0000
0000
0100
,
0020
0000
0000
0000
0031
0000
0010
0001
0000
0000
1000
0000
0001
0000
0100
0000
,
0010
0000
1000
0000
1000
0000
0100
0000
0000
0000
0000
0010
0001
0000
0000
0001
,
1000
0010
1000
0100
0010
0001
0100
0010
,
0102
0000
0000
0103
0000
0000
0110
0000
2020
0000
3030
0000
0220
0000
0330
0001
,
1000
1000
0001
0100
0010
1000
0010
0000
,
1010
0000
0000
0100
0010
0000
0000
0010
1000
0000
0000
0000
1000
0000
0000
0000
,
1001
0000
0000
1010
0000
0000
0000
0000
1001
0000
0000
1100
0000
0000
0000
0000
,
0000
0000
0012
0000
0000
0023
0000
0000
0130
0000
0000
0000
0220
0000
0000
0330
,
1000
0000
0000
0001
0100
0000
0010
0000
1000
0000
1000
0000
0100
0010
0000
0000
,
0001
0000
0000
0100
0001
0000
0100
0000
0010
0000
1000
0000
0010
0100
0000
0000
,
0000
0000
0001
0000
0000
0100
0000
0001
1000
0000
0001
0000
0010
0000
0001
0000
,
0100
1000
0100
0001
1000
0100
0010
0100
,
0010
0000
0001
0010
0000
0100
0000
1000
0000
0200
0000
0300
0000
0000
0000
0000
,
0100
0010
0000
0000
0001
0000
1000
0000
0000
0000
0010
0001
0100
0001
0000
0000
,
0200
0320
2030
3002
,
0103
0001
1000
0100
0010
0000
0000
0000
0110
0000
0000
0000
0000
0000
0000
0000
;
