#TITLE:Right Back;
#SUBTITLE:;
#ARTIST:TANUKI;
#TITLETRANSLIT:;
#SUBTITLETRANSLIT:;
#ARTISTTRANSLIT:;
#GENRE:Electronic;
#CREDIT:Blood4Fame;
#MUSIC:music.mp3;
#BANNER:banner.png;
#BACKGROUND:bg.png;
#CDTITLE:;
#SAMPLESTART:0.000;
#SAMPLELENGTH:0.000;
#SELECTABLE:YES;
#OFFSET:0.018;
#BPMS:0.000=175.000
,36.000=87.500
,37.000=350.000
,39.000=175.000
,55.000=350.000
,56.000=175.000
,62.000=350.000
,63.000=175.000
,71.000=87.500
,103.000=175.000
,131.000=87.500
,131.500=109.375
,132.000=131.250
,132.500=170.125
,134.000=175.000
,161.000=350.000
,162.000=87.500
,164.000=175.000
,192.000=87.500
,194.000=175.000
,226.000=350.000
,227.000=175.000
,258.000=87.500
;
#STOPS:37.000=0.171
,38.000=0.171
,55.000=0.171
,62.000=0.171
,161.000=0.171
,226.000=0.171
;
#DISPLAYBPM:87.000:0.000;
#BGCHANGES:;
#FGCHANGES:;

//--------------- dance-single - Blood4Fame ----------------
#NOTES:
     dance-single:
     Blood4Fame:
     Beginner:
     2:
     0,0,0,0,0:
0000
0000
0000
0000
,
0000
0000
0000
0000
,
1000
0000
0000
0000
,
1000
0000
0000
0000
,
0100
0000
0000
0000
,
0100
0000
0000
0000
,
0010
0000
0000
0000
,
0010
0000
0000
0000
,
0001
0000
0000
0000
,
0001
0000
0000
0100
,
0000
0000
0000
0100
,
0000
0000
0000
0010
,
0000
0000
0000
0010
,
0000
0000
0000
1000
,
0000
0000
0000
1000
,
0000
0000
0000
0100
,
0000
0000
0000
0010
,
0000
0000
0000
0002
,
0000
0000
0003
0200
,
0000
0000
0300
0020
,
0000
0000
0030
0220
,
0000
0330
0000
2000
,
0000
0000
3000
0200
,
0000
0000
0300
0020
,
0000
0000
0030
2002
,
0000
0000
3003
0100
,
0100
0100
0000
0100
,
0000
0100
0000
0010
,
0010
0010
0000
0010
,
0000
0010
0000
1000
,
1000
1000
0000
0001
,
0001
0001
0000
1000
,
0000
0001
0000
1001
,
0000
0000
0110
0000
,
0110
0000
0000
0000
,
1010
0000
1100
0000
,
1100
0000
0000
0000
,
0011
0000
0101
0000
,
0101
0000
0000
0000
,
1001
0000
0110
0000
,
0110
0000
0000
0000
,
0100
0000
0100
0000
,
0100
0000
0100
0000
,
0010
0000
0010
0000
,
0010
0000
0010
0000
,
1000
0000
1000
0000
,
1000
0000
1000
0000
,
0001
0000
0001
0000
,
0100
0000
0010
0000
,
0000
0000
0010
0000
,
0000
0000
0100
0000
,
0000
0000
1000
0000
,
0000
0000
0001
0000
,
0000
0000
0010
0000
,
0000
0000
0100
0000
,
0000
0000
1000
0000
,
0001
0000
0100
0000
,
0000
0000
0010
0000
,
0000
0000
1000
0000
,
0000
0000
0100
0000
,
0000
0000
0001
0000
,
0000
0000
1000
0000
,
0000
0000
1001
0000
,
0000
0000
0110
0000
,
0000
0000
2002
0000
,
3003
0000
0000
0000
;

//--------------- dance-single - Blood4Fame ----------------
#NOTES:
     dance-single:
     Blood4Fame:
     Easy:
     3:
     0,0,0,0,0:
0000
0000
0000
0000
,
0000
0000
0000
0000
,
1000
1000
1000
1000
,
0000
0000
0000
0000
,
0100
0100
0100
0100
,
0000
0000
0000
0000
,
0010
0010
0010
0010
,
0000
0000
0000
0000
,
0001
0001
0001
0001
,
0000
0000
0000
0100
,
0100
0100
0100
0000
,
0000
0000
0000
0010
,
0010
0010
0010
0000
,
0000
0000
0000
1001
,
0000
0010
0000
0010
,
0000
0000
1001
0000
,
0010
0000
0010
0010
,
0000
0100
0000
0002
,
0000
0203
0000
0302
,
0000
0023
0000
0230
,
0000
0000
0310
0002
,
0000
2003
0000
3200
,
0000
0000
1300
0020
,
0000
0032
0000
0203
,
0000
0000
0310
2000
,
0000
0100
0100
3100
,
0100
0100
0100
0000
,
0000
0000
0000
0010
,
0010
0010
0010
0000
,
0000
0000
0000
0022
,
0000
0033
0000
0022
,
0000
0033
0000
0220
,
0330
0220
0000
0000
,
0000
0330
0110
0000
,
0000
0000
0100
0000
,
0010
0000
0110
0000
,
0000
0000
1000
0000
,
0001
0000
1001
0000
,
0000
0000
0010
0000
,
1000
0000
1010
0000
,
0000
0022
0000
0033
,
0010
0000
0010
0000
,
0010
0000
0010
0100
,
0001
0000
0001
0000
,
0001
0000
0001
1000
,
0100
0000
0100
0000
,
0100
0000
0100
0010
,
0100
0000
0100
0000
,
1001
0000
1100
0000
,
0000
0000
1100
0000
,
0000
0000
1100
0000
,
0000
0000
0110
0000
,
0000
0000
0110
0000
,
0000
0000
0110
0000
,
0000
0000
0011
0000
,
0000
0000
0011
0000
,
0100
0000
2002
3003
,
0000
0000
0010
0000
,
0000
0000
0100
0000
,
0000
0000
1000
0000
,
0100
0000
0010
0000
,
0000
0000
0010
0000
,
0000
0000
0001
0000
,
0000
0000
0200
0300
,
0020
0000
2030
0000
,
0000
3000
0000
0000
;

//--------------- dance-single - Blood4Fame ----------------
#NOTES:
     dance-single:
     Blood4Fame:
     Medium:
     7:
     0,0,0,0,0:
0000
0000
0000
0000
,
0000
0000
0000
0000
,
0001
0010
0000
0100
0010
0000
0100
0000
,
0010
0100
0000
0010
0100
0000
0100
0000
,
1000
0000
0001
1000
0000
1000
0010
0000
,
0100
0010
0000
0100
0010
0000
0100
0000
,
0001
0000
0100
0010
0000
0010
1000
0000
,
0100
0010
0000
1000
0100
0000
0100
0000
,
0010
0000
0001
0100
0000
0100
0010
0000
,
0010
2200
3300
0001
,
0001
0100
0000
0010
0100
0000
1000
0000
,
1000
0010
0000
0100
0010
0000
1000
0000
,
0010
0100
0000
0001
0100
0000
0100
0000
,
0010
0100
0000
0001
0100
0000
0000
0000
,
1100
0000
0100
0010
0000
0100
0010
0000
,
0100
0000
0100
0010
0000
0000
0011
0000
,
0010
0100
0000
0001
1000
0000
0000
0000
,
0000
0010
1000
0100
0000
0000
0002
0000
,
0000
0000
0003
0000
2000
0000
0000
3010
1000
0000
0000
0100
0000
0010
0000
1000
,
0000
0000
0000
0001
0000
0010
0000
0100
0000
0000
0000
0020
0000
0000
0000
0000
,
0030
0000
0011
0200
,
0000
0300
0110
0000
0001
0000
0200
0000
,
0300
0010
0001
0000
0000
0000
0000
0100
0001
0000
0000
0010
0000
1000
0000
0001
,
0000
0000
0000
0100
0000
1000
0000
0100
0000
0000
0000
0022
0000
0000
0000
0000
,
0000
0033
0100
1000
0000
0000
0000
0000
0020
0200
0330
0000
0020
0000
0000
0000
,
0000
0000
0030
0000
2020
0000
0000
0000
0000
0030
0000
0000
3100
0000
0020
0000
,
0000
0032
0000
0203
0000
0310
1000
0200
,
0000
0320
0000
0230
0000
1300
0010
0200
,
0000
0302
0000
2003
0000
3010
0100
0020
,
0000
2030
0000
3002
0003
0001
0010
0000
,
0000
0100
0010
0000
0000
0100
0010
0000
,
0000
0100
0010
0000
0000
0100
0010
0000
,
0011
0101
2002
0000
,
0000
0000
0000
0000
0000
0000
0000
3003
0001
0000
0000
0010
0000
0000
0100
0000
,
0000
1000
0000
0000
0010
0000
0000
0000
0010
0000
0000
1000
0000
0000
0100
0000
,
0000
1000
0000
0000
1000
0000
0000
0000
1000
0000
0000
0001
0000
0000
0100
0000
,
0000
0100
0000
0000
0100
0000
0000
0000
1000
0000
0000
0010
0000
0000
1000
0000
,
0000
0001
0000
0000
0100
0000
0000
0000
0001
0000
0000
0100
0000
0000
0010
0000
,
0000
0010
0000
0000
0100
0000
0000
0000
0001
0000
0000
0010
0000
0000
0010
0000
,
0000
0001
0000
0000
0100
0000
0000
0000
0001
0000
0000
0010
0000
0000
0100
0000
,
0000
1000
0000
0000
1000
0000
0000
0000
0100
0000
0000
0100
0000
0000
1000
0000
,
0001
0000
0000
0010
0000
0000
0100
0000
0000
1000
0000
0000
0010
0000
0000
0000
,
0010
0000
0000
1000
0000
0000
0100
0000
0000
1000
0000
0000
1000
0000
0000
0000
,
0010
0000
0000
0001
0000
0000
0100
0000
0000
0100
0000
0000
0010
0000
0000
0000
,
0010
0000
0000
0010
0000
0000
1000
0000
0000
0001
0000
0000
0100
0000
0000
0000
,
0010
0000
0000
1000
0000
0000
1000
0000
0000
0010
0000
0000
0100
0000
0000
0000
,
0001
0000
0000
0001
0000
0000
0010
0000
0000
0010
0000
0000
0010
0000
0000
0000
,
0001
0000
0000
0010
0000
0000
0100
0000
0000
0100
0000
0000
1000
0000
0000
0000
,
2000
0000
0000
3200
0000
0000
0300
0000
2000
0000
0000
0000
0000
0000
0000
0000
,
0000
0000
0000
0000
3002
0000
0003
0001
,
1000
0000
0000
0110
0000
0010
0000
1100
,
0000
0000
0000
0011
0000
0010
0000
0110
,
0000
0000
0000
0000
0000
0000
0011
0000
0000
0000
0000
0000
0001
0000
0000
0001
,
0000
0000
1000
0000
0000
0010
0000
0000
0100
0000
0000
0000
0000
0000
0000
0000
,
1010
0000
0000
0010
0200
0000
0000
0000
,
0000
0000
0000
0000
0300
0000
0000
1000
,
0001
0010
0000
0200
0000
0000
0000
0000
,
0000
0000
0000
0000
0000
0300
0000
0100
,
1000
0100
0000
1010
0000
1000
0000
0001
,
0000
0000
0000
0110
0000
1000
0000
0100
,
0000
0000
0000
0022
0000
0000
0000
0000
,
0000
0000
0033
0000
,
0220
0330
0022
0000
,
0000
0000
0000
0000
,
0000
0000
0033
0100
0020
0000
0000
0000
,
0000
0000
0000
0030
;

//--------------- dance-single - Blood4Fame ----------------
#NOTES:
     dance-single:
     Blood4Fame:
     Hard:
     8:
     0,0,0,0,0:
0000
0000
0000
0000
,
0000
0000
0000
0000
,
0001
0010
0000
0100
0010
0001
0100
0000
,
0010
0100
0000
0010
0100
0001
0100
0000
,
1000
0000
0001
1000
0000
1000
0010
0000
,
0100
0010
0000
0100
0010
1000
0100
0000
,
0001
0000
0100
0010
0000
0010
0001
0000
,
0100
0010
0000
0100
0001
0010
0100
0000
,
0010
0000
0001
0100
0000
0100
0010
0000
,
0010
1000
1100
0000
1001
0000
0001
0010
,
0001
0100
0000
0010
0100
0000
1000
0100
,
1000
0010
0000
0100
0010
0000
0001
1000
,
0010
0100
0000
1000
0100
0000
1000
0001
,
0010
0100
0000
0001
0100
0000
0000
0000
,
1100
0000
0100
0010
0000
0100
0010
0001
,
0100
0000
0100
0010
0000
0000
1010
0000
,
0010
0100
0000
0001
1000
0100
0000
0000
,
0000
0010
0001
0100
0000
0100
0002
0000
,
0000
0000
0003
0000
2000
0000
0000
3010
1000
0010
0000
0100
0000
0010
0000
1000
,
0000
0001
0000
0001
0000
0010
0000
0100
0000
1000
0000
0020
0000
0000
0000
0000
,
0030
1000
0010
0100
0000
0000
0000
0000
0011
0000
0000
0010
0200
0000
0000
0000
,
0300
0010
0001
0010
0000
0000
0000
1000
0001
0010
0000
0200
0000
0000
0000
0300
,
0000
0010
0001
0100
0000
0000
0000
0100
0001
0100
0000
0010
0000
1000
0000
0001
,
0000
0010
0000
0100
0000
1000
0000
0100
0000
0010
0000
0022
0000
0000
0000
0000
,
0000
0033
0100
1000
0000
0000
0000
0000
0020
0200
0330
0200
0020
0000
0000
0000
,
0000
0000
0330
0000
2020
0000
0000
0000
0000
3030
0000
1000
0100
0000
0020
0000
,
0000
0032
0000
0203
0000
0310
1000
0200
,
0000
0320
0000
0230
0000
1300
0010
0200
,
0000
0302
0000
2003
0000
3010
0100
0020
,
0000
0000
2030
0000
0000
0000
3002
0000
0003
0000
0001
0000
0010
0000
0000
0010
,
0000
0000
0100
0000
0010
0000
0000
0010
0000
0000
0100
0000
0010
0000
0000
0010
,
0000
0000
0100
0000
0010
0000
0000
0010
0000
0000
0100
0000
0010
0000
0000
0010
,
0001
0000
0000
0010
0001
0000
0000
1000
0001
0000
0000
0200
0000
0000
0300
0000
,
0002
0000
0000
0000
0000
0000
0003
0000
0001
0000
0000
0010
0000
0000
0100
0000
,
0000
1000
0000
0000
0010
0000
0100
0000
0010
0000
0000
1000
0000
0000
0100
0000
,
0000
1000
0000
0000
1000
0000
0100
0000
1000
0000
0000
0001
0000
0000
0100
0000
,
0000
0100
0000
0000
0100
0000
0010
0000
1000
0000
0000
0010
0000
0000
1000
0000
,
0000
0001
0000
0000
0100
0000
0000
0000
0001
0000
0000
0100
0000
0000
0010
0000
,
0000
0010
0000
0000
0100
0000
0000
0000
0001
0000
0000
0010
0000
0000
0010
0000
,
0001
0000
0000
0100
0000
0000
0010
0000
1000
0000
0000
0010
0000
0000
0100
0000
,
0000
0001
0000
0000
1000
0000
0000
0000
0100
0000
0001
0100
0000
1000
0100
0000
,
0001
0000
0000
0010
0000
0000
0100
0000
0000
1000
0000
0000
0010
0000
0100
0000
,
0010
0000
0000
1000
0000
0000
0100
0000
0000
1000
0000
0000
1000
0000
0100
0000
,
0010
0000
0000
0001
0000
0000
0100
0000
0000
0100
0000
0000
0010
0000
1000
0000
,
0010
0000
0000
0010
0000
0000
1000
0000
0000
0001
0000
0000
0100
0000
0000
0000
,
0010
0000
0000
1000
0000
0000
1000
0000
0000
0010
0000
0000
0100
0000
0000
0000
,
0001
0000
0000
0001
0000
0000
0010
0000
0100
0000
0000
0010
0000
0000
0010
0000
,
0001
0000
0000
0010
0000
0000
0100
0000
0000
0100
0000
0000
1000
0000
0010
0000
,
2000
0000
0000
3200
0000
0000
0300
0000
2000
0000
0000
0000
0001
0000
0000
3001
,
0000
0000
0100
0000
0000
0100
0000
0000
0002
0000
0000
0000
0003
0000
0001
0000
,
1000
0010
0000
0110
0000
0010
0000
1000
,
0000
0001
0000
0011
0000
0010
0000
0100
,
0000
0000
1000
0000
0000
0000
0020
0000
0001
0000
0000
0000
0001
0000
0000
0001
,
0030
0000
1000
0000
0000
0010
0000
0000
0100
0000
0000
0000
0000
0000
0000
0000
,
1010
0000
0000
0000
0000
0000
0010
0000
0200
0000
0000
0000
0010
0000
0000
0010
,
0300
0000
0010
0000
0000
1000
0000
0000
0010
0000
0000
0000
0000
0000
1000
0000
,
0001
0010
0000
0200
0000
0300
0110
0000
,
0000
0000
0010
0000
0000
0001
0000
0000
0100
0000
0000
0000
0000
0000
0100
0000
,
0001
0100
0000
1010
0000
1000
0000
0001
,
0000
0010
0000
0110
0000
1000
0000
0100
,
0000
0000
0010
0000
0000
0000
0022
0000
0000
0000
0000
0000
0000
0000
0000
0003
,
0000
0000
0130
0000
0000
1000
0000
0000
0100
0000
0000
0000
0000
0000
0000
0000
,
0220
0330
0022
0000
,
0000
0033
2020
0000
,
0000
3030
0000
0100
0020
0000
0000
0000
,
0000
0000
0000
0030
;

//--------------- dance-single - Blood4Fame ----------------
#NOTES:
     dance-single:
     Blood4Fame:
     Challenge:
     11:
     0,0,0,0,0:
0000
0000
0000
0000
,
0000
0000
0000
0000
,
0001
0010
0001
0100
0010
1000
0100
1000
,
0010
0100
0001
0010
0100
1000
0100
0010
,
0001
0000
0001
1000
0000
1000
0010
0000
,
0100
0010
1000
0100
0010
0001
0100
0010
,
1000
0000
0100
0010
0000
0010
0001
0000
,
0100
0010
1000
0100
1000
0010
0100
0001
,
0010
0000
0001
0100
0000
0100
0010
0000
,
0010
0000
0000
1000
0001
0000
0000
0000
1100
0000
0000
0000
0000
0000
0000
0000
1001
0000
0000
0000
0000
0000
0000
0000
0001
0000
0000
0000
0010
0000
0000
0000
,
0001
0100
0001
0010
0100
1000
1000
0100
,
1000
0010
1000
0100
0010
0001
0001
1000
,
0010
0100
0010
1000
0100
0100
1000
0001
,
0010
0100
0010
0001
0100
0100
0000
0000
,
1100
0000
0100
0010
0001
0100
0010
1000
,
0100
0010
0100
1000
0000
0000
0011
0000
,
0010
0100
0000
1000
0001
0100
0000
0000
,
0000
0000
0010
0000
1000
0000
0100
0000
0000
0000
0010
0000
0002
0000
0000
1000
,
0000
0000
0013
0000
0200
0000
0000
1000
0000
0000
0310
0000
0100
0010
0000
0010
,
0000
0001
0000
0001
1000
0010
0000
0100
0000
0001
0000
0010
0100
0100
0000
1000
,
0000
0001
0010
0100
0000
0000
0000
0000
0011
0000
1000
0010
0100
0010
1000
0100
,
0000
0010
0001
0010
0011
0000
0000
1000
0001
0010
0000
0000
1010
0000
0000
0100
,
0000
0010
1000
0100
0000
0000
0000
0100
0001
0100
0000
1010
0000
1100
0000
0101
,
0000
0011
0000
0110
0000
1010
0000
1100
0000
0110
0000
0022
0000
0000
0000
0000
,
0000
0033
0100
1000
0000
0000
0000
0000
0020
0200
0330
0200
0020
0000
0000
0000
,
0000
0000
0330
0000
1010
0000
4400
0000
0000
0000
3300
1000
0100
0000
0020
0000
,
0000
0000
0032
0000
0000
0000
0203
0000
0000
0000
0310
0000
1000
0000
0000
0001
,
0000
0000
0001
0000
0000
0001
0000
0100
0010
0000
1000
0000
0100
0000
0000
0100
,
0000
0000
0100
0000
0000
0010
0000
0000
0001
0000
1000
0000
0001
0000
0000
0001
,
0000
0000
1000
0000
0000
1000
0000
0100
0010
0000
0001
0000
0010
0000
0000
0010
,
0000
0000
0100
0000
0010
0000
0000
0010
0000
0000
0100
0000
0010
0000
0000
0010
,
0000
0000
0100
0000
0010
0000
0000
0010
0000
0000
0100
0000
0010
0000
0000
0010
,
0001
0000
0000
0010
0001
0000
0000
1000
0001
0000
0000
0100
0004
0000
0000
0000
,
0000
0000
0000
0000
0000
0000
0003
0000
0011
0000
0000
0011
0000
0000
1100
0000
,
0000
1100
0000
0000
0010
0000
0100
0000
1010
0000
0000
1010
0000
0000
1100
0000
,
0000
1100
0000
0000
1000
0000
0100
0010
0001
0000
0000
0001
0000
1000
0100
0000
,
0000
0100
0000
1000
0100
0000
0010
0001
0010
0000
0000
0010
0000
0000
0001
0000
,
0000
0001
0000
0000
0100
0000
0000
0010
1000
0000
0000
0100
0000
0000
1000
0000
,
0000
0010
0000
0000
0100
0000
0000
0001
0010
0000
0001
0000
0100
0000
0010
0000
,
1000
0000
0100
0000
0010
0000
0000
0001
0010
0000
0000
0010
0000
0000
0100
0000
,
0000
0100
0000
0000
1000
0000
1000
0000
0100
0010
0001
0100
0010
1000
0100
0010
,
0001
0000
0000
0011
0000
0000
1100
0000
0000
1100
0000
0000
0010
0000
0100
0000
,
1010
0000
0000
1010
0000
0000
1100
0000
0000
1100
0000
0000
1000
0000
0100
0010
,
0001
0000
0000
0001
0000
1000
0100
0000
0000
0100
0000
1000
0100
0000
0010
0001
,
0010
0000
0000
0010
0000
0000
0001
0000
0000
0001
0000
0000
0100
0000
0000
0010
,
1000
0000
0000
0100
0000
0000
1000
0000
0000
0010
0000
0000
0100
0000
0000
0001
,
0010
0000
0001
0000
0100
0000
0010
0000
1000
0000
0100
0000
0010
0000
0000
0001
,
0010
0000
0000
0010
0000
0000
0100
0000
0000
0100
0000
0000
1000
0000
1000
0000
,
0002
0000
0000
0023
0000
0000
0031
0000
0002
0000
0003
1000
0001
0000
1000
0000
,
0000
0010
0000
0000
0010
0000
0000
0000
0200
0000
0300
0000
0000
0001
0100
0000
,
0010
0000
1000
0000
0000
0010
0000
0000
0100
0000
0010
0000
1000
0000
0010
0000
,
0100
0001
0010
0001
1000
0100
0010
0100
,
1000
0000
0001
0000
0000
0010
0000
0000
0100
0000
0000
0000
0100
0000
1000
0001
,
0000
0000
0001
0000
0000
0010
0000
0000
0100
0000
0000
0000
0010
0000
0000
0001
,
0010
0000
0100
0000
0000
1000
0000
0000
0010
0000
1000
0000
0100
0000
0010
0000
,
0001
0000
0100
0000
0001
0000
0010
0000
0001
0000
0000
0000
0001
0000
1000
0001
,
0000
0000
0010
0000
0000
0000
0022
0000
0033
0000
0000
0000
0010
0000
0100
1000
,
0000
0000
0010
0000
1000
0000
0100
0000
0010
0000
0001
0000
1000
0000
0100
0010
,
0000
0001
0000
1010
0000
1100
0000
0101
,
0000
0011
0000
0110
0000
1010
0000
1100
,
0000
0110
0000
0022
0000
0000
0003
0000
,
0000
0000
0130
0000
0000
1000
0000
0000
0100
0000
0000
0000
0110
0000
0000
0001
,
0000
0200
0300
0200
0020
0000
0000
0000
,
0000
0330
1010
0000
,
0001
0010
0100
0000
1000
0000
1000
0100
0020
0000
0000
0000
0000
0000
0000
0000
,
0000
0000
0000
0030
;
