#TITLE:Raise Me Up;
#SUBTITLE:;
#ARTIST:Planet Boom;
#TITLETRANSLIT:;
#SUBTITLETRANSLIT:;
#ARTISTTRANSLIT:;
#GENRE:J/K-Pop;
#CREDIT:Blood4Fame;
#MUSIC:music.mp3;
#BANNER:banner.png;
#BACKGROUND:bg.png;
#CDTITLE:;
#SAMPLESTART:0.000;
#SAMPLELENGTH:0.000;
#SELECTABLE:YES;
#OFFSET:-0.231;
#BPMS:0.000=130.000;
#STOPS:;
#BGCHANGES:;
#FGCHANGES:;

//--------------- dance-single - Blood4Fame ----------------
#NOTES:
     dance-single:
     Blood4Fame:
     Easy:
     2:
     0,0,0,0,0:
0000
0000
0000
0000
,
0000
0000
0000
0000
,
0000
0000
0000
0000
,
0000
0000
0000
0000
,
0000
0000
0000
0000
,
0000
0000
0000
0000
,
0000
0000
0000
0000
,
0000
0000
0000
0000
,
0000
0000
0000
0000
,
0001
0000
0000
0000
0000
0001
0000
0100
,
0000
0000
0000
0000
0000
0010
0000
1000
,
0000
0000
0000
0000
0000
0010
0000
0001
,
0000
0000
0000
0000
0000
0100
0000
1000
,
0000
0000
0000
0000
0000
0010
0000
0100
,
0000
0000
0000
0000
0000
0001
0000
0000
,
0200
0000
0000
0320
0000
0000
0230
0000
,
0302
0000
0000
2003
0000
0000
3100
0000
,
0010
0000
0000
0000
0000
0001
0000
1000
,
0000
0000
0000
0000
0000
0010
0000
0100
,
0000
0000
0000
0000
0000
0010
0000
1000
,
0000
0000
0000
0000
0000
0001
0000
0100
,
0000
0000
0000
0000
0000
0010
0000
1000
,
0000
0000
0000
0000
0000
0100
0000
0000
,
0020
0000
0000
0230
0000
0000
0302
0000
,
2003
0000
0000
3020
0000
0000
0130
0000
,
0001
0001
0001
0000
,
1000
1000
1000
0000
,
0001
0001
0001
0000
,
1000
1000
1000
0000
,
0010
0000
0001
0000
,
0100
0000
1000
0000
,
0010
0000
0100
0000
,
0001
0000
1000
0000
,
0020
0000
0000
0030
0010
0000
0010
0000
,
1000
0000
0000
1000
0000
0000
0001
0000
,
0100
0000
0000
0100
0000
0000
0010
0000
,
0010
0000
0000
1000
0000
0000
1000
0000
,
0100
0000
0000
0100
0000
0000
0010
0000
,
0001
0000
0000
0001
0000
0000
0100
0000
,
0010
0000
0000
1000
0000
0000
1000
0000
,
0100
0000
0000
0100
0000
0000
0010
0000
,
0000
0001
0001
0000
1000
0000
1000
0000
,
0100
0000
0000
0010
0000
0000
0100
0000
,
1000
0000
0000
0001
0000
0000
0100
0000
,
0020
0000
0000
0000
,
0000
0000
0000
0030
0000
0000
1000
0000
,
0200
0000
0300
0010
,
0002
0000
0003
0100
,
0010
0000
0010
0000
,
0200
0000
0301
0001
,
0001
0000
0000
0000
0000
1000
0000
0100
,
0000
0000
0000
0000
0000
0010
0000
0001
,
0000
0000
0000
0000
0000
0010
0000
0100
,
0000
0000
0000
0000
0000
1000
0000
2000
,
0000
0000
0000
3000
0000
0001
0000
0002
,
0000
0000
0000
0003
0000
0010
0000
0000
,
0200
0000
0000
0302
0000
0203
0000
0000
,
2300
0000
0000
3200
0000
0320
0000
0000
,
0031
0000
0001
0000
,
1000
0000
1000
0000
,
0100
0000
0100
0000
,
0010
0000
0010
0000
,
0002
0000
0000
0103
,
1000
0000
0000
0020
,
0032
0000
0000
0203
0000
2300
0000
0000
,
3200
0000
0000
0310
0000
0001
0000
0000
;

//--------------- dance-single - Blood4Fame ----------------
#NOTES:
     dance-single:
     Blood4Fame:
     Medium:
     5:
     0,0,0,0,0:
0000
0000
0000
0000
,
0000
0000
0000
0000
,
0000
0000
0000
0000
,
0000
0000
0000
0000
,
0000
0000
0000
0000
,
0000
0000
0000
0000
,
0000
0000
0000
0000
,
0000
0000
0000
0000
,
0000
0000
0000
0000
,
0001
0000
0001
0000
0000
1000
0000
1000
,
0000
0010
1000
0000
0100
0000
0100
0000
,
0010
0000
0010
0000
0000
0001
0000
0100
,
0000
0001
0100
0000
0010
1000
0000
0100
,
0000
0010
0010
0000
0000
0001
1000
0100
,
0000
0001
0000
0100
0000
1000
0000
0000
,
0010
0000
0000
1000
0000
0000
0100
0000
0010
0000
0000
0000
0001
0000
0000
0000
,
0100
0000
0000
0010
0000
0000
1000
0000
0100
0000
0000
0000
0010
0000
0000
0000
,
0001
0000
1000
0000
0000
0001
0000
0001
,
0000
0100
0100
0000
0010
0000
1000
0000
,
1000
0000
1000
0000
0000
0100
0000
0010
,
0000
0001
0100
0000
0010
1000
0000
0100
,
0000
0010
0010
0000
0000
0001
0000
0100
,
0000
0010
1000
0000
0100
0010
0001
0000
,
0100
0000
0000
0010
0000
0000
1000
0000
0100
0000
0000
0000
0010
0000
0000
0000
,
0001
0000
0000
0100
0000
0000
0010
0000
0100
0000
0000
0100
0000
0000
0010
0000
,
2000
0000
0000
3002
0000
0103
0010
1000
,
0000
0100
0010
0001
0000
1000
0100
0010
,
0002
0000
0000
0203
0000
0301
0100
1000
,
0000
1000
0100
0010
0000
0010
0100
0001
,
2000
0000
0000
0000
0000
0000
0020
3000
0000
0000
0000
0000
0130
0000
0010
0000
,
0000
1000
0000
0100
0100
1000
1000
0100
,
0000
1000
0000
0001
0000
0100
0000
0100
,
0000
0010
0000
0010
0000
1000
0000
1000
,
0100
0010
0001
0101
,
1010
0000
0000
1100
0000
0000
0100
0000
,
0101
0000
0000
0011
0000
0000
0100
0000
,
1100
0000
0000
0011
0000
0000
0100
0000
,
1010
0000
0000
1010
0000
0000
0100
0000
,
0011
0000
0000
0100
0000
0000
0010
0000
,
1100
0000
0000
0001
0000
0000
0010
0000
,
0110
0000
0000
0001
0000
0000
1000
0000
,
0000
1001
1001
0000
1010
0000
1010
0000
,
0101
0000
1000
0100
0000
0010
0001
0000
,
0100
0000
1000
0100
0000
0010
1000
0100
,
0010
0000
0001
0001
0000
1000
0100
0000
,
0000
0010
0100
1000
0000
0010
0010
0100
,
0100
0000
0010
0000
1000
0100
0010
0000
,
0001
0000
0100
0000
0010
0100
1000
0000
,
0100
0100
0010
0001
0000
0010
0010
0100
,
0000
1000
1000
0001
0100
0010
1000
0100
,
0010
0000
0000
0001
0000
0000
0100
0000
,
0010
0000
0000
1000
0000
0000
0100
0000
,
0100
0000
0000
1000
0000
0000
0010
0000
,
0001
0000
0000
0100
0000
0000
0010
0000
,
1000
0000
0000
1000
0000
0000
0100
0000
,
0010
0000
0000
0001
0000
0000
0010
0000
,
0010
0000
0000
0001
0000
0000
0100
0000
,
1000
0000
0000
0001
0000
0100
0010
0000
,
1000
0000
0000
1000
0000
0000
0100
0000
,
0010
0000
0000
0010
0000
0000
0001
0000
,
0001
0000
0000
0100
0000
0000
0010
0000
,
1000
0000
0000
1000
0000
0000
0010
0001
,
0100
0000
0000
0100
0000
0000
0010
0000
,
1000
0000
0000
1000
0000
0000
0100
0010
,
0001
0000
0000
0001
0000
1000
0000
0000
,
0010
0000
0000
0100
0000
0001
0000
0000
;

//--------------- dance-single - Blood4Fame ----------------
#NOTES:
     dance-single:
     Blood4Fame:
     Hard:
     6:
     0,0,0,0,0:
0000
0000
0000
0000
,
0000
0000
0000
0000
,
0000
0000
0000
0000
,
0000
0000
0000
0000
,
0000
0000
0000
0000
,
0000
0000
0000
0000
,
0000
0000
0000
0000
,
0000
0000
0000
0000
,
0000
0000
0000
0000
0000
1000
0100
0100
,
0010
0000
0010
0000
0000
1000
0000
0001
,
0000
0100
0010
1000
0100
0000
1000
0100
,
0100
0000
0001
0000
0000
1000
0000
0010
,
0000
0100
0001
0000
0100
0010
0000
1000
,
0000
0100
1000
0000
0000
0001
0010
0012
,
0000
0103
0000
1020
0000
0130
0000
0010
,
1000
0000
0000
0100
0000
0000
0010
0000
0001
0000
1000
0000
0010
0000
0100
0000
,
0002
0000
0000
2003
0000
3010
0200
0000
,
0300
0010
0010
1000
1000
0100
0100
0010
,
0000
0001
0100
0010
0010
0000
1000
0002
,
0000
0003
0000
0000
0000
0010
0001
0010
,
0000
0100
1000
0100
0010
0001
0100
0020
,
0000
1000
1030
0000
0000
1000
0100
0020
,
0000
0032
0000
0203
0000
0310
1000
0000
,
0100
0000
0000
0010
0000
0000
0001
0000
0100
0000
0010
0000
0100
0000
0000
0000
,
1100
0000
0000
0100
0000
0000
0010
0000
0001
0000
0100
0000
0010
0000
1000
0000
,
2000
0000
0000
0001
0000
3100
0010
0001
,
0000
0100
1000
0100
0010
0001
0100
0010
,
2000
0000
0000
0010
0000
3100
0010
0100
,
0000
0001
0010
0000
0001
0100
0010
0000
,
1010
0000
0000
0000
0000
0000
0110
0000
0000
0000
0000
0000
0102
0000
0020
0003
,
0000
0230
0000
1300
0100
1000
0001
0010
,
0000
0010
0001
0001
0100
0010
0000
2000
,
0000
3100
2000
0000
0001
3001
1000
0022
,
0000
0000
0033
0000
,
0101
0000
0010
0100
0000
1000
0100
0000
,
1010
0000
0100
0001
0000
0010
0100
1000
,
1001
0000
0000
2010
0000
3100
0010
0001
,
0210
0000
0000
1000
0000
0310
0001
0100
,
0100
0001
0010
0010
0001
0010
0000
1000
,
0000
0100
2000
0000
0000
0000
3010
0000
,
1001
0000
0000
1001
0000
0000
0010
0100
,
0000
1100
1100
0000
0101
0101
0010
1000
,
0200
0000
0000
0000
0000
0000
0320
0000
0000
0000
0130
0000
0010
0000
0000
0001
,
0200
0000
0000
0000
0310
0000
1000
0000
0000
0100
0000
0000
0010
0000
0001
0000
,
0100
0000
0000
0000
0000
0000
0000
0001
0100
0000
0010
0000
1000
0000
0100
0000
,
0100
0000
0000
0000
0110
0000
0000
0000
0001
0000
0000
0001
0100
0000
0020
0000
,
0000
1030
0100
2000
0000
3002
0000
0203
,
0000
0302
0000
2003
0000
3100
0010
0001
,
0000
0000
0001
0200
0000
0000
0010
2000
,
0000
0000
3300
1010
,
1100
0000
0100
0000
0000
0010
0001
0100
,
0000
0100
0100
0000
0000
1000
0001
0100
,
0000
0001
0001
0000
0000
1000
0100
0010
,
0000
0010
0010
0000
0010
0001
0100
0000
,
2000
0000
0000
0000
0000
3001
1000
0200
,
0000
0000
0310
0011
,
0202
0000
0000
0303
,
2020
0000
0000
3030
1100
0100
0010
0000
,
0102
0000
0000
2000
0000
0000
3000
0020
,
0000
0000
0030
0200
0300
0010
0000
2003
,
0000
3200
0000
0320
0000
0032
0100
0000
,
0013
0002
0100
0000
1003
0000
0010
2000
,
0000
0000
0000
0000
0000
3000
0100
0022
,
0000
0000
0000
0033
,
0101
0000
0000
1010
0000
1100
0000
0000
,
0011
0000
0000
0110
0000
1100
0000
0000
;
