#TITLE:Out of CTRL;
#SUBTITLE:;
#ARTIST:Mr. Funky;
#TITLETRANSLIT:;
#SUBTITLETRANSLIT:;
#ARTISTTRANSLIT:;
#GENRE:Rock;
#CREDIT:Blood4Fame;
#MUSIC:Out of CTRL.mp3;
#BANNER:Banner.png;
#BACKGROUND:BG.png;
#CDTITLE:;
#SAMPLESTART:0.000;
#SAMPLELENGTH:0.000;
#SELECTABLE:YES;
#OFFSET:-0.303;
#BPMS:0.000=176.106
,132.000=88.053
,140.000=176.106
,192.000=196.106
,196.625=216.106
,201.563=236.106
,207.625=256.106
,212.833=276.106
,219.750=296.106
,226.542=316.106
,232.333=336.106
,240.083=356.106
,248.354=376.106
,256.000=396.106
,266.000=176.106
,322.000=352.212
,330.000=704.424
,342.000=176.106
,346.000=120.000
;
#STOPS:;
#BGCHANGES:;
#FGCHANGES:;

//--------------- dance-single - Blood4Fame ----------------
#NOTES:
     dance-single:
     Blood4Fame:
     Easy:
     4:
     0,0,0,0,0:
0000
0000
0000
0000
,
0100
0001
0000
0100
,
0100
0001
0000
0000
,
0100
0001
0000
1000
,
0100
0000
0000
0010
,
0100
0001
0000
0001
,
0100
0001
0000
0000
,
0100
0001
0000
0001
,
0100
0000
0000
0010
,
1000
1000
1000
0100
,
1000
0100
0010
0001
,
1000
0010
0000
0100
,
1000
0000
0000
0100
,
1000
0001
0000
0010
,
1000
0100
0000
0000
,
0100
0010
0000
0010
,
0100
0000
0000
0100
,
0001
1000
0000
0010
,
0001
0100
0000
0000
,
0100
0010
0000
0010
,
0100
0000
0000
0010
,
1000
0001
0000
0001
,
1000
0010
0000
0000
,
0010
0100
0000
0100
,
0010
0000
0000
0010
,
1000
0001
0000
0010
,
1000
0100
0000
0000
,
0100
0010
0000
0010
,
0100
0000
0000
0100
,
0100
1000
0000
1000
,
0010
0010
0000
0000
,
0010
0100
0000
0100
,
0010
0000
0000
0010
,
2000
3010
0010
0200
,
0000
0300
0010
0000
1000
0000
0010
0000
,
0100
0001
1000
1000
,
0100
0010
0000
0000
,
0001
1000
0100
0010
,
1000
0000
0000
0010
,
0100
0100
1000
0100
,
0100
0010
0000
0000
,
0100
1000
0100
0010
,
0001
0000
0000
0001
,
0000
0001
0010
0010
,
0000
1000
1000
0010
,
0000
0001
0100
0010
,
0000
0000
0000
0010
,
0000
1000
0000
0010
,
0000
0000
0000
0001
,
0000
0100
0000
0010
,
0000
2002
0000
0000
,
0000
0000
0000
0000
,
0000
0000
0000
0000
,
0000
0000
0000
0000
,
0000
0000
0000
0000
,
0000
0000
0000
0000
,
0000
0000
0000
0000
,
0000
0000
0000
0000
,
0000
0000
0000
0000
,
0000
0000
0000
0000
,
0000
0000
0000
0000
,
0000
0000
0000
0000
,
0000
0000
0000
0000
,
0000
0000
0000
0000
,
0000
0000
0000
0000
,
0000
0000
3003
0000
,
0010
0000
0100
0001
,
1000
1000
0100
0001
,
0000
0000
0001
1000
,
0100
0010
1001
0000
,
0000
0010
0100
0001
,
1000
1000
0100
0010
,
0000
0000
0001
1000
,
0100
0100
1000
0000
,
0100
0000
0000
0001
,
0010
0010
0000
1000
,
1000
0010
0000
0001
,
0100
0010
0000
0000
,
0000
0010
0000
1000
,
0000
0010
0110
0010
,
0110
0010
1000
0000
,
0001
0000
0010
0000
,
0010
0000
2000
0000
,
0000
0000
0000
0000
,
0000
0000
0000
0000
,
0000
0000
3010
0010
,
0010
0010
0010
0010
,
0000
0000
0010
0000
;

//--------------- dance-single - Blood4Fame ----------------
#NOTES:
     dance-single:
     Blood4Fame:
     Medium:
     8:
     0,0,0,0,0:
0000
0000
0000
0000
,
0100
0000
0001
0000
0000
1000
0100
0000
,
0100
0000
0001
0100
0000
0001
0000
0000
,
0100
0000
0001
0100
0000
0001
1000
0000
,
0100
0000
0000
0001
0000
0000
0010
0000
,
0100
0000
0001
0000
0000
0100
0001
0000
,
0100
0000
0001
0100
0000
0001
0000
0000
,
0100
0000
0001
0100
0000
0100
0001
0000
,
0100
0000
0000
0000
0000
0100
0010
0000
,
1000
0010
1000
0000
1000
0001
0100
0000
,
1000
0001
0100
0000
0010
0100
0001
0000
,
1000
0001
0010
1000
0000
0001
0100
0000
,
1000
0000
0000
1001
0000
0000
0100
0000
,
1010
0000
0001
0000
0000
0100
0010
0000
,
1100
0000
0100
0000
0000
1010
0000
0000
,
0100
0000
0010
1000
0000
0001
0010
0000
,
0100
0000
0000
1001
0000
0000
0100
0010
,
0001
0000
1000
0000
0000
0100
0010
0000
,
0001
0000
0100
1000
0000
0011
0000
0000
,
0100
0000
0010
0001
0000
1000
0010
0000
,
0100
0000
0000
1001
0000
0000
0110
0000
,
1010
0000
0001
0000
0000
0010
0001
0000
,
1010
0000
0010
0000
0000
1100
0000
0000
,
0010
0000
0100
1000
0000
0001
0100
0000
,
0010
0000
0000
1001
0000
0000
0110
0000
,
1010
0000
0001
0000
0000
0100
0010
0000
,
1100
0000
0100
0001
0000
1010
0000
0000
,
0100
0000
0010
1000
0000
0001
0010
0000
,
0100
0000
0000
1001
0000
0000
0110
0000
,
0101
0000
1000
0000
0000
0010
1000
0000
,
0011
0000
0010
0100
0000
0101
0000
0000
,
0010
0000
0100
0001
0000
1000
0100
0000
,
0010
0000
0000
1001
0000
0000
0010
0100
,
2000
0000
0000
0100
3010
0100
0001
0000
0010
0001
0100
1000
0200
0000
0000
0000
,
0000
0000
0300
0001
0010
0100
0001
0000
1000
0100
1000
0100
0010
0000
1001
0000
,
0100
0000
0101
0000
1000
0010
1000
0000
,
0100
0000
0010
1000
0000
0110
0000
0010
,
0001
0000
1010
0000
0100
0001
0010
0000
,
1001
0000
0000
1001
0000
0000
0010
0000
,
0100
0000
0101
0000
1000
0010
0100
0000
,
0100
0000
0010
1000
0000
0110
0000
0010
,
0100
0000
1010
0000
0100
0001
0010
0000
,
0001
0001
0000
0110
0000
0000
0001
1000
,
0000
0010
0001
1000
0010
0100
0010
0000
,
0000
0001
1000
0001
1000
0100
0010
0001
,
0000
1000
0001
1000
0100
0001
0010
1000
,
0000
1000
0000
1000
0000
1000
0010
0001
,
0000
0001
1000
0010
0000
0100
0010
0000
,
0000
0000
0000
0000
0000
1000
0000
0000
0000
0000
0000
0000
0000
0000
0010
0000
0000
0000
0000
0000
0000
0000
0000
0000
0001
0000
0000
0000
1000
0000
0000
0000
,
0000
0100
0000
0000
0000
0000
0000
0000
0000
0100
0000
0000
0000
0001
0000
0000
0000
0000
0100
0000
0000
0000
0000
0000
0000
0000
0001
0000
0000
0000
0000
0000
,
0000
0000
0000
0000
1000
0000
0000
0000
0000
0000
0000
0000
0000
0110
0000
0000
0000
0000
0000
0000
0000
0000
0000
0000
0000
0000
0000
1001
0000
0000
0000
0000
,
0000
0000
0000
0000
0000
2002
0000
0000
0000
0000
0000
0000
0000
0000
0000
0000
3003
0000
0000
0000
0000
0000
0000
0020
0000
0000
0000
0000
0000
0000
0000
0000
,
0000
0000
0000
0000
0000
0000
0000
0032
0000
0000
0000
0000
0000
0000
0000
0000
0000
0000
0000
0000
0000
0000
0000
0000
0000
0000
0000
0000
0000
0000
0000
0000
,
0000
0000
0000
0023
0000
0000
0000
0000
0000
0000
0000
0000
0000
0000
0000
0000
0000
0000
0000
0000
0000
0000
0000
0000
0000
0000
0000
0000
0230
0000
0000
0000
,
0000
0000
0000
0000
0000
0000
0000
0000
0000
0000
0000
0000
0000
0000
0000
0000
0000
0000
0000
0000
0000
0000
0000
0300
0000
0000
0000
0000
0000
0000
0000
0000
,
0002
0000
0000
0000
0000
0000
0000
0000
0000
0023
0000
0000
0000
0000
0000
0000
,
0000
0000
0000
0230
0000
0000
0000
0000
,
0000
0000
0000
0000
0000
0000
0000
0320
0000
0000
0000
0000
0000
0000
0000
0000
0000
0000
0000
0000
0000
0000
0030
0000
0000
0000
0000
0000
0000
0000
0000
0010
,
0000
0000
0000
0020
0000
0000
0000
0000
,
0000
0000
0000
0032
0000
0000
0000
0000
0000
0000
0000
0000
0000
0000
0000
0000
,
0000
0000
0000
0203
0000
0000
0000
0000
0000
0000
0000
0000
0000
0000
0000
0000
0000
0000
0000
0000
0000
0000
0000
0000
0000
0000
0000
0000
0000
0000
0000
0000
,
0000
0000
0302
0000
0000
0000
0000
0000
0000
0000
0000
0000
0000
0000
0000
0000
0000
0000
0000
0000
0000
0000
0000
0003
0000
0000
0000
0000
0000
0000
0000
0000
,
0000
0000
0000
0000
0000
0000
0000
0000
0100
0000
0000
0000
0000
0000
0000
0000
0000
0000
0000
0000
0000
0200
0000
0000
0000
0000
0000
0000
0000
0000
0000
0000
,
0000
0000
0000
0000
0000
0000
0000
0000
0000
0000
0000
0000
0000
0000
0000
0000
0000
0320
0000
0000
0000
0000
0000
0000
0000
0000
0000
0000
0000
0000
0000
0000
,
0000
0000
0000
0000
0000
0000
0000
2030
0000
0000
0000
0000
0000
0000
0000
0000
,
0000
0000
3000
0000
,
0010
0000
0100
0101
,
1000
0010
1000
0000
0100
0000
0001
1000
,
0000
0110
0000
0010
0001
0000
1010
0000
,
0100
0001
0010
0000
1001
0000
0000
1001
,
0000
0010
0100
0101
,
1000
0010
1000
0000
0100
0000
0010
1000
,
0000
0110
0000
0010
0001
0000
1010
0000
,
0100
0001
0100
0000
1000
1000
0000
0110
,
0000
0110
0000
0000
0000
0010
0001
1000
,
0010
0100
0010
0000
0000
0001
1000
0001
,
1000
0100
0010
0001
0000
1000
0001
1000
,
0100
0001
0010
0000
0000
1000
0000
1000
,
0000
1000
0010
0001
0000
0001
1000
0010
,
0000
0100
0010
0000
1100
0000
0011
0000
,
0110
1010
1000
0000
,
0001
0000
0010
0000
,
0010
0000
1000
0000
,
0000
0000
0001
0000
,
0000
0000
0010
0000
,
0000
0000
0010
0010
,
0010
0010
0010
0010
,
0000
0010
0000
0000
0010
0000
0000
0000
;

//--------------- dance-single - Blood4Fame ----------------
#NOTES:
     dance-single:
     Blood4Fame:
     Hard:
     9:
     0,0,0,0,0:
0000
0000
0000
0000
,
0100
0000
0001
0000
0000
1000
0100
0000
,
0100
0000
0001
0100
0000
0001
0000
0000
,
0100
0000
0001
0100
0000
0001
1000
0000
,
0100
0000
0000
1000
0000
0000
0010
0000
,
0100
0000
0001
0000
0000
0100
0001
0000
,
0100
0000
0001
0100
0000
1000
0000
0000
,
0100
0000
0001
0100
0000
0100
0001
0000
,
0100
0000
0000
0000
0000
0100
0010
0000
,
1001
0000
1000
0000
0100
0001
0100
0000
,
1100
0000
0100
0000
0000
0110
0100
0000
,
1000
0001
0100
1000
0000
1000
0100
0000
,
1000
0000
0000
1001
0000
0000
0100
0000
,
1010
0000
0001
0000
0000
0100
0011
0000
,
1100
0000
0001
0000
0000
1010
0000
0000
,
0100
0000
0010
1000
0000
0001
0010
0000
,
0100
0000
0000
1001
0000
0000
0110
0010
,
0011
0000
1000
0000
0000
0100
1100
0000
,
0101
0000
0100
1000
0000
0011
0000
0000
,
0100
0000
0010
1000
0000
1000
0010
0000
,
0100
0000
0000
1001
0000
0000
0110
0000
,
1010
0000
0001
0000
0000
0010
0101
0000
,
1010
0010
0110
1000
,
0101
0000
0100
0001
0000
0001
0100
0000
,
0010
0000
0000
1001
0000
0000
0110
0000
,
1010
0000
0001
0000
0000
0100
0011
0000
,
1100
0000
0100
1000
0000
1010
0000
0000
,
0100
0000
0010
1000
0000
0001
0010
0000
,
0100
0000
0000
1001
0000
0000
0110
0000
,
0101
0000
1000
0000
0000
0010
0110
0000
,
0011
0000
0010
0100
0000
0011
0000
0000
,
0010
0000
0100
1000
0000
1000
0100
0000
,
0010
0000
0000
1001
0000
0000
0110
0010
,
2000
0000
0000
0100
3010
0100
0001
0000
0010
0001
0100
1000
0200
0000
0000
0000
,
0000
0000
0300
1000
0010
0100
0001
0000
1000
0100
1000
0100
0010
0000
1001
0000
,
0100
0000
1100
0000
1000
0010
1010
0000
,
0100
0000
1010
1000
0000
0110
0000
0010
,
0101
0000
1010
0000
0100
0001
0110
0000
,
1001
0000
0100
1001
0000
0000
0010
0000
,
0100
0000
0101
0000
1000
0010
1100
0000
,
0100
0000
0011
1000
0000
0110
0000
0010
,
0011
0000
0110
0000
0100
1000
0110
0000
,
1001
1001
0000
0110
0000
0000
0001
1000
,
0000
0010
1000
1000
0010
0100
0010
0000
,
0000
0001
1000
0001
1000
0100
0010
0001
,
0000
1000
0001
0001
0100
0001
0010
0001
,
0000
1000
0000
1000
0000
1000
0100
0001
,
0000
1000
0010
0010
0000
0100
0010
0000
,
0000
0000
0000
0000
0000
1000
0000
0000
0000
0000
0000
0000
0000
0000
0010
0000
0000
0000
0000
0000
0000
0000
0000
0001
0000
0000
0000
0000
1000
0000
0000
0000
,
0100
0000
0000
0000
0000
0000
0000
0000
0000
0100
0000
0000
0000
0001
0000
0000
0000
0000
0100
0000
0000
0000
0000
0000
0000
0000
0000
0001
0000
0000
0000
0000
,
0000
1000
0000
0000
0000
0000
0000
0000
0000
0000
0000
0110
0000
0000
0000
0000
0000
0000
0000
0000
0000
0000
0000
0000
0000
0000
1001
0000
0000
0000
0000
0000
,
0000
0000
0000
1001
0000
0000
0000
0000
0000
0000
0000
0000
0000
0000
0000
0000
0000
0000
0000
0000
0000
0000
0000
0020
0000
0000
0000
0000
0000
0000
0000
0000
,
0000
0000
0000
0000
0000
0000
0000
0032
0000
0000
0000
0000
0000
0000
0000
0000
0000
0000
0000
0000
0000
0000
0000
0000
0000
0000
0000
0000
0000
0000
0000
0000
,
0000
0000
0000
0023
0000
0000
0000
0000
0000
0000
0000
0000
0000
0000
0000
0000
0000
0000
0000
0000
0000
0000
0000
0000
0000
0000
0000
0000
0230
0000
0000
0000
,
0000
0000
0000
0000
0000
0000
0000
0000
0000
0000
0000
0000
0000
0000
0000
0000
0000
0000
0000
0000
0000
0000
0000
0301
0000
0000
0000
0000
1000
0000
0000
0000
,
0002
0000
0000
0000
0000
0000
0000
0000
0000
0023
0000
0000
0000
0000
0000
0000
,
0000
0000
0000
0230
0000
0000
0000
0000
,
0000
0000
0000
0000
0000
0000
0000
0320
0000
0000
0000
0000
0000
0000
0000
0000
0000
0000
0000
0000
1000
0000
0030
0000
0000
0000
0000
0000
0000
0000
0000
0010
,
0000
0000
0000
0000
0000
1000
0000
0000
0000
0000
0000
0000
0020
0000
0000
0000
0000
0000
0000
0000
0000
0000
0000
0000
0000
0000
0000
0000
0000
0000
0000
0000
,
0000
0000
0000
0032
0000
0000
0000
0000
0000
0000
0000
0000
0000
0000
0000
0000
,
0000
0000
0000
0203
0000
0000
0000
0000
0000
0000
0000
0000
0000
0000
0000
0000
0000
0000
0000
0000
0000
0000
0000
0000
0000
0000
0000
0000
0000
0000
0000
0000
,
0000
0000
0302
0000
0000
0000
0000
0000
0000
0000
0000
0000
0000
0000
0000
0000
0000
0000
0000
0000
0000
0000
0000
1003
0000
0000
0000
0000
0000
0000
0000
0000
,
0000
0001
0000
0000
0000
0000
0000
0100
0000
0000
0000
0000
0000
0000
0001
0000
0000
0000
0000
0000
0000
0200
0000
0000
0000
0000
0000
0000
0000
0000
0000
0000
,
0000
0000
0000
0000
0000
0000
0000
0000
0000
0000
0000
0000
0000
0000
0000
0000
0000
0320
0000
0000
0000
0000
0000
0000
0000
0000
0000
0000
0000
0000
0000
0000
,
0000
0000
0000
0000
0000
0000
0000
2030
0000
0000
0000
0000
0000
0000
0000
0000
,
0000
0000
3010
0000
,
0010
0000
0100
0101
,
1000
0010
1010
0000
0100
0000
0011
1000
,
0000
0110
0000
0001
1001
0000
1010
0000
,
0100
0001
0010
0000
1001
0000
0100
1001
,
0000
0010
0100
0101
,
1000
0010
1010
0000
0100
0000
0101
0001
,
0000
0110
0000
0010
1100
0000
1010
0000
,
0100
0001
0110
0000
1001
1001
0000
0110
,
0000
0110
0000
0000
0000
0010
0001
1000
,
0010
0100
0010
0000
0000
0001
1000
0001
,
1000
0100
0010
0001
0000
1000
0001
1000
,
0100
1000
0010
0000
0000
0001
0000
0001
,
0000
0001
0010
0100
0000
0001
1000
0010
,
0000
0100
0010
0000
0110
0000
1010
0000
,
0101
1001
1000
0010
,
1000
0100
0010
0001
,
0010
0100
0001
0000
,
0010
0000
0001
0000
,
1000
0000
0010
0000
,
1000
0000
0000
0000
0000
0000
0000
0000
0000
0000
0000
0000
0010
0000
0000
0010
,
0000
0000
0000
0010
0000
0000
0000
0000
0010
0000
0000
0000
0000
0010
0000
0000
,
0000
0010
0000
0000
0010
0000
0000
0000
;
