#TITLE:Only For You;
#SUBTITLE:;
#ARTIST:NieN;
#TITLETRANSLIT:;
#SUBTITLETRANSLIT:;
#ARTISTTRANSLIT:;
#GENRE:J/K-Pop;
#CREDIT:Blood4Fame;
#MUSIC:music.mp3;
#BANNER:banner.png;
#BACKGROUND:bg.png;
#CDTITLE:;
#SAMPLESTART:76.437;
#SAMPLELENGTH:22.131;
#SELECTABLE:YES;
#OFFSET:-0.207;
#BPMS:0.000=122.000
,199.000=244.000
,200.000=122.000
,246.000=244.000
,248.000=122.000
,268.000=116.000
,268.250=114.000
,268.500=112.000
,268.750=110.000
,269.000=108.000
,269.250=106.000
,269.500=104.000
,269.750=102.000
,270.000=95.000
,270.250=88.000
,270.500=81.000
,270.750=74.000
,271.000=67.000
,271.250=60.000
,271.500=58.000
;
#STOPS:199.000=0.246
,246.000=0.184
,246.750=0.184
,247.500=0.123
;
#DISPLAYBPM:58.000:122.000;
#BGCHANGES:-0.207=video.mp4=1.000=1=0=1===CrossFade==,
99999.000=-nosongbg-=1.000=0=0=0=StretchNoLoop====
;
#FGCHANGES:;

//--------------- dance-single - Blood4Fame ----------------
#NOTES:
     dance-single:
     Blood4Fame:
     Beginner:
     2:
     0,0,0,0,0:
0000
0000
0000
0000
,
0000
0000
0000
0000
,
0000
0000
0000
0000
,
0000
0000
0000
0000
,
1000
0000
1000
0000
,
0002
0000
0000
0000
,
0000
0000
0000
0000
,
0103
0000
0100
0000
,
0100
0000
0000
0010
,
1000
0000
0000
0100
,
0000
0000
0000
1000
,
0000
0000
0000
0001
,
0100
0000
0100
0000
,
0100
0000
0000
0010
,
0000
0000
0000
1000
,
0001
0000
0001
0000
,
0001
0000
0100
0000
,
0100
0100
0100
0000
,
0010
0010
0010
0000
,
1000
1000
1000
0000
,
0100
0000
0100
0100
,
0100
0000
0001
0000
,
0010
0000
0100
0000
,
0001
0000
1000
0000
,
0100
0000
0000
0000
,
0011
0000
0000
0000
,
1100
0000
0000
0000
,
1010
0000
0000
0000
,
0101
0000
0010
1000
,
0100
0000
0100
0000
,
0001
0000
0100
0000
,
0010
0000
0010
0000
,
0001
0000
1000
0100
,
0011
0000
0000
0000
,
1100
0000
0000
0000
,
1010
0000
0000
0000
,
0101
0000
1000
0000
,
0010
0000
0100
0000
,
0001
0000
0010
0000
,
1000
0000
0100
0100
,
0100
0000
0010
0000
,
0002
0000
0000
0003
,
2000
0000
0000
3000
,
0002
0000
0003
0100
,
0020
0030
0200
0300
,
2000
0000
3000
0001
,
0200
0000
0300
0010
,
0020
0000
0030
0010
,
0200
0000
0000
0000
,
0000
0000
0300
0000
,
1010
0000
0000
0000
,
0101
0000
0000
0000
,
0011
0000
0000
0000
,
1100
0000
0010
0001
,
0100
0000
0100
0000
,
1000
0000
0100
0000
,
0010
0000
0010
0000
,
1000
0000
0001
0100
,
1010
0000
0000
0000
,
0101
0000
0000
0000
,
0011
0000
0000
0000
,
1100
0000
0001
0000
,
0010
0000
0100
0000
,
1000
0000
0010
0000
,
0001
0000
0100
0100
,
0100
0000
0010
0000
,
2000
0000
0000
3000
,
0002
0000
0003
0000
,
0200
0000
0300
0000
;

//--------------- dance-single - Blood4Fame ----------------
#NOTES:
     dance-single:
     Blood4Fame:
     Easy:
     3:
     0,0,0,0,0:
0000
0000
0000
0000
,
0000
0000
0000
0000
,
0000
0000
0000
0000
,
0000
0000
0000
0000
,
0000
0000
0000
0000
,
0020
0000
0000
0030
,
0000
0000
0002
2000
0000
0000
0000
3003
,
0010
0000
0000
1000
0000
0000
0000
0000
,
0100
0000
0010
0001
,
0100
0000
0000
0100
,
0010
0000
0000
1000
,
0100
0000
0000
0010
,
0001
0000
0000
0001
0000
0000
0001
0000
0001
0000
0000
0000
0000
0000
0000
0000
,
1000
0000
0000
0010
,
0001
0000
0000
0100
,
1000
0000
0000
1000
0000
0000
1000
0000
1000
0000
0000
0000
0000
0000
0000
0000
,
0001
0000
0000
0001
0000
0000
0001
0000
0001
0000
0000
0000
0000
0000
0000
0000
,
0010
1000
0010
0010
,
0001
0100
0001
0001
,
1000
0100
1000
1000
,
0010
0000
0000
0010
0000
0000
0010
0000
0010
0000
0000
0000
0000
0000
0000
0000
,
0100
0001
0100
0100
,
1000
0100
0010
0010
,
0001
0100
0010
1000
,
2000
0000
0000
3000
,
1001
0000
1001
0000
,
1100
0000
1100
0000
,
0101
0000
0101
0000
,
0011
0000
0011
0000
,
1000
0000
0001
0001
,
0100
0000
0010
0010
,
1000
0000
0001
0000
,
0010
0000
0100
1000
,
1001
0000
1001
0000
,
0101
0000
0101
0000
,
1100
0000
1100
0000
,
1010
0000
0000
0000
0000
0000
0000
0000
0010
0000
0000
0010
0000
0000
0010
0000
,
0010
0000
1000
1000
,
0100
0000
0010
0010
,
0001
0000
1000
0000
,
0100
0000
0000
0100
0000
0000
0100
0000
0100
0000
0000
0000
0001
0000
0000
0000
,
0200
0000
0000
0302
0000
0000
0000
0000
,
2003
0000
3010
0100
,
0002
0000
0000
0103
,
0020
0000
1030
1100
,
2000
0000
0000
3001
,
0020
0000
0000
0130
,
0020
0000
0000
0000
0000
1030
0000
0100
,
0020
0000
0000
0000
,
0030
0000
0000
0000
,
1001
0000
1001
0000
,
1100
0000
1100
0000
,
0101
0000
0101
0000
,
0011
0000
0011
0000
,
1000
0000
0001
0001
,
0100
0000
0010
0010
,
1000
0000
0001
0000
,
0010
0000
0100
1000
,
1001
0000
1001
0000
,
0101
0000
0101
0000
,
1100
0000
1100
0000
,
1010
0000
0000
0000
0000
0000
0000
0000
0010
0000
0000
0010
0000
0000
0010
0000
,
0010
0000
1000
1000
,
0100
0000
0010
0010
,
0001
0000
1000
0000
,
0100
0000
0000
0100
0000
0000
0100
0000
0100
0000
0000
0000
0001
0000
0000
0000
,
0200
0000
0000
0000
,
0302
0000
2003
0000
,
3020
0000
0000
0030
;

//--------------- dance-single - Blood4Fame ----------------
#NOTES:
     dance-single:
     Blood4Fame:
     Medium:
     5:
     0,0,0,0,0:
0000
0000
0000
0000
,
0001
0010
0100
2000
0000
0000
0000
3001
,
1000
0100
1000
0002
0000
0000
0023
0000
,
0031
0010
0100
2000
0000
0000
3000
0100
,
0010
0000
0000
0010
0000
0000
0011
0000
0011
0000
0000
0000
1000
0000
0000
0000
,
0202
0303
0011
2002
0000
0000
0000
0000
,
0000
3003
1010
2200
0000
0000
3300
0000
,
0001
0000
0000
1000
0000
0000
0010
0000
0200
0000
0000
0000
0000
0000
0301
0000
,
0002
0000
0000
0000
0000
0000
0000
0000
0000
0000
0000
0000
0103
0000
0000
0010
,
2000
0000
0000
3000
0011
0000
1000
0010
,
0010
1000
0010
0200
0000
0000
0000
0310
,
0200
0000
0000
0000
0301
0100
0010
1000
,
0010
0000
0000
0100
0000
0000
0001
0000
2002
0000
0000
3003
0100
0000
0010
0000
,
0002
0000
0000
0100
0000
0000
0103
0002
,
0023
0000
0030
0001
0100
0010
1000
0100
,
0010
0000
0000
0001
0000
0000
0010
0000
0200
0000
0000
0000
0000
0000
0000
0000
,
0310
0000
0000
0001
0000
0000
0200
0000
0020
0000
0030
0000
0310
0000
1000
0000
,
0100
0000
0100
0010
0001
0000
1000
1000
,
0200
0000
0000
0000
1300
0000
1000
0000
0020
0000
0000
0030
0010
0000
1000
0000
,
0010
0000
0000
0100
0000
0000
0010
0000
0100
0000
0000
0000
0100
0000
1000
0000
,
0010
0000
0000
0100
0000
0000
0010
0000
2000
0000
0000
0000
3000
0000
1000
0000
,
0100
0000
0000
0010
0000
0000
0001
0000
0200
0000
0000
0000
0000
0000
0000
0000
,
0000
0000
0000
0000
0300
0000
0000
0000
0100
0000
0000
0010
0000
0000
1000
0000
,
0100
0000
0000
0010
0000
0000
0001
0000
0200
0000
0000
0000
0000
0000
0000
0000
,
0300
0000
1010
1100
,
1000
0000
0000
0001
0000
0000
0010
0000
0010
0000
0000
0000
0110
0000
0000
0000
,
0022
0000
0000
0000
0033
0000
0000
0000
0010
0000
0000
0001
0000
0000
0010
0000
,
0011
0101
0011
0100
,
2200
0000
0000
3300
1001
0000
1100
0000
,
0001
0000
0000
1000
0000
0000
0100
0000
0010
0000
0000
0000
0000
0000
0100
0000
,
0110
0000
0000
0001
0000
0000
0100
0000
0010
0000
0000
0000
0000
0000
0000
0000
,
1000
0000
0000
0100
0000
0000
0010
0000
0001
0000
0000
0100
0000
0000
0010
0000
,
2000
3000
0010
0011
,
0011
0000
0000
1000
0000
0000
0010
0000
0010
0000
0000
0000
0110
0000
0000
0000
,
1010
0000
0000
0000
0000
0000
0000
0000
0010
0000
0000
1000
0000
0000
0100
0000
,
0011
0000
0000
0100
0000
0000
1000
0000
0010
0000
0000
0100
0000
0000
0001
0000
,
0101
0000
0000
0000
0000
0000
0000
0000
1001
0000
0000
0001
0000
0000
1000
0000
,
0200
0000
0320
0000
,
0031
0000
0000
1000
0000
0000
0100
0000
0020
0000
0000
0000
0030
0000
0010
0000
,
0001
0000
0000
1000
0000
0000
0010
0000
0200
0000
0000
0000
0000
0000
0300
0000
,
1001
0000
0000
1001
0000
0000
1010
0000
1010
0000
0000
0000
0000
0000
0000
0000
,
0202
0000
0000
0000
0000
0303
0000
0000
,
2020
0000
0000
0000
0000
0000
3030
0000
2000
0000
0000
3000
0000
0000
0100
0000
,
1000
0000
0000
0002
0000
0000
0000
0000
0000
0000
0000
0000
0013
0000
0100
0000
,
2200
0000
0000
0000
3300
0000
0000
0000
2200
0000
0000
3300
0002
0000
0000
0003
,
0000
0000
0000
0100
0000
0000
0002
0000
0000
0000
0000
0000
0003
0000
1000
0000
,
2000
0000
3000
0010
0200
0000
0000
0300
,
2020
0000
0000
0000
0000
0000
0000
0000
0000
3030
0000
0100
0000
0000
0020
0000
,
0200
0000
0000
0000
,
0330
0000
0000
0000
,
1000
0000
0000
0001
0000
0000
0010
0000
0010
0000
0000
0000
0110
0000
0000
0000
,
0022
0000
0000
0000
0033
0000
0000
0000
0010
0000
0000
0001
0000
0000
0010
0000
,
0011
0101
0011
0100
,
2200
0000
0000
3300
1001
0000
1100
0000
,
0001
0000
0000
1000
0000
0000
0100
0000
0010
0000
0000
0000
0000
0000
0100
0000
,
0110
0000
0000
0001
0000
0000
0100
0000
0010
0000
0000
0000
0000
0000
0000
0000
,
1000
0000
0000
0100
0000
0000
0010
0000
0001
0000
0000
0100
0000
0000
0010
0000
,
2000
3000
0010
0011
,
0011
0000
0000
1000
0000
0000
0010
0000
0010
0000
0000
0000
0110
0000
0000
0000
,
1010
0000
0000
0000
0000
0000
0000
0000
0010
0000
0000
1000
0000
0000
0100
0000
,
0011
0000
0000
0100
0000
0000
1000
0000
0010
0000
0000
0100
0000
0000
0001
0000
,
0101
0000
0000
0000
0000
0000
0000
0000
1001
0000
0000
0001
0000
0000
1000
0000
,
0200
0000
0320
0000
,
0031
0000
0000
1000
0000
0000
0100
0000
0020
0000
0000
0000
0030
0000
0010
0000
,
0001
0000
0000
1000
0000
0000
0010
0000
0200
0000
0000
0000
0000
0000
0300
0000
,
1001
0000
0000
1001
0000
0000
1010
0000
1010
0000
0000
0000
0000
0000
0000
0000
,
0202
0000
0000
0000
0000
0303
0001
0000
,
0002
0000
0000
0000
0000
0000
0000
0000
2003
0000
0000
0000
0000
0000
0000
3000
,
0220
0000
0330
0000
;

//--------------- dance-single - Blood4Fame ----------------
#NOTES:
     dance-single:
     Blood4Fame:
     Hard:
     10:
     0,0,0,0,0:
0000
0000
0000
0000
,
0000
0000
0000
0000
0000
0000
0000
0000
0000
0000
0000
0000
0000
0000
1000
0100
,
0020
0000
0000
0000
0030
0000
0001
0100
0020
0000
0000
2030
0000
0000
3100
0010
,
0002
0000
0000
0000
0000
0000
0103
0010
2000
0000
0000
0000
3000
0000
0100
0000
,
0011
0000
0000
0101
0000
0000
0010
0000
1010
0000
0000
0100
1000
0000
0010
0000
,
1001
0000
0000
0000
0000
0000
0011
2002
,
3003
0000
0010
0000
0100
0000
2000
0000
0000
0000
0000
0000
3000
0000
0010
0100
,
0001
0000
0000
1001
0000
0000
1010
0000
2200
0000
0000
0000
3000
0000
1300
0000
,
0001
0000
0010
0100
1000
0000
0001
0010
0100
0000
1000
0010
0100
0000
0100
0010
,
1000
0000
0100
0010
0011
0000
1000
0010
,
0110
0000
0000
1010
0000
0000
1100
0000
1001
0000
0000
0000
0000
0000
1000
0010
,
0100
0001
0100
0010
1000
0100
0010
0001
,
0011
0000
0000
0101
0000
0000
0011
0000
2002
0000
0000
3003
0110
0000
0000
0000
,
0000
0001
0100
0010
1000
0010
0100
0002
,
0023
0000
0000
0000
0030
0000
0001
0010
0100
0000
0010
0001
0000
0000
0100
0000
,
1010
0000
0000
1100
0000
0000
0110
0000
0022
0000
0000
0000
0000
0000
0030
0000
,
0013
0000
0000
0001
0000
0000
0200
0000
0020
0000
0030
0000
0310
1000
0100
0000
,
0100
0000
0000
1000
0100
0000
0010
0000
0001
0000
0100
0000
0010
0000
1000
0010
,
0100
0000
0000
0100
0001
0000
1000
0000
0020
0000
0000
0130
0010
0000
1000
0100
,
0010
0000
0000
0100
1000
0000
0010
0000
0100
0000
0001
0000
0100
0000
0001
0000
,
1010
0000
0000
1100
0000
0000
0011
0000
0202
0000
0000
0000
0303
0000
1000
0010
,
0100
0000
0000
0010
0000
0000
1000
0000
0100
0000
0010
0000
0001
0000
0100
0000
,
0010
0000
0000
1000
0100
0000
0000
0000
0100
0000
0000
1000
0000
0000
0010
0000
,
0100
0000
0000
0110
0000
0000
1010
0000
0110
0000
0000
0000
1000
0100
0010
0001
,
0020
0000
0030
0000
,
1010
0000
0000
0001
0100
0000
0010
0000
0010
0000
1000
0000
0100
0000
0010
0000
,
0011
0000
0000
1000
0100
0000
0010
0000
0010
0000
0001
0000
0100
0000
0010
0000
,
1010
0000
0000
0001
0100
0000
0001
0000
0010
0000
0010
0000
0100
0000
1000
0000
,
1100
0000
0010
0100
1001
0000
1100
0000
,
0011
0000
0000
1000
0010
0000
0100
0000
0010
0000
1000
0001
1000
0000
0100
0000
,
0110
0000
0000
0001
1000
0000
0100
0000
0010
0000
0001
1000
0001
0000
0010
0000
,
0011
0000
0000
0101
0000
0000
1010
0000
1100
0000
0000
0110
0000
0000
0011
0000
,
1001
0000
0000
1000
0001
0000
0000
0001
0010
0000
0000
0000
0011
0000
0000
0000
,
0011
0000
0000
1000
0100
0000
0010
0000
0010
0000
0001
0000
0100
0000
0010
0000
,
1010
0000
0000
0001
0100
0000
0010
0000
0010
0000
1000
0000
0100
0000
0010
0000
,
0011
0000
0000
1000
0100
0000
1000
0000
0010
0000
0010
0000
0100
0000
0001
0000
,
0101
0000
0000
0000
0010
0000
0100
0000
1001
0000
0000
0101
0000
0000
1010
0000
,
0110
0000
0000
0001
0010
0000
0100
0000
0010
0000
0001
1000
0001
0000
0100
0000
,
0110
0000
0000
1000
0001
0000
0100
0000
0010
0000
1000
0001
1000
0000
0010
0000
,
1010
0000
0000
1100
0000
0000
0011
0000
0101
0000
0000
0110
0000
0000
1010
0000
,
1001
0000
0000
0001
1000
0000
1010
0000
1100
0000
0000
0110
0000
0000
0011
0000
,
0202
0000
0300
2000
0000
3003
0001
0100
,
0020
0000
2000
0000
0030
0000
3001
0000
2000
0000
0000
3020
0000
0000
0130
0000
,
0001
0000
1000
0002
0000
0000
0000
0000
0000
0000
0000
0000
0013
0000
0100
0000
,
2200
0000
0000
0000
3300
0000
1000
0000
2200
0000
0000
3300
0002
0000
0000
0003
,
1010
0000
0000
0100
0000
0000
0001
0000
0000
0000
0020
0000
0130
0000
1000
0100
,
1000
0000
0000
0100
0000
0000
0010
0001
0100
0000
0100
0010
0100
0000
0000
0000
,
2010
0000
0000
3100
0000
0000
0010
0000
0012
0000
0000
0103
0000
0000
1020
0000
,
0200
0000
0000
0000
,
0000
0000
0000
0000
0000
0000
0000
0000
0000
0000
0000
0330
0000
0000
0000
0000
,
1001
0000
0000
0001
0100
0000
0010
0000
0010
0000
1000
0000
0100
0000
0010
0000
,
0011
0000
0000
1000
0100
0000
0010
0000
0010
0000
0001
0000
0100
0000
0010
0000
,
1010
0000
0000
0001
0100
0000
0001
0000
0010
0000
0010
0000
0100
0000
1000
0000
,
1100
0000
0010
0100
1001
0000
1100
0000
,
0011
0000
0000
0000
0000
0000
0000
0000
0000
0000
0000
0000
0000
0000
0000
0000
0000
0000
1000
0000
0000
0000
0000
0000
0010
0000
0000
1000
0000
0000
0000
0000
0000
0000
0000
0000
0100
0100
0000
0000
0000
0000
0000
0000
0000
0000
0000
0000
0010
0000
0000
0000
0000
0000
0000
0000
0000
0000
0000
0000
1000
0000
0000
0000
0000
0000
0001
0000
0000
0000
0000
0000
1000
0000
0000
0000
0000
0000
0000
0000
0000
0000
0000
0000
0100
0000
0000
0000
0000
0000
0000
0000
0000
0000
0000
0000
,
0110
0000
0000
0001
1000
0000
0100
0000
0010
0000
0001
1000
0001
0000
0010
0000
,
0011
0000
0000
0101
0000
0000
1010
0000
1100
0000
0000
0110
0000
0000
0011
0000
,
1001
0000
0000
1000
0001
0000
0000
0001
0010
0000
0000
0000
0011
0000
0000
0000
,
0011
0000
0000
1000
0100
0000
0010
0000
0010
0000
0001
0000
0100
0000
0010
0000
,
1010
0000
0000
0001
0100
0000
0010
0000
0010
0000
1000
0000
0100
0000
0010
0000
,
0011
0000
0000
1000
0100
0000
1000
0000
0010
0000
0010
0000
0100
0000
0001
0000
,
0101
0000
0000
0000
0010
0000
0100
0000
1001
0000
0000
0101
0000
0000
1010
0000
,
0110
0000
0000
0001
0010
0000
0100
0000
0010
0000
0001
1000
0001
0000
0100
0000
,
0110
0000
0000
1000
0001
0000
01
