#TITLE:Obelisque;
#SUBTITLE:;
#ARTIST:ESTi & M2U;
#TITLETRANSLIT:;
#SUBTITLETRANSLIT:;
#ARTISTTRANSLIT:;
#GENRE:Instrumental;
#CREDIT:Blood4Fame;
#MUSIC:Obelisque.mp3;
#BANNER:Banner.png;
#BACKGROUND:BG.png;
#CDTITLE:;
#SAMPLESTART:0.000;
#SAMPLELENGTH:0.000;
#SELECTABLE:YES;
#OFFSET:0.021;
#BPMS:0.000=130.000
,204.000=260.000
,207.000=130.000
;
#STOPS:204.000=0.173
,204.750=0.173
,205.500=0.173
,206.250=0.173
;
#BGCHANGES:;
#FGCHANGES:;

//--------------- dance-single - Blood4Fame ----------------
#NOTES:
     dance-single:
     Blood4Fame:
     Beginner:
     2:
     0,0,0,0,0:
0000
0000
0000
0000
,
0000
0000
0000
0000
,
0000
0000
0000
0000
,
0000
0000
0000
0000
,
0000
0000
0000
0000
,
1000
0000
1000
0000
,
0010
0010
0010
0010
,
1000
0000
1000
0000
,
0001
0001
0001
0001
,
1000
0000
1000
0000
,
0100
0100
0100
0100
,
1000
0000
1000
0000
,
0001
0000
0010
0000
,
1000
0000
0001
0000
,
1000
1000
0001
0000
,
1000
0000
0010
0000
,
0001
0001
1000
0000
,
0010
0000
0001
0000
,
0010
0100
0010
0000
,
0001
0000
1000
0000
,
0100
0010
0100
0000
,
0001
0000
0001
0000
,
1000
0100
1000
0000
,
1000
0000
1000
0000
,
0001
0100
0001
0000
,
0001
0000
0010
0000
,
0001
0000
0100
0000
,
2000
0000
0000
0000
,
3000
0000
0000
0000
,
1000
0000
0100
0000
,
0010
0000
0100
0000
,
0001
0000
1000
0000
,
0001
0000
0100
0000
,
0020
0000
0000
0000
,
0030
0000
0000
0000
,
0001
0000
0010
0000
,
1000
0000
0010
0100
,
0001
0000
0100
0000
,
0010
0000
1000
0010
,
0100
0000
1000
0000
,
0002
0000
0000
0003
,
2002
0000
0000
0000
,
3003
0000
0000
0000
,
0100
0000
0100
0000
,
0100
0100
0100
0100
,
0000
0010
0000
0001
,
0000
1000
0000
0100
,
0000
0010
0000
0100
,
0000
1000
1000
1000
,
1000
0000
0001
0000
,
0010
0000
0100
0000
,
0010
0000
0000
0000
,
1000
0000
0001
0000
,
0100
0100
0000
0010
,
0001
0000
0100
0100
,
0100
0000
0001
1000
,
0000
0100
0100
0010
,
0001
0000
0100
0100
,
0000
1000
1000
0100
,
0000
0001
0010
0000
,
0001
0100
0000
1000
,
0100
0000
0100
0000
,
0010
0000
0010
0000
,
1000
0000
1000
0000
,
0001
0001
0100
0100
,
0001
0000
1000
0000
,
0010
0000
1000
0000
,
0100
0000
0100
0000
,
0010
0000
0010
0001
,
2000
0000
0000
0000
,
3000
0000
0000
0000
,
0002
0000
0000
0000
,
0003
0000
0000
0000
,
1000
0000
0100
0000
,
1000
1000
1000
1000
,
0001
0000
0100
0000
,
0001
0001
0001
0001
;

//--------------- dance-single - Blood4Fame ----------------
#NOTES:
     dance-single:
     Blood4Fame:
     Easy:
     3:
     0,0,0,0,0:
0000
0000
0000
0000
,
0000
0000
0000
0000
,
0000
0000
0000
0000
,
0000
0000
0000
0000
,
0000
0000
0000
0000
,
0100
1000
0000
0001
,
0100
0100
0000
0100
,
0100
1000
0000
0100
,
0100
0001
0000
1000
,
0000
0100
1000
0100
,
0000
0100
0010
0100
,
0000
0001
0000
0001
,
0100
0100
0000
0100
,
0200
0000
0301
1000
,
0100
0000
0000
0001
,
0020
0000
0000
0030
0000
0000
0001
0000
,
0001
0000
0010
0000
,
1000
0000
0000
0010
,
0000
0001
0010
0001
,
0001
0000
0000
0010
,
0000
1000
0100
0001
,
0001
0000
0000
0100
,
0010
1000
0100
0000
,
1000
0000
0000
0010
,
0000
0000
1000
0010
,
0002
0000
0000
0003
0000
0000
0100
0000
,
0100
0000
0000
0110
,
0010
0000
0000
0001
,
0001
1000
0000
0100
,
0001
0000
0000
0001
,
0001
1000
0000
0100
,
0001
0000
0000
0000
0100
0000
0000
0000
0002
0000
0000
0003
0000
0000
0000
0000
,
0020
0000
0000
0030
2000
0000
0000
0000
,
3010
0100
0010
0010
,
0020
0000
0000
0000
0000
0000
0030
0000
0002
0000
0000
0003
0000
0000
0000
0000
,
0002
0000
0000
0003
0000
0000
0000
0000
0200
0000
0000
0000
0310
0000
0000
0000
,
2000
0000
0000
3000
0000
0000
0000
0000
0000
0000
0000
0000
0100
0000
0000
0000
,
1000
0100
0000
0010
,
0100
1000
0000
0100
,
0100
0001
1000
0000
,
0020
0000
0000
0000
0000
0030
0000
0000
0200
0000
0000
0300
1000
0000
0000
0000
,
0200
0000
0300
0001
,
0001
0000
0000
0010
,
1000
0000
0000
0110
,
0200
0000
0000
0300
0001
0000
0100
0000
,
1000
0000
0000
0000
0000
0000
2000
3000
,
0010
0000
0001
1000
,
0100
0000
0000
0000
0000
0000
0200
0300
,
0010
1000
0001
0010
,
0100
0000
0000
0010
,
0100
0001
0100
0001
,
1001
0000
0000
0000
0000
0000
2000
3000
,
0000
0000
0001
0010
,
0000
0000
1001
0011
,
0010
1000
0001
0000
,
1000
0000
1000
0001
,
0001
0000
0100
0100
,
0100
0000
0010
0000
,
0100
0000
0010
0100
,
2000
0000
0000
3000
0000
0000
0000
0000
0002
0000
0000
0003
0000
0000
0000
0000
,
0010
0000
0110
0000
,
2020
0000
0000
3030
1100
0000
0010
0000
,
0010
0010
0100
0100
,
0100
0000
0000
0010
,
0001
0100
1000
0010
,
0010
0000
0000
0000
1000
0000
2000
3000
,
0002
0000
0000
0003
0000
0000
0000
0000
0200
0000
0300
0000
0200
0000
0300
0000
,
2000
0000
0000
3000
0000
0000
0000
0000
0020
0000
0000
0030
0000
0000
0000
0000
,
0002
0000
0000
0000
2000
0000
3003
0000
1002
0000
0000
0000
0023
0000
0000
0030
,
0200
0000
0300
0000
0000
0000
2010
3000
,
0100
0000
0001
0100
,
2000
3000
0000
0000
0000
0000
2100
3000
,
0010
0000
1000
1000
,
0000
0000
0000
0000
0000
0000
0102
0003
,
0010
0000
1000
0010
,
0010
0000
0000
0000
0000
0000
0120
0030
,
0100
0000
1000
1000
,
0000
0000
2002
0000
0000
0000
0000
3003
,
0020
0000
0000
0000
,
0000
0000
0030
0000
;

//--------------- dance-single - Blood4Fame ----------------
#NOTES:
     dance-single:
     Blood4Fame:
     Medium:
     6:
     0,0,0,0,0:
0000
0000
0000
0000
,
0000
0000
0000
0000
,
0000
0000
0000
0000
,
0000
0000
0000
0000
,
0000
0000
0000
0000
,
0100
0001
1000
0100
0000
0001
0001
0010
,
0100
1000
0100
0010
0000
0100
0100
0001
,
0100
0010
1000
0001
0000
0100
0100
0001
,
0100
0001
0000
0010
0000
1000
1000
0000
,
0000
0001
0100
0001
1000
0010
0100
0001
,
0000
1000
0100
1000
0010
0100
0100
0001
,
0000
1000
0001
1000
0000
0001
0001
1000
,
0100
0010
0100
0010
0000
0010
0000
0100
,
0200
0010
0000
0000
0301
0010
1000
1000
,
0100
0000
0000
0020
0000
0000
0031
0100
,
0020
0000
0000
2030
0000
0000
3001
0100
,
0001
0000
0000
0100
0010
0000
0000
0001
,
1000
0000
0000
0110
0000
0100
0010
0010
,
0000
0100
0001
0000
0010
1000
0001
0000
,
0001
0000
0000
0110
0000
0100
0010
0001
,
0100
0001
1000
0000
0100
0010
0001
0000
,
0001
0000
0000
1100
0000
0001
0100
0010
,
0010
1000
1000
0000
0100
0000
0000
0010
,
1000
0000
0000
0011
0000
0100
0010
1000
,
0000
0001
0000
0100
1000
0100
0010
0001
,
0002
0000
0000
0203
0000
0310
0100
0100
,
0000
0000
0000
0020
0000
0031
0100
1000
,
0000
0000
0000
0100
0000
0010
0000
0100
,
0000
1000
0000
1000
0000
1000
0100
0010
,
0001
0000
2000
3000
0000
0000
0200
0000
0000
0000
0300
0000
0001
0000
0001
0000
,
0001
1000
1000
0020
0000
1000
0130
0000
,
0001
0000
0010
0000
0100
0000
0001
0000
0002
0000
0000
0003
0000
0000
0010
0000
,
0020
0000
0000
1030
2000
0000
0000
0001
,
3010
0000
0100
0100
0010
0001
0010
0001
,
0020
0000
0000
0000
0000
0000
1030
0000
0002
0000
0000
0003
0000
0000
0200
0000
,
0302
0000
0000
0003
0000
0000
0000
0000
0200
0000
0000
0000
0310
0000
0100
0000
,
2000
0000
0000
3000
0000
0000
0020
0000
0000
0000
0030
0000
0100
0000
0010
0000
,
1000
0000
0100
0001
0000
0000
0010
0100
,
0100
0000
1000
0000
1000
0000
0002
0000
0000
0000
0000
0003
0100
0000
0001
0000
,
0100
0100
0001
0001
1000
0001
0000
0100
,
0020
0000
0000
0000
0000
0030
0100
0000
0200
0000
0000
0300
1000
0000
1000
0000
,
0200
0000
0300
0001
,
0000
0011
0000
1000
0000
0000
0010
0100
,
1000
1100
0000
1001
0000
0000
0110
0100
,
0200
0000
0000
0310
0001
0010
0100
0010
,
1000
0000
0000
0100
0000
0000
2000
3100
,
0000
1000
0000
0010
0001
0000
1000
0001
,
0100
0000
0000
1000
0000
0000
0200
0310
,
0000
0010
1000
0000
0001
0000
0010
0010
,
0100
0000
0000
1000
0000
0000
0010
0010
,
0000
0100
0001
0000
0100
0010
0001
0000
,
1001
0000
0000
1010
0000
0000
2000
3001
,
0000
1000
0000
0010
0001
0100
0010
1000
,
0000
0000
0000
0000
1001
0100
0011
1000
,
0010
0100
1000
0010
0001
0000
0000
0001
,
1000
0000
0000
0001
1000
0000
0001
0000
,
0001
1000
0000
1000
0100
0000
0000
0001
,
0000
0101
0000
0000
0010
0010
0000
0000
,
0100
1000
0000
0001
0000
0000
0100
0100
,
2000
0000
0000
3000
0000
0000
0020
0000
0032
0000
0000
0003
0000
0000
0100
0000
,
0010
0000
0000
0011
0110
0000
0000
0001
,
2020
0000
0000
3030
1100
0000
0010
0010
,
0010
0010
0010
0010
0100
0001
0100
0001
,
0100
0000
0000
0100
0000
0000
0010
0100
,
0001
1000
0000
0010
1000
0010
0010
0001
,
0010
0000
0000
0000
0000
0000
0020
0000
0000
0030
0000
0000
2000
0000
3020
0000
,
0032
0000
0000
0003
0000
0000
0002
0000
0203
0000
0300
0000
0200
0000
0302
0000
,
2003
0000
0000
3000
0000
0000
0002
0000
0023
0000
0000
0030
0000
0000
2000
0000
,
3002
0000
0000
0000
2000
0000
3003
0000
1002
0000
0000
0000
0023
0000
0000
0030
,
0200
0000
0300
0202
0303
0000
2010
3010
,
0000
0000
0000
0100
0001
0000
0100
0100
,
2000
3100
0000
0022
0033
0000
2100
3100
,
0000
0001
0000
1000
1000
0000
1000
0010
,
0000
0100
0000
0022
0033
0000
0102
0103
,
0000
1000
0000
0100
1000
0000
0010
0001
,
0010
0100
0000
2002
3003
0000
0120
0130
,
0000
1000
0000
0000
1000
0000
1000
0000
,
0000
0000
2002
0000
0000
0000
0000
3003
,
0020
0000
0000
0000
,
0000
0000
0030
0000
;

//--------------- dance-single - Blood4Fame ----------------
#NOTES:
     dance-single:
     Blood4Fame:
     Hard:
     8:
     0,0,0,0,0:
0000
0000
0000
0000
,
0000
0000
0000
0000
,
0000
0000
0000
0000
,
0000
0000
0000
0000
,
0000
0000
0000
0000
,
0100
0000
0001
0000
1000
0000
0100
0000
0000
0010
0001
0000
0001
0000
0010
0000
,
0100
1000
0100
0010
0000
0100
0100
0001
,
0100
0000
0010
0000
1000
0000
0001
0000
0000
1000
0100
0000
0100
0000
0001
0000
,
0100
0001
0000
0010
0000
1000
1000
0000
,
0000
0001
0100
0001
1000
0010
0100
0001
,
0000
0001
1000
0000
0100
0000
1000
0000
0010
0000
0100
0000
0100
0000
0001
0000
,
0000
0010
1000
0000
0001
0000
1000
0000
0000
1000
0001
0000
0001
0000
1000
0000
,
0100
0000
0010
0000
0100
0000
0010
0000
0000
0000
0010
0000
0000
0001
0100
0000
,
0200
0010
0000
0000
0301
0010
1000
1000
,
0100
0000
0000
0010
0000
0000
0010
0000
0000
0001
0000
0000
0001
0000
0100
0000
,
0010
0000
0000
0100
0000
0000
1000
0000
0000
1000
0000
0000
0001
0000
0100
0000
,
0001
0000
0000
0010
0000
0000
0100
0000
0010
0000
0000
1000
0000
0000
0001
0000
,
1000
0000
0000
1100
0000
0000
0110
0000
0000
1000
0100
0000
0010
0000
0010
0000
,
0000
0000
0100
0000
0001
0000
0000
0100
0010
0000
1000
0000
0001
0000
0000
0000
,
0001
0000
0000
0101
0000
0000
0110
0000
0000
1000
0100
0000
0010
0000
0001
0000
,
0100
0001
1000
0000
0100
0010
0001
0000
,
0001
0000
0000
0110
0000
0000
1100
0000
0000
1000
0001
0000
0100
0000
0010
0000
,
0010
0000
1000
0000
1000
0000
0000
0000
0100
0001
0000
1000
0000
0001
0010
0000
,
1000
0000
0000
0110
0000
0000
0011
0000
0000
1000
0100
0000
0010
0000
1000
0000
,
0000
0000
0001
0010
0000
0010
0100
0000
1000
0000
0100
0000
0010
0000
0001
0000
,
0002
0000
0000
0000
0000
0000
0203
0000
0000
0000
0310
0000
0100
0000
0100
2000
,
0000
0000
0000
0000
0000
0000
3020
0000
0000
0000
0031
0000
0100
0000
1000
0002
,
0000
0000
0000
0100
0000
0010
0000
0100
,
0000
1000
0003
1000
0000
1000
0100
0010
,
0001
0000
2000
3000
0000
0000
0200
0000
0000
0000
0300
0000
0001
0000
0001
1000
,
0001
0000
1000
0100
1000
0000
0020
0000
0000
0000
1000
0000
0130
0000
0000
0000
,
0001
0000
0010
0000
0100
0000
0001
0000
0002
0000
0000
0013
0000
0000
0010
0000
,
0020
0000
0000
0000
0000
0000
1030
0000
2000
0000
0000
0100
0000
0000
0001
0000
,
3010
0000
0000
1000
0100
0000
0100
1000
0010
0000
0001
0000
0010
0000
0001
0100
,
0020
0000
0000
0000
0000
0000
1030
0010
0002
0000
0000
2003
0000
0000
3200
0000
,
0302
0000
0000
0013
0000
0000
0000
0000
0200
0000
0000
0000
0310
0000
0100
0000
,
2000
0000
0000
3002
0000
0000
0023
0000
0000
0000
0030
0000
0100
0000
0010
0000
,
1000
0000
0000
0000
0100
1000
0001
0020
0000
0000
0030
0000
0010
0000
0100
0000
,
0100
0000
1000
0000
1000
0000
0002
0000
0000
0000
0000
0003
0100
0000
0001
0010
,
0100
0000
0100
0000
0001
0000
0001
0000
1000
0000
0001
0010
0000
0000
0100
0000
,
0020
0000
0000
0000
0000
0030
0100
0010
0200
0000
0000
0300
1000
0000
1000
0000
,
0200
0000
0000
0000
0000
0000
0000
0000
0300
0100
0000
0000
0001
0000
0000
0001
,
0000
0000
0011
0000
0000
0000
1000
0000
0000
0010
0000
0001
0010
0000
0100
0000
,
1000
0000
1100
0000
0000
0000
1001
0000
0000
0011
0000
0000
0110
0000
0100
0000
,
0200
0000
0000
0310
0001
0010
0100
0010
,
1000
0000
0000
0001
0000
0000
0100
0000
0000
0001
0000
0010
2000
0000
3100
0000
,
0000
0000
1000
0100
0000
0100
0010
0000
0001
0010
0000
0100
1000
0000
0001
0000
,
0100
0000
0000
0100
0000
0000
1000
0000
0000
0001
0000
0000
0200
0000
0310
0000
,
0000
0000
0010
0000
1000
0000
0000
0010
0001
0000
0000
0000
0010
0100
0010
0000
,
0100
0000
0000
0100
0000
0000
1000
0000
0000
0001
0000
0000
0010
0000
0010
0000
,
0000
0000
0100
0000
0001
0010
0000
0000
0100
0000
0010
0000
0001
0100
0000
0000
,
1001
0000
0000
1001
0000
0000
1010
0000
0000
0101
0000
0000
2000
0000
3001
0000
,
0000
0000
1000
0100
0000
0100
0010
0000
0001
0000
0100
0000
0010
0000
1000
0000
,
0000
0000
0000
0000
1001
0100
0011
1000
,
0010
0001
0100
0000
1000
0001
0010
0000
0001
0000
0000
0010
0000
0000
0001
0000
,
1000
0000
0000
0100
0000
0000
0001
0000
1000
0001
0000
0010
0001
0000
0000
0010
,
0001
0000
1000
0000
0000
0010
1000
0000
0100
1000
0000
0100
0000
0100
0001
0000
,
0000
0000
0101
0000
0000
1010
0000
0000
0010
0000
0010
0001
0000
1000
0000
0010
,
0100
0000
1000
0000
0000
1000
0001
0000
0000
0001
0000
0000
0100
0010
0100
0000
,
2000
0000
0000
3200
0000
0000
0320
0000
0032
0000
0000
2003
0000
0000
3100
0000
,
0010
0000
0000
0010
0000
0000
0011
0000
0110
0000
0000
1000
0000
0000
0001
0000
,
2020
0000
0000
0000
0000
0000
3030
0000
1100
0000
0000
0000
0010
0000
0010
0001
,
0010
0000
0010
0001
0010
0000
0010
1000
0100
0000
0001
0010
0100
0000
0001
0010
,
0100
0000
0000
1000
0000
0000
0100
0000
0000
0001
0000
0000
0010
0000
0100
0000
,
0001
0000
1000
0001
0000
1000
0010
0000
1000
0000
0010
0001
0010
0000
0001
0100
,
0010
0000
0000
0002
0000
0000
0023
0000
0000
0230
0000
0000
2300
0000
3020
0000
,
0032
0000
0000
2003
0000
0000
3002
0000
0203
0000
0300
0000
0200
0000
0302
0000
,
2003
0000
0000
3200
0000
0000
0302
0000
0023
0000
0000
0230
0000
0000
2300
0000
,
3002
0000
0000
0000
2000
0000
3003
0000
1002
0000
0000
0000
0023
0000
0000
0030
,
0200
0000
0000
0000
0300
0000
0202
0000
0303
0220
0000
0330
2010
0000
3010
0000
,
0000
0000
0000
0010
0000
1000
0100
0000
0001
0000
0000
1000
0100
0000
0100
0000
,
2000
0000
3100
0000
0000
0000
0022
0000
0033
0220
0000
0330
2100
0000
3100
0000
,
0000
0000
0001
0000
0000
0010
1000
0000
1000
0100
0000
0001
1000
0000
0010
0000
,
0000
0000
0100
0000
0000
0000
0022
0000
0033
2020
0000
3030
0102
0000
0103
0000
,
0000
0000
1000
0000
0000
0010
0100
0000
1000
0100
0000
0001
0010
0000
0001
0000
,
0010
0000
0100
0000
0000
0000
2002
0000
3003
0022
0000
0033
0120
0000
0130
0000
,
0000
0000
1000
0000
0000
0100
0000
0000
1000
0010
0000
0010
1000
0001
0000
0020
,
0030
0000
2002
0000
0000
0000
0000
3003
,
0020
0000
0000
0000
,
0000
0000
0030
0000
;

//--------------- dance-single - Blood4Fame ----------------
#NOTES:
     dance-single:
     Blood4Fame:
     Challenge:
     10:
     0,0,0,0,0:
0000
0000
0000
0000
,
0000
0000
0000
0000
,
0000
0000
0000
0000
,
0000
0000
0000
0000
,
0000
0000
0000
0000
0000
0000
0000
0000
0000
0000
0000
0000
0000
0000
0000
0010
,
0100
0000
0001
0000
1000
0000
0100
0000
0000
0010
0001
0000
0001
0000
0010
0000
,
0100
0000
1000
0000
0100
0000
0010
0000
0000
0001
0100
0000
0100
0000
0001
0000
,
0100
0000
0010
0000
1000
0000
0001
0000
0000
1000
0010
0000
0100
0000
0001
0000
,
0100
0000
0001
0100
0000
0000
0010
0000
0000
0010
1000
0000
1000
0000
0000
0000
,
0000
1000
0001
0000
0100
0000
0001
0000
1000
0000
0010
0000
0100
0000
0001
0000
,
0000
0001
1000
0000
0100
0000
1000
0000
0010
0000
0100
0000
0100
0000
0001
0000
,
0000
0010
1000
0000
0001
0000
1000
0000
0000
1000
0001
0000
0001
0000
1000
0000
,
0100
0000
0010
0000
0100
0000
0010
0000
0000
0100
0010
0000
0010
0001
0100
0000
,
0200
0000
0010
0000
0000
0010
0000
0000
0301
0000
0010
0000
1000
0000
1000
0000
,
0100
0000
0000
0010
0000
0000
0010
0000
0000
0001
0000
0000
0001
0000
0100
0000
,
0010
0000
0000
0100
0000
0000
0001
0000
0000
1000
0000
0000
0001
0000
0100
0000
,
0001
0100
0000
0010
0000
0000
0100
0000
0010
0100
0000
0001
0000
0000
1000
0000
,
1000
0000
0000
1100
0000
0000
0110
0000
0000
1000
0100
0000
0010
0000
0000
0001
,
1000
0000
0100
0000
0001
0000
0000
0100
0010
0000
1000
0000
0001
0000
0000
0000
,
0001
0000
0000
0101
0000
0000
0110
0000
0000
1000
0010
0000
0100
0000
0001
0000
,
0100
0000
0010
1000
0000
1000
0100
0000
1000
0000
0010
0000
1000
0000
0000
0000
,
0001
0000
0000
0110
0000
0000
1100
0000
0000
1000
0001
0000
0100
0000
0010
0000
,
0010
0000
1000
0000
1000
0100
0000
0000
1000
0001
0000
1000
0000
0001
0010
0000
,
0100
0000
0000
0110
0000
0000
0011
0000
0000
1000
0100
0000
0010
0000
0001
0000
,
0000
0000
0000
0000
0000
0000
0001
0000
0000
0010
0000
0000
0000
0000
0000
0010
0000
0000
0100
0000
0000
0000
0000
0000
1000
0000
0000
0000
0000
0000
0100
0000
0000
0000
0000
0000
0010
0000
0000
0000
0000
0000
0001
0000
0000
0000
1000
0000
,
0002
0000
0000
0000
0000
0000
0203
0000
0000
0000
0310
0000
0100
0000
0100
0002
,
0000
0000
0000
0000
0000
0003
0020
0000
0000
0000
0031
0000
1000
0000
1000
0002
,
0000
0000
0000
0100
0000
0010
0000
0100
,
0000
0000
1000
0000
0003
0000
1000
0000
0000
0000
1000
0000
0010
0000
0010
0100
,
0001
0000
0000
0000
0000
0000
2000
0000
0000
3000
0000
0000
0000
0000
0000
0000
0000
0000
0200
0000
0000
0000
0000
0000
0000
0000
0000
0000
0000
0000
0300
0000
0000
0000
0100
0000
1000
0000
0000
0000
0000
0000
0001
0000
0000
1000
0000
0000
,
0001
0000
0000
0000
0000
0000
1000
0000
0000
0100
0000
0000
1000
0000
0000
0000
0000
0000
0020
0000
0000
0000
0000
0000
0000
0000
0000
0000
0000
0000
1000
0000
0000
0000
0000
0000
0130
0000
0000
0000
0000
0000
0000
0000
0000
0000
1000
0000
,
0001
0000
0010
0000
0100
0000
1000
0000
0002
0000
0000
0013
0000
0000
0010
0000
,
0020
0000
0000
0000
0030
0000
1000
0000
2000
0000
0000
0100
0000
0000
0001
0000
,
3010
0000
0000
1000
0100
0000
0100
1000
0010
0000
1000
0000
0010
0100
0001
0100
,
0020
0000
0000
0000
0000
0000
1030
0010
0002
0000
0000
0023
0000
0000
0230
0000
,
0302
0000
0000
0000
0000
0000
0000
0000
0000
0013
0000
0000
0000
0000
0000
0000
0000
0000
0000
0000
0000
0000
0001
0000
0200
0000
0000
0000
0000
0000
0000
0000
0000
0000
0000
0000
0310
0000
0000
0000
0000
0000
0100
0000
0000
0000
0000
0000
,
0002
0000
0000
0000
0000
0000
0000
0000
0000
2003
0000
0000
0000
0000
0000
0000
0100
0000
3020
0000
0000
0000
0000
0000
0000
0000
0000
0000
0000
0000
0030
0000
0000
0000
0000
0000
0100
0000
0000
0000
0000
0000
0010
0000
0000
0000
0000
0000
,
1000
0000
0000
0000
0000
0000
0000
0000
0000
1000
0000
0000
0100
0000
0000
1000
0000
0000
0001
0000
0000
0020
0000
0000
0000
0000
0000
0000
0000
0000
0030
0000
0000
0000
0100
0000
0010
0000
0000
0000
0000
0000
0100
0000
0000
0010
0000
0000
,
0100
0000
1000
0100
1000
0000
0002
0000
0000
0000
0000
1003
0100
0010
0001
0010
,
0100
0000
0100
0000
1000
0000
1000
0000
0001
0100
0001
0010
0000
0000
0100
0000
,
0020
0000
0000
0000
0000
0000
0000
0000
0000
0000
0000
0000
0000
0000
0000
0030
0000
0000
0100
0000
0000
0010
0000
0000
0200
0000
0000
0000
0000
0000
0000
0000
0000
0300
1000
0000
0001
0000
0000
0000
0000
0000
0001
0000
0000
0000
0000
0000
,
0200
0000
0000
0000
0000
0000
0000
0000
0310
0100
0000
0010
1000
0000
0000
0001
,
0010
0000
0011
0000
0000
0000
1000
0000
0100
0010
0000
0001
0010
0000
0100
0000
,
1000
0000
1100
0000
0000
0000
1001
0000
0000
0011
0000
0000
0110
0000
0100
0000
,
0200
0000
0000
0000
0000
0000
0310
1000
0001
0000
0010
0000
0100
0000
0010
0000
,
1000
0000
1000
0001
0000
0000
0100
0000
0000
0001
0000
0010
0002
0000
0103
0000
,
0000
0000
1000
0100
0000
0100
0010
0000
0001
0010
0000
0100
1000
0000
0001
0000
,
0100
0000
0000
0100
0010
0000
1000
0000
0000
0001
0000
1000
0200
0000
0310
0000
,
0000
0001
0010
0000
0100
1000
0000
0010
1000
0000
0000
0001
0010
0100
0010
0001
,
0100
0000
0000
0100
0000
0000
1000
0000
0000
0001
0000
0000
0010
0100
0010
0000
,
0000
1000
0100
0000
1000
0010
0000
0010
0100
0000
0010
0000
1000
0100
1000
0000
,
1001
0000
0000
1001
0000
0000
1010
0000
0000
0101
0000
0000
1010
0000
1001
0000
,
0000
0000
1000
0100
0000
0100
0010
0000
0001
0000
0100
0000
0010
0000
1000
0000
,
0000
0000
0000
0000
0000
0000
0000
0000
1001
0000
0100
0010
1010
0000
1000
0100
,
0010
0001
0100
0001
1000
0001
0010
0100
1000
0000
0000
0010
0000
0010
1000
0000
,
1000
0100
0000
0100
0000
0010
0001
0000
1000
0001
0000
0010
0001
0100
0000
0010
,
1000
0000
1000
0100
0000
0010
0001
0000
1000
0100
0000
1000
0010
0100
0001
0000
,
0000
0000
0101
0000
0000
1010
0000
0100
0010
0000
0010
1000
0000
1000
0001
0010
,
0100
0000
1000
0100
0000
1000
0001
0000
0000
0001
0000
0000
0100
0010
0100
0001
,
1000
0000
0000
0000
0000
0000
0000
0000
1000
0100
0000
0000
0000
0000
0000
0000
0000
0000
0010
0000
0000
0000
0000
0000
0001
0000
0000
0000
0000
0000
0000
0000
0001
1000
0000
0000
0000
0000
0000
0000
0000
0000
0100
0000
0000
0001
0000
0000
,
0010
0000
0000
0010
0000
0000
0011
0000
0110
0000
0000
1000
0000
0000
0001
0000
,
2020
0000
0000
0000
0000
0000
3030
0000
1100
0000
0000
0100
0010
0000
0010
0001
,
0010
0100
0010
0001
0010
0100
0010
1000
0100
1000
0001
0010
0100
1000
0001
0010
,
0100
1000
0000
1000
0000
0000
0100
0000
0000
0001
0000
0000
0010
0000
0100
1000
,
0001
0000
1000
0001
0000
1000
0010
0000
1000
0100
0010
0001
0010
0100
0001
0100
,
0010
0000
0000
0000
0000
0000
0000
0000
0000
0001
0000
0000
0000
0000
0000
0000
0001
0000
0010
0000
0000
0000
0000
0000
0000
0000
0000
0100
0000
0000
0000
0000
0000
0000
0000
0000
1000
0000
0000
0000
0000
0000
0010
0000
0000
0000
0000
0000
,
0001
0000
0000
0000
0000
0000
0000
0000
0000
1000
0000
0000
0000
0000
0000
0000
0000
0000
0001
0000
0000
0000
1000
0000
0100
0000
0000
0000
0000
0000
0000
0000
0000
0000
0000
0000
0100
0000
0000
0000
0000
0000
1000
0000
0000
0000
0000
0000
,
0001
0000
0000
0000
0000
0000
0000
0000
0000
0100
0000
0000
0000
0000
0000
0000
0000
0000
0001
0000
0000
0000
0100
0000
0010
0000
0000
0000
0000
0000
0010
0000
0000
0100
0000
0000
0000
0000
0000
0010
0000
0000
1000
0000
0000
0000
0000
0000
,
0002
0000
0000
0000
2000
0000
3003
0000
1002
0000
0000
0000
0023
0000
0000
0030
,
0200
0000
0000
0000
0300
0000
2200
0000
3300
0220
0000
0330
0012
0000
0013
0000
,
0000
0000
0001
0010
0000
0001
0100
0000
0001
0010
0000
0001
0100
0000
0100
0000
,
0020
0000
0130
0000
0000
0000
2020
0000
3030
0220
0000
0330
2010
0000
3100
0000
,
0000
0000
1000
0100
0000
0010
0001
0000
1000
0100
0000
0001
1000
0001
0010
0100
,
0000
0000
0100
0000
0000
0000
0022
0000
0033
0220
0000
0330
0102
0000
0103
0000
,
0000
0000
1000
0001
0000
0010
0100
0000
1000
0100
0000
1000
0010
0000
0001
0000
,
0010
0000
0100
0000
0000
0000
2002
0000
3003
0022
0000
0033
0120
0000
0130
0000
,
0000
0000
0001
0010
0000
0100
0010
0000
0001
0010
0100
0010
0001
1000
0100
0020
,
0030
0000
0000
0000
0000
0000
2002
0000
0000
0000
0000
0000
0000
0000
0000
0000
0000
0000
0000
0000
0000
3003
0000
0100
,
0020
0000
0000
0000
,
0000
0000
0030
0000
;
