#TITLE:NB Rangers;
#SUBTITLE:Returns;
#ARTIST:NieN;
#TITLETRANSLIT:;
#SUBTITLETRANSLIT:;
#ARTISTTRANSLIT:;
#GENRE:Rock;
#CREDIT:Blood4Fame;
#MUSIC:music.mp3;
#BANNER:banner.png;
#BACKGROUND:bg.png;
#CDTITLE:;
#SAMPLESTART:51.499;
#SAMPLELENGTH:29.422;
#SELECTABLE:YES;
#OFFSET:-2.022;
#BPMS:0.000=73.000
,24.000=72.000
,32.000=146.000
,48.000=144.000
,60.000=145.000
;
#STOPS:;
#BGCHANGES:-2.022=video.mp4=1.000=1=0=1===CrossFade==,
99999.000=-nosongbg-=1.000=0=0=0=StretchNoLoop====;
#FGCHANGES:;

//--------------- dance-single - Blood4Fame ----------------
#NOTES:
     dance-single:
     Blood4Fame:
     Easy:
     3:
     0,0,0,0,0:
0000
0000
0000
0000
,
0000
0000
0000
0000
,
0000
0000
0000
0000
,
0000
0000
0000
0000
0000
0000
0000
1000
,
0002
0000
0000
0000
0023
0000
0000
0130
,
0020
0000
0000
0000
2030
0000
0000
3100
,
0002
0000
0023
0000
,
0230
0000
0000
0000
,
1300
0000
0000
1000
0000
0000
1000
0000
,
0001
0000
0000
0001
0000
0000
0001
0000
,
0100
0000
0000
0100
0000
0000
0100
0000
,
0010
0000
0000
0010
0000
0000
0010
0000
,
1000
0000
0000
1000
0000
0000
0001
0000
,
0001
0000
0000
1000
0000
0000
0100
0000
,
0100
0000
0010
0000
,
0001
0000
0100
0000
,
0010
0000
0000
0010
0000
0000
0010
0000
,
1000
0000
0000
1000
0000
0000
1000
0000
,
0001
0000
0000
0001
0000
0000
0001
0000
,
0010
0000
0000
0010
0000
0000
0010
0000
,
0100
0000
0000
0100
0000
0000
0100
0000
,
0001
0000
0000
0001
0000
0000
0001
0000
,
0100
0000
0100
0000
0100
0000
0000
0010
,
0000
0010
0000
0010
0000
0000
1000
0000
,
1000
0000
1000
0000
0000
0100
0000
0100
,
0000
0100
0000
0000
0010
0000
0000
0010
,
0000
0000
0010
0000
0001
0000
0000
0001
,
0000
0000
0001
0000
0100
0000
0000
0100
,
0000
0000
0100
0000
0010
0000
0000
0010
,
0000
0000
0010
0000
1000
0000
0000
1000
,
0000
0000
1000
0000
0100
0000
0000
0100
,
0000
0000
0100
0000
1000
0000
0000
1000
,
0000
0000
1000
0000
0001
0000
0000
0001
,
0000
0000
0001
0000
0010
0000
0000
0010
,
0000
0000
0010
0000
0001
0000
0000
0001
,
0000
0000
0001
0000
0100
0000
0000
0100
,
0000
0000
0100
0000
0010
0000
0000
0010
,
0000
0000
0010
0000
1000
0000
0000
1000
,
0000
0000
1000
0000
0100
0000
0000
0100
,
0000
0000
0100
0000
0010
0000
0000
0010
,
0000
0000
0010
0000
0001
0000
0000
0001
,
0000
0000
0001
0000
0100
0000
0000
0010
,
0000
1000
0000
0100
0000
0000
0000
0010
,
0000
0001
0000
0100
0000
0000
0000
0010
,
0000
1000
0000
0100
0000
0000
0000
0010
,
0000
0001
0000
0000
0100
0000
0100
0000
,
0100
0000
0010
0010
,
0010
0000
1000
1000
,
1000
0000
0001
0001
,
0001
0001
0010
0000
,
0010
0000
0100
0000
,
0100
0000
0010
0000
,
0000
0001
1000
1000
,
0100
0001
0010
0000
,
0010
0000
0100
0000
,
0100
0000
0001
0000
,
0001
0000
1000
0000
,
1000
0000
0010
0010
,
0010
0000
0100
0100
,
0100
0000
0001
0001
,
0001
1000
0100
0010
,
0001
0100
0010
0000
,
0010
0000
0001
0000
,
0100
0000
0010
0000
,
1000
0000
0100
0000
,
1000
0010
0100
0000
,
0001
0000
0010
0100
,
1000
0000
0010
0010
,
0010
0000
0000
0100
0000
0100
0000
0100
,
0000
0001
0001
0001
,
0000
1000
0000
1000
0000
1000
0000
0000
;

//--------------- dance-single - Blood4Fame ----------------
#NOTES:
     dance-single:
     Blood4Fame:
     Medium:
     6:
     0,0,0,0,0:
0000
0000
0000
0000
,
0000
0000
0000
0000
,
1000
0000
0001
0000
0010
0010
0000
0000
1000
0000
0010
0000
0100
0001
1000
0000
,
1000
0100
0001
0100
1000
0100
0001
0100
,
0020
0000
0000
0000
0000
0000
0000
0000
0032
0000
0000
0003
1010
0000
0100
0000
,
0020
0000
0000
0000
0000
0030
0010
0000
2000
0000
3000
0000
0110
0000
0000
0000
,
0002
0000
0000
0000
0000
0000
0000
0003
2000
0000
0000
0000
0000
0000
3100
0000
,
0002
0003
0001
0010
0100
0010
0001
0100
,
0020
0000
0000
0000
,
1030
0000
0000
0000
0100
0000
0000
0100
0000
0000
0100
0000
0010
0000
0000
0000
,
0020
0000
0000
0000
,
0032
0000
0000
0000
0103
0000
0000
0000
0100
0000
0001
0000
0020
0030
0000
0000
,
0100
0000
0000
0010
0000
0000
0011
0000
,
0011
0000
0000
0000
0100
0010
0100
0000
,
0100
0000
0110
0000
0001
0000
0001
0100
,
0000
0010
1000
0000
0010
1000
1000
0100
,
0020
0000
0000
0000
,
0031
0010
0100
0000
0010
0000
0001
1000
,
0200
0000
0000
0000
,
0310
0001
0100
0000
1000
0000
0001
0000
,
1010
0000
0000
1100
0000
0000
0011
0000
,
0200
0000
0320
0000
,
2000
0000
0000
3030
1010
0000
0000
0001
,
0001
0100
0100
0010
0000
0000
1000
1000
,
1000
0100
0100
0000
0000
0100
0100
0100
,
1000
1000
0000
0000
1100
0000
0000
1100
,
0000
0000
0001
0100
0000
0000
0010
0000
,
0000
0000
1000
0010
0100
0000
0000
0110
,
0000
0000
0001
0010
0001
0000
0000
0011
,
0000
0000
0100
0010
1000
0000
0000
1010
,
0000
0000
0100
0010
1000
0000
0000
1100
,
0000
0000
0100
0010
0001
0000
0000
1001
,
0000
0000
0010
1000
0100
0000
0000
1001
,
0000
0000
0100
0010
1000
0000
2000
0000
,
3000
1000
0020
0000
0030
0010
0010
0000
,
0100
0010
1000
0000
0010
0000
0000
0110
,
0000
0000
0010
0100
0010
0000
0000
0110
,
0000
0000
0010
0001
1000
0000
0000
1001
,
0000
0000
0010
0001
0100
0000
0000
1001
,
0000
0000
0010
1000
0100
0000
0000
0001
,
0000
0000
0010
0100
0001
0000
0000
1001
,
0000
1001
0000
0000
0020
0000
0000
0000
,
0000
0000
1030
0000
0000
0000
0200
0000
0000
0000
0000
0000
0000
0310
0000
0000
,
0000
0000
0001
0000
0100
0000
0000
0000
1000
0000
0000
0100
0010
0000
1000
0000
,
0000
0100
0010
0000
0001
0000
0000
0000
0010
0000
0001
0000
0100
0000
0000
0000
,
0100
0000
0002
0000
0000
0000
0000
0000
0103
0000
0000
1000
0100
0000
0010
0000
,
0000
0000
0010
0000
0100
0000
0010
0000
0000
0000
0000
1000
0010
0000
0100
0000
,
0000
1000
0010
0100
0000
0000
2000
0000
,
0000
3002
0000
0203
0000
0000
0300
0000
,
0010
1000
0000
0100
0000
0011
0000
0011
,
0000
0110
0000
0110
0000
1100
0000
1100
,
0000
1010
0000
2020
0000
0000
0000
0000
,
0000
0000
3030
0000
1001
0000
0000
0000
0100
0000
0000
0010
0000
0000
1000
0000
,
0100
0000
0110
0000
1001
0000
0000
1001
,
0000
0000
1010
0000
0000
0000
0110
0000
0000
0000
0001
0000
1000
0000
0000
0010
,
0000
1000
0100
0010
0100
0100
0010
0010
,
0000
0000
0001
0000
0000
0000
0002
0000
0000
0000
0000
1003
0100
0000
0020
0000
,
0000
0031
0100
0000
1000
1000
0000
0010
,
0000
1000
0000
0000
0010
0000
0100
0000
0001
0000
0001
0000
0000
0000
0010
0000
,
0000
0100
0000
0000
1000
0000
0200
0000
0010
0000
0000
0000
0000
0000
0000
0000
,
0310
0000
0000
0001
0000
0000
1000
0000
,
0100
0010
0000
0000
0000
0000
0000
0000
0110
0000
0000
0000
0000
0000
1001
0000
,
0000
1010
0000
0110
0000
0001
0000
0000
,
0010
0100
0000
0000
0002
1000
0000
0100
,
0000
1000
0000
0100
0000
2000
0000
0000
,
3003
0000
0100
0020
0000
0031
0000
0200
,
0000
0320
0000
0030
0000
1000
0000
0200
,
0000
0320
0030
0000
1000
1000
0100
0100
,
0100
0000
0000
0001
0001
0100
0100
0100
,
0000
0000
1000
1000
0100
0100
0100
0000
,
0000
1000
0010
0100
0001
0010
0110
0000
;

//--------------- dance-single - Blood4Fame ----------------
#NOTES:
     dance-single:
     Blood4Fame:
     Hard:
     9:
     0,0,0,0,0:
0000
0000
0000
0000
,
0000
0000
0000
0000
,
1000
0001
0001
0100
0010
0010
0000
0000
1000
0100
0010
0010
0100
1000
1000
0000
,
1000
0001
0100
1000
0100
0001
0010
0100
1000
0100
0001
0100
1000
0010
1000
0100
,
0020
0000
0000
0000
0000
0000
0000
0000
0000
0000
0000
0000
0000
0000
0000
0000
0032
0000
0000
0000
0000
0000
1003
0100
0010
0000
0000
0000
0000
0000
1000
0000
,
0020
0000
0000
0000
0000
0030
0010
0100
0002
0000
0000
0003
0011
0000
0000
1000
,
0002
0000
0000
0000
0000
0000
0000
0000
0000
0000
0000
0000
0000
0000
0013
0100
2000
0000
0000
0000
0000
0000
0000
0000
0000
0000
0000
0000
3100
0000
0010
0000
,
0002
0000
0003
0000
0001
0010
0100
1000
0100
0010
0100
1000
0100
0001
0100
1000
,
0020
0000
0000
0000
,
1030
0000
0010
0000
0100
0000
0001
0100
0000
0001
0100
0000
0010
0000
1000
0000
,
0020
0000
0000
0000
,
2030
0000
0000
0000
3100
0000
1000
0000
0100
0000
0010
0001
0000
0010
0001
0000
,
0100
0000
0000
1010
0000
0000
1100
0000
,
0011
0000
0001
0100
0000
0010
1000
0000
0100
0000
0010
0000
0100
0000
0001
0000
,
0100
1000
0110
0000
0001
0010
0001
0100
,
0000
0000
0010
0000
1000
0000
0001
0000
0010
0100
1000
0000
1000
0010
0100
0000
,
0020
0000
0000
0000
,
1030
0000
0010
0000
0100
0000
0001
0000
0010
0001
0000
0100
0001
0000
1000
0000
,
0200
0000
0000
0000
,
0310
0000
0001
0000
0100
0000
0010
0000
1000
0100
0000
0010
0001
0000
0100
0000
,
1010
0000
0000
1100
0000
0000
0011
0000
,
0200
0000
0320
0000
,
2000
0000
0000
0000
0000
0000
3030
0000
1010
0000
0000
0000
0000
0000
0001
0010
,
0001
0000
0100
0010
0100
0000
1000
0000
0000
0000
0000
0000
1000
0100
1000
0100
,
1000
0001
0100
0001
0100
0000
0000
0000
0000
0000
0100
0010
0100
0010
0100
0001
,
1000
0001
1000
0000
0000
0000
0000
0000
1100
0000
0000
0000
0000
0000
1100
0000
,
0000
0010
0001
0100
0000
0100
0010
1000
,
0000
0010
1000
0010
0100
0000
0000
0110
,
0000
0000
0001
0010
0001
0000
0000
0011
,
0000
0000
0100
0010
1000
0000
0000
1010
,
0000
0000
0100
0010
1000
0000
0000
1100
,
0000
0000
0100
0010
0001
0000
0000
1001
,
0000
0100
0010
1000
0100
0000
0000
1001
,
0000
0000
0100
0010
0001
0000
2000
0000
,
3000
0000
1000
0100
0020
0000
0000
0000
0030
0000
0010
0001
0010
0000
0001
0000
,
0100
0010
1000
0100
0010
0000
0000
0110
,
0000
0001
0010
0100
0010
0000
0000
0110
,
0000
0000
0010
0001
1000
0000
0000
1001
,
0000
0010
0010
0001
0100
0000
0000
1001
,
0000
0100
0010
1000
0100
0000
0000
0001
,
0001
0100
0010
0100
0001
0000
0000
1001
,
0000
1001
0000
1001
0020
0000
0000
0000
,
0000
0000
1030
0000
0000
0000
0200
0000
0000
0000
0000
0000
0000
0310
0000
0000
,
0000
0000
0001
0000
0100
0010
0000
0000
1000
0000
0000
0100
0010
0000
0001
0000
,
0000
0100
0010
0000
1000
0000
0100
0000
0010
0000
0001
0000
0100
0000
0010
0000
,
0100
0000
1000
0100
0000
0010
0000
1000
0100
0000
0000
1000
0100
0000
0010
0000
,
0001
0000
0010
0000
0100
0000
0010
0000
0001
0000
0000
1000
0010
0000
0100
0000
,
0001
1000
0010
0100
0010
0000
2000
0100
,
0000
3002
0000
0203
0000
0000
0300
0000
,
0010
0100
0010
0000
1000
0000
0100
0000
0010
0000
0011
0000
0000
0000
0011
0000
,
0000
0110
0000
0110
0000
1100
0000
1100
,
0000
1010
0000
2020
0000
0000
0000
0000
,
0000
0000
3030
0000
1001
0000
0000
0000
0100
0000
0000
0010
0000
0000
1000
0000
,
0100
0000
0110
0000
1001
0000
0000
1001
,
0000
0000
1010
0000
0000
0000
0110
0000
0000
0000
0001
0000
1000
0100
0000
0010
,
0000
0001
0100
0010
0100
0100
0010
0010
,
1000
0000
0001
0000
0010
0000
0002
0000
0000
0000
0000
1003
0100
0000
0020
0000
,
0000
0031
0100
0010
1000
1000
0010
0010
,
0000
1000
0000
0000
0010
0000
0100
0000
0001
0000
0001
0000
0010
0000
0010
0000
,
0000
0100
0000
0000
1000
0000
0200
0000
0010
0000
0000
0000
0000
0000
0000
0000
,
0310
0001
0100
0010
0000
0000
1000
1000
,
0100
0010
0000
0001
0000
0100
0000
0010
1000
0000
0000
0000
0000
0000
1001
0000
,
0000
1010
0000
0110
0000
0001
0000
0000
,
0010
0100
0000
0000
0002
1000
0000
0100
,
0000
1000
0000
0100
0000
2000
0000
0000
,
3003
0000
0100
0020
0000
0031
0000
0200
,
0000
0320
0000
0030
0000
1000
0000
0200
,
0000
0000
0320
0000
0030
0000
0000
0000
1000
0010
1000
0010
1000
0100
1000
0100
,
1000
0000
0000
0000
0000
0000
0001
0010
0001
0010
0001
0100
0001
0100
0001
0000
,
0000
0000
0100
0010
1000
0010
1000
0010
1000
0100
1000
0100
1000
0000
0000
0000
,
0000
0000
1000
0100
0010
0001
0100
0010
1000
0100
0010
0000
0110
0000
0000
0000
;
