#TITLE:NB Ranger;
#SUBTITLE:POWER;
#ARTIST:NieN;
#TITLETRANSLIT:;
#SUBTITLETRANSLIT:;
#ARTISTTRANSLIT:;
#GENRE:Rock;
#CREDIT:Blood4Fame;
#MUSIC:music.mp3;
#BANNER:banner.png;
#BACKGROUND:bg.png;
#CDTITLE:;
#SAMPLESTART:0.000;
#SAMPLELENGTH:0.000;
#SELECTABLE:YES;
#OFFSET:-2.926;
#BPMS:0.000=185.000;
#STOPS:;
#BGCHANGES:-7.826=video.mp4=1.000=1=0=1===CrossFade==,
99999.000=-nosongbg-=1.000=0=0=0=StretchNoLoop====;
#FGCHANGES:;

//--------------- dance-single - Blood4Fame ----------------
#NOTES:
     dance-single:
     Blood4Fame:
     Beginner:
     2:
     0,0,0,0,0:
0000
0000
0000
0000
,
0000
0000
0000
0000
,
0000
0000
0000
0000
,
0000
0000
0000
0000
,
0000
0000
0000
0000
0000
0000
0000
0010
,
0000
0000
0000
0000
0000
0000
0000
0100
,
0000
0000
0000
0000
0000
0000
0000
1000
,
0000
0000
0000
0000
0000
0000
0000
0010
,
0000
0000
0000
0000
0000
0000
0000
0100
,
0000
0100
0000
0100
,
0000
0000
0100
0000
0000
0000
0000
0010
,
0000
0000
0010
0000
0000
0000
0000
0010
,
0000
0000
0000
0000
0000
0000
0000
0001
,
0000
0000
0000
0000
0000
0000
0000
0001
,
0000
0000
0000
0000
0000
0000
0000
1000
,
0000
0000
0000
0000
0000
0000
0000
1000
,
0000
0000
0000
0000
0000
0000
0000
0100
,
0000
0000
0000
0000
0000
0000
0000
0010
,
0000
0000
0000
0000
0000
0000
0000
0100
,
0000
0000
0000
0000
0000
0000
0000
0100
,
0000
0000
0000
0000
0000
0000
0000
0010
,
0000
0000
0000
0000
0000
0000
0000
0010
,
0000
0000
0000
0000
0000
0000
0000
0001
,
0000
0000
0000
0000
0000
0000
0000
1000
,
0000
0000
0000
0000
0000
0000
0000
0100
,
0000
0000
0000
0000
,
0010
0000
0000
0000
0100
0000
0000
0001
,
0000
0000
0000
0001
,
0000
0000
0000
0000
0000
1000
0000
0100
,
0000
0000
0000
0000
0000
0000
0000
0100
,
0000
0000
0000
0000
0000
0000
0000
0001
,
0000
0000
1000
0000
0000
0100
0000
0000
,
1000
0000
0000
0100
0000
0000
0000
1000
,
0000
0000
0010
0000
0000
0100
0000
0000
,
0010
0000
0000
0100
0000
0000
0000
0010
,
0000
0000
0000
0000
0000
0000
0000
1000
,
0000
0000
0000
0000
0000
0000
0000
0100
,
0000
0000
0000
0000
0000
0000
0000
0100
,
0000
0000
0000
0000
0000
0000
0000
0010
,
0000
0000
0000
0010
0000
0000
0000
0010
,
0000
0000
0000
0001
0000
0000
0000
0001
,
0000
0000
0000
0001
0000
0000
0000
0100
,
0000
0000
0000
0000
0000
0000
0000
0010
,
0000
0000
0000
0000
0000
0000
0000
1000
,
0000
0000
0000
0000
0000
0100
0000
0100
,
0000
0000
0000
0000
0000
0010
0000
0010
,
0000
0000
0000
0000
0000
1000
0000
1000
,
0000
0000
0000
0000
0000
0000
0000
0001
,
0000
0000
0000
0000
0000
0000
0000
0100
,
0000
0000
0000
0000
0000
0010
0000
0010
,
0000
0000
0000
0000
0000
0001
0000
0001
,
0000
0000
0000
0000
0000
0000
0000
0010
,
0000
0000
0000
0000
0000
0000
0000
1000
,
0000
0000
0000
0000
0000
0100
0000
0100
,
0000
0000
0000
0000
0000
1000
0000
1000
,
0000
0000
0000
0000
0000
0000
0000
0001
,
0000
0000
0100
0000
,
0001
0000
0000
0010
,
0000
0000
0000
0000
1000
0000
0000
0100
,
0000
0000
0000
0000
0000
0000
0000
0010
,
0000
0000
0000
0000
0000
0000
0000
0100
,
0000
0000
0000
0000
0000
0000
0000
0010
,
0000
0000
0000
0000
0000
0000
0000
0001
,
0000
0000
0000
0000
,
0000
0000
0000
0000
,
0000
0000
0000
0000
,
0000
0000
0000
0000
,
0000
0000
0000
0000
,
0000
0000
0000
0000
0000
0000
0000
1000
,
0000
1000
0000
0000
0000
0000
0000
0001
,
0000
0001
0000
0000
0000
0000
0000
0100
,
0000
0000
0000
0000
0000
0000
0000
0010
,
0000
0000
0000
0000
0000
0000
0000
0100
,
0000
0000
0000
0000
0000
0000
0000
0001
,
0000
0000
0000
0000
0000
0001
0000
1000
,
0000
0000
0000
0000
0000
0000
0000
1000
,
0000
0000
0000
0000
0000
0000
0000
0100
,
0000
0000
0000
0000
0000
0000
0000
0010
,
0000
0000
0000
0000
0000
0010
0000
1000
,
0000
0000
0000
0000
0000
0010
0000
1000
,
0000
0000
0000
0000
0000
0010
0000
1000
,
0000
0000
0000
0000
0000
0100
0000
1000
,
0000
0000
0000
0000
0000
0100
0000
1000
,
0000
0000
0000
0000
0000
0000
0000
1000
,
0000
0000
0000
0000
,
0100
0000
0000
0100
0000
0000
0100
0000
,
0000
0010
0000
0000
0010
0000
0000
0010
,
0000
0000
0000
0000
,
0100
0000
0000
0000
0000
0000
0000
0010
,
0000
0000
0010
0000
0000
0010
0000
0000
,
0010
0000
0000
0010
0000
0000
0100
0000
,
0000
0000
0000
0010
0000
0000
0000
0000
;

//--------------- dance-single - Blood4Fame ----------------
#NOTES:
     dance-single:
     Blood4Fame:
     Easy:
     3:
     0,0,0,0,0:
0000
0000
0000
0000
,
0000
0000
0000
0000
,
0000
0000
0000
0000
,
0000
0000
0000
0000
,
0000
0000
0000
0000
0000
0000
0000
1000
,
0000
0000
0100
0000
0000
0010
0000
0001
,
0000
0000
0100
0000
0000
0010
0000
1000
,
0000
0000
0100
0000
0000
0010
0000
0001
,
0000
0000
0100
0000
0000
0010
0000
0100
,
0000
0000
0010
0000
0000
0010
0000
0010
,
0000
0000
0010
0000
0000
0010
0000
0010
,
0000
0000
1000
0000
0000
0000
0000
1100
,
0000
0000
0000
0000
0000
0000
0000
0001
,
0000
0100
0000
0100
,
0000
0000
0100
0000
0000
0000
0100
0001
,
0000
0100
0000
0100
,
0000
0000
0100
0000
0000
0100
0000
0010
,
0000
0000
0100
0000
0000
0100
0000
1000
,
0000
0000
0100
0000
0000
0100
0000
0001
,
0000
0100
0000
0100
,
0000
0000
0010
0000
0000
0010
0000
1000
,
0000
1000
0000
1000
,
0000
0000
0001
0000
0000
0001
0000
0100
,
0000
0000
0000
0000
0100
0000
0000
0010
,
0000
0000
0000
0000
0010
0000
0000
1000
,
0000
0000
1000
0000
0000
1000
0000
0000
,
1000
0000
0000
1000
0000
0100
0000
0010
,
0000
0001
0000
0001
,
0000
0000
0001
0000
0000
0001
0000
0010
,
0000
0100
0000
0100
,
0000
0000
0100
0000
0000
0010
0000
1000
,
0000
1001
0000
0000
,
0110
0000
0000
0000
0000
0000
0000
1100
,
0000
0000
0000
0000
0000
0101
0000
0000
,
0000
0000
0011
0000
0000
0100
0000
0010
,
0000
0010
0000
0010
,
0000
0000
1000
0000
0000
1000
0000
0001
,
0000
0001
0000
0001
,
0000
0000
0100
0000
0000
0010
0000
1000
,
0000
0010
0000
1000
0000
0010
0000
1000
,
0000
0010
0000
1000
0000
0100
0000
1000
,
0000
0100
0000
1000
0000
0100
0000
0001
,
0000
0000
0000
0000
0000
0000
0000
0010
,
0000
1000
0000
1000
,
0000
0000
0001
0000
0000
0001
0000
0100
,
0000
0000
0010
0000
0000
1000
0000
0100
,
0000
0000
0010
0000
0000
0001
0000
0100
,
0000
0100
0000
0010
,
0000
0000
0010
0000
0000
0010
0000
1000
,
0000
0000
0100
0000
0000
0100
0000
1000
,
0000
0000
0001
0000
0000
0100
0000
0001
,
0000
0001
0000
0100
,
0000
0000
0010
0000
0000
1000
0000
0100
,
0000
0000
0010
0000
0000
0010
0000
0100
,
0000
0000
1000
0000
0000
0100
0000
0001
,
0000
0100
0000
0000
,
1000
0000
0001
0000
,
0010
0000
0000
1000
0000
0000
0100
0000
,
0000
0010
0000
0000
0001
0000
0000
0200
,
0000
0000
0000
0000
,
0000
0000
0000
0300
0000
0000
0000
0020
,
0000
0000
0000
0000
0030
0000
0000
2000
,
0000
0000
0000
0000
3000
0000
0000
0200
,
0000
0000
0000
0000
0300
0000
0000
2000
,
0000
0000
0000
3000
0000
0000
0000
0002
,
0000
0000
0000
0003
0000
0000
0000
0020
,
0000
0030
0000
0000
0010
0000
0000
0000
,
0001
0000
0100
0000
,
0010
0000
0000
0000
0001
0000
0000
0100
,
0000
0000
0100
0000
0000
0000
0000
0100
,
0000
0000
0100
0000
0000
0000
0000
0011
,
0000
0000
0000
0000
0000
0000
0000
1100
,
0000
0000
0000
0000
0000
0000
0000
1010
,
0000
0000
0000
0000
0000
0000
0000
1100
,
0000
0000
0000
0000
0000
0000
0000
0011
,
0000
0000
0000
0000
0000
0000
0000
0101
,
0000
0000
0000
0000
0000
0000
0000
0011
,
0000
0000
0000
0000
0000
0000
0000
1100
,
0000
0000
0000
0000
0000
0000
0000
0010
,
0000
0000
0000
0010
0000
0000
0000
0100
,
0000
0000
0000
0100
0000
0000
0000
0010
,
0000
0000
0000
0010
0000
0000
0000
1000
,
0000
0000
0000
1000
0000
0000
0000
0001
,
0000
0000
0000
0000
,
0000
0000
0000
0000
,
1000
0000
0000
0100
0000
0000
0010
0000
,
0000
0001
0000
0000
0100
0000
0000
0020
,
0000
0000
0000
0000
,
0000
0000
0000
0030
0000
0000
0000
0100
,
0000
0000
1000
0000
0000
0100
0000
0000
,
0010
0000
0000
0001
0000
0001
0200
0000
,
0300
0000
0000
0110
0000
0000
0000
0000
;

//--------------- dance-single - Blood4Fame ----------------
#NOTES:
     dance-single:
     Blood4Fame:
     Medium:
     7:
     0,0,0,0,0:
0000
0000
0000
0000
,
0000
0000
0000
0000
,
0000
0000
0000
0000
,
0000
0000
0000
0000
,
0000
0000
0000
0000
0000
0000
0000
1001
,
0000
0000
0100
0000
0100
0000
0000
0011
,
0000
0000
0010
0000
0010
0000
0000
1100
,
0000
0000
1000
0000
0010
0100
0010
0000
,
0000
0000
0100
0000
1000
0100
1000
0000
,
0000
0010
0001
0000
0010
0000
0000
0001
,
0000
1000
0100
0000
0001
0100
0000
1000
,
0000
0001
1000
0001
0010
0000
1000
0200
,
0000
0000
0000
0000
0000
0000
0300
0110
,
0000
0000
0010
0000
0001
0010
0000
0010
,
0000
0000
0010
0000
0000
0100
0010
0001
,
0000
0000
0001
0000
1000
0100
1000
0000
,
0000
0010
0100
0000
0001
0100
0000
0200
,
0000
0000
0300
0000
1000
0100
0000
0002
,
0000
0000
0003
0000
0001
0100
0000
2000
,
0000
0000
3000
0000
0010
0100
0010
0000
,
0001
0100
0001
0000
1000
0010
1000
0200
,
0000
0000
0300
0000
1000
0100
1000
0000
,
0010
0100
0010
0000
1000
0100
0000
0002
,
0000
0000
0003
0000
0100
0010
0000
0200
,
0000
0000
0300
0000
1000
0100
0000
0002
,
0000
0000
0003
0000
0000
0100
0000
0000
,
0100
0000
0000
1000
0001
0000
0000
1000
,
0000
0000
1000
0000
1000
0100
0010
0000
,
0001
0000
1000
0000
0010
1000
0000
1000
,
0000
1000
0001
0000
0100
0010
0000
0100
,
0000
0100
0010
0000
0010
1000
0000
1000
,
0000
0001
0200
0000
0310
0200
0000
0310
,
2000
0000
3100
0020
0000
0031
0000
0020
,
0000
1030
0200
0000
1300
0200
0000
1300
,
0002
0000
0103
0000
1000
0000
0010
0200
,
0000
0000
1300
0100
0010
0000
0010
0100
,
0001
0000
0001
0100
0010
0000
0010
2000
,
0000
0000
3001
0100
0010
0000
0010
1000
,
0100
0000
0100
1000
0010
0000
0000
0010
,
0000
0200
0300
0010
0000
0200
0300
0010
,
0000
0200
0300
0010
0000
0200
0300
0010
,
0000
0200
0300
0020
0230
0302
0003
0020
,
0000
0000
0000
0000
0000
0000
0000
0031
,
0000
0100
0001
0000
1000
0100
0010
0000
,
0001
0000
0100
0000
0001
0100
0000
2000
,
0000
3001
0100
0000
0010
0001
0000
0020
,
0000
1030
0100
0000
1000
0100
0000
0200
,
0000
1300
0100
0000
0100
0010
0100
0000
,
0001
0100
0001
0000
1000
0100
0000
0002
,
0000
1003
0100
0000
0001
0010
0000
2000
,
0000
3001
0100
0000
0100
0010
0000
0100
,
0000
0100
0010
0000
0001
1000
0000
0010
,
0000
0001
0100
0000
1000
0100
0000
0120
,
0000
0000
0030
0000
0010
0001
0000
0002
,
0000
0000
0003
0000
0100
0000
0001
0001
,
0000
0000
0010
0000
1000
0000
0000
0100
,
0000
0010
0000
0002
0000
0003
0000
0000
,
0100
0000
0100
0010
0000
0010
2000
0000
,
0000
0000
0000
0000
0000
0000
0000
3020
,
0000
0000
0000
0000
0000
0000
0030
0110
,
0000
0000
1000
0000
0100
0010
0000
0002
,
0000
0000
0013
0000
0010
0100
0000
0020
,
0000
0030
0000
0000
0100
0010
0000
0002
,
0000
0003
0000
0000
0010
0100
0000
1000
,
0000
1000
0200
0000
0310
0001
0000
0200
,
0000
0000
0000
0000
0000
0000
0320
0000
0000
0030
0000
0000
0010
0000
0000
1000
0000
0000
0000
0000
0100
0000
0000
0000
,
0010
0000
0000
0000
1000
0000
0010
0000
0100
0000
0001
0000
,
1000
0000
0000
0000
0100
0000
0010
0000
0000
0000
0100
0000
,
1000
0000
0000
1000
0100
0010
0001
0010
,
0000
0010
0001
0000
0000
0000
0000
0100
,
0000
0001
0100
0000
0000
0000
0000
0220
,
0000
0000
0000
0000
0000
0330
1000
0200
,
0000
0000
0000
0000
0300
0000
0001
0010
,
0000
0000
0001
0000
0100
0000
0010
1000
,
0000
0010
0000
0100
0000
1000
0000
0200
,
0000
0000
0000
0000
0300
0100
1000
0200
,
0000
0000
0000
0000
0300
0100
0010
0002
,
0000
0023
0000
0230
0000
2300
0000
3002
,
0000
0013
0100
0000
1000
0100
0000
0002
,
0000
0000
0103
0000
0010
0100
0000
2010
,
0000
0000
3000
0000
0100
0001
0000
0102
,
0000
0000
0003
0000
0010
0001
0000
0210
,
0000
0300
0000
0000
0100
0000
0010
0010
,
0000
1000
0010
0000
0001
0010
0100
0000
,
0100
0010
0001
0000
0010
1000
0100
0000
,
0001
0000
0010
1000
0000
0010
1000
0000
,
1000
0010
0000
0001
0010
0000
0100
0002
,
0000
0000
0000
1003
0001
0100
0000
0010
,
0000
1000
0100
0000
0010
0001
0000
0020
,
0000
0130
0020
0000
0130
0020
0000
0130
,
0020
0000
0130
0020
0000
2030
0002
0000
,
0000
0000
3003
1001
0000
0000
0000
0000
;

//--------------- dance-single - Blood4Fame ----------------
#NOTES:
     dance-single:
     Blood4Fame:
     Hard:
     9:
     0,0,0,0,0:
0000
0000
0000
0000
,
0000
0000
0000
0000
,
0000
0000
0000
0000
,
0000
0000
0000
0000
,
0000
0000
0000
0000
0000
0000
0000
1001
,
0000
0000
0100
0000
0100
0010
0000
0011
,
0000
0000
0010
0000
0010
0100
0000
1100
,
0000
0000
1000
0000
0010
0100
0010
1000
,
0000
0000
0100
0000
1000
0100
1000
0100
,
0000
0010
0001
0100
0010
1000
0000
0001
,
0000
1000
0100
0010
0001
0100
0010
1000
,
0000
0001
1000
0001
0010
0100
1000
0200
,
0000
0000
0000
0000
0000
0000
0300
0110
,
0000
0000
0010
0000
0001
0100
0010
1000
,
0000
0100
0010
0001
0000
0100
0010
1000
,
0000
0001
0100
0000
1000
0100
1000
0010
,
0000
0010
0100
0000
0001
0100
1000
0200
,
0000
0010
0310
0000
1000
0100
0010
0002
,
0000
0100
0103
0000
0001
0100
0010
2000
,
0000
0010
3010
0000
0010
0100
0010
0000
,
0001
0100
0001
0000
1000
0010
1000
0200
,
0000
1000
1300
0000
1000
0100
1000
0000
,
0010
0100
0010
0000
1000
0100
0010
0002
,
0000
0010
0013
0000
0100
0010
0001
0200
,
0000
0010
0310
0000
1000
0100
0010
0002
,
0000
1000
1003
0000
0010
0100
0000
0010
,
0100
0000
1000
0000
0001
0010
0100
1000
,
0000
1000
1000
0000
1000
0100
0010
0000
,
0001
0100
0000
0000
0010
1000
0100
1000
,
0000
1000
1000
0000
0100
0010
0001
0100
,
0000
0100
0010
0000
0010
1000
0100
1000
,
0000
0001
0200
0000
0310
0200
0000
0310
,
2000
0000
3100
0020
0000
0031
0100
0020
,
0000
1030
0200
0000
1300
0200
0000
1300
,
0002
0000
0103
0010
1000
0100
0010
0200
,
0000
0000
1300
0100
0010
0000
0010
0100
,
0001
0000
0001
0100
0010
0000
0010
2000
,
0000
0000
3001
0100
0010
0000
0010
1000
,
0100
0000
0100
1000
0010
0200
0302
0013
,
0000
0200
2300
3010
0000
0200
0302
0013
,
0000
0200
2300
3010
0000
0200
0302
0013
,
0000
0200
2300
3020
0230
0302
0003
0020
,
0000
0000
0000
0000
0000
0000
0000
0031
,
0000
0100
0001
0000
1000
0100
0010
0000
,
0001
0000
0100
0000
0001
0100
0010
2000
,
0000
3001
0100
0000
0010
0001
0100
0020
,
0000
1030
0100
0000
1000
0100
0010
0200
,
0000
1300
0100
0000
0100
0010
0100
0000
,
0001
0100
0001
0000
1000
0100
0010
0002
,
0000
1003
0100
0000
0001
0010
0100
2000
,
0000
3001
0100
0000
0100
0010
1000
0100
,
0000
0100
0010
0001
0000
1000
0100
0010
,
0000
0001
0100
0010
1000
0100
0000
0120
,
0000
0100
0130
0000
0010
0001
0100
0002
,
0000
1000
1003
0000
0100
0010
0001
0001
,
0000
0000
0110
0000
0011
0000
1000
0100
,
0000
0010
0000
0002
0000
0003
0000
1000
,
0100
0000
0100
0010
0000
0010
0001
0200
,
0000
0000
0000
0000
0000
0000
0300
0020
,
0000
0000
0000
0000
0000
0000
0030
0110
,
0000
0000
1000
0000
0100
0010
0000
0002
,
0000
0000
0013
0000
0010
0100
0000
0020
,
0000
0030
0000
0000
0100
0010
0000
0002
,
0000
0003
0000
0000
0010
0100
0000
1000
,
0000
1000
0200
0000
0310
0001
0000
0200
,
0000
0000
0000
0000
0000
0000
0320
0000
0000
0030
0000
0000
0010
0000
0000
1000
0000
0000
0000
0000
0100
0000
0010
0000
,
0100
1000
0010
0100
0001
1000
0001
0100
0010
1000
0100
1000
,
0100
0010
0000
0000
0010
0000
0001
0100
0001
0010
0000
0000
,
0011
0000
0000
1000
0100
0010
0001
0010
,
0000
0010
0001
0000
0000
0000
0000
0101
,
0000
0001
0100
0000
0000
0000
0000
0220
,
0000
0000
0000
0000
0000
0330
1000
0200
,
0000
0000
0000
0000
0300
0000
0001
0020
,
0000
0000
0001
0000
0130
0000
0010
0001
,
0000
0010
0000
0100
0000
1000
0000
0200
,
0000
0000
0000
0000
0300
0100
1000
0200
,
0000
0000
0000
0000
0300
0100
0010
0002
,
0000
0023
0000
0230
0000
2300
0000
3002
,
0000
0013
0100
0000
1000
0100
0010
0002
,
0000
0000
0103
0000
0010
0100
0000
2010
,
0000
0000
3010
0000
0100
0001
0000
0102
,
0000
0000
0013
0000
0010
0001
0000
0210
,
0000
0310
0100
0000
0100
1000
0010
0110
,
0000
1000
0010
0100
0001
0010
0100
1000
,
0100
0010
0001
0100
0010
1000
0100
0010
,
0001
0100
0010
1000
0100
0010
1000
0100
,
1000
0010
1000
0001
0010
0001
0100
0002
,
0000
0000
0000
1003
0001
0100
0000
0010
,
0000
1000
0100
0010
0010
0001
1000
0020
,
0000
0130
0020
0000
0130
0020
0000
0130
,
0020
0000
0130
0020
0000
2030
0002
0000
,
0000
0000
3003
1001
0000
0000
0000
0000
;
