#TITLE:Mellow D Fantasy;
#SUBTITLE:;
#ARTIST:NieN;
#TITLETRANSLIT:;
#SUBTITLETRANSLIT:;
#ARTISTTRANSLIT:;
#GENRE:J/K-Pop;
#CREDIT:Blood4Fame;
#MUSIC:Mellow D Fantasy.mp3;
#BANNER:Banner.png;
#BACKGROUND:BG.png;
#CDTITLE:;
#SAMPLESTART:0.000;
#SAMPLELENGTH:0.000;
#SELECTABLE:YES;
#OFFSET:-0.653;
#BPMS:0.000=132.000;
#STOPS:;
#BGCHANGES:-0.353=Mellow D Fantasy.mp4=1.000=1=0=1===CrossFade==,
99999.000=-nosongbg-=1.000=0=0=0=StretchNoLoop====
;
#FGCHANGES:;

//--------------- dance-single - Blood4Fame ----------------
#NOTES:
     dance-single:
     Blood4Fame:
     Beginner:
     2:
     0,0,0,0,0:
0000
0000
0000
0000
,
1001
0000
0000
0000
,
0110
0000
0000
0000
,
1100
0000
0000
0000
,
1100
0000
0000
0000
,
0001
0000
0001
0000
,
0100
0100
0000
0000
,
0001
0000
0001
0000
,
0010
0010
0010
0000
,
0001
0000
0001
0000
,
1000
1000
0000
0000
,
0001
0000
0001
0000
,
0100
0000
0010
0000
,
1000
1000
1000
0000
,
0001
0001
0001
0000
,
0100
0000
0010
0010
,
0010
0000
1000
0000
,
0100
0000
0001
0000
,
0010
0000
1000
0000
,
0100
0000
0001
0000
,
0010
0000
0000
0000
,
1001
0000
0000
0000
,
0110
0000
0000
0000
,
1001
0000
0000
0001
,
0001
0000
0010
0000
,
0001
0000
1000
0000
,
0001
0000
0010
0000
,
1000
0000
0100
0000
,
0010
0000
0100
0100
,
0100
0000
0000
0000
,
1001
0000
0000
0000
,
0110
0000
0000
0001
,
0001
0000
0100
0000
,
0010
0000
0001
0000
,
1000
0000
0000
0000
,
2000
0000
0000
3000
,
0000
0000
0000
0000
,
1001
0000
0000
0000
,
0110
0000
0000
0000
,
1001
0000
0000
0000
,
1100
0000
0000
0000
,
0011
0000
0000
0000
,
0100
0000
0000
0000
,
0010
0000
0000
0000
,
1000
0000
0100
0000
,
1000
0000
0100
0000
,
0010
0000
0100
0000
,
0010
0000
0001
0001
,
0001
0000
1000
0000
,
0001
0000
0010
0000
,
0001
0000
0100
0000
,
0100
0000
0100
0100
,
0001
0000
0001
0000
,
1000
0000
0010
0000
,
1000
0000
1000
1000
,
1000
0000
0000
0000
,
0001
0000
0000
0000
,
0010
0000
0000
0000
,
0101
0000
0000
0000
,
0100
0000
0000
0000
;

//--------------- dance-single - Blood4Fame ----------------
#NOTES:
     dance-single:
     Blood4Fame:
     Easy:
     3:
     0,0,0,0,0:
0000
0000
0000
0000
,
0002
0000
0000
0000
0000
0000
0000
0003
,
2000
0000
0000
3000
,
0200
0000
0000
0300
0200
0000
0301
0000
,
0020
0000
0030
0010
,
0100
1000
0100
0001
,
0010
0100
0010
0100
,
1000
1000
0001
0001
,
0000
0100
0000
0100
,
1000
0100
0001
0100
,
1001
0010
0100
0000
,
0002
0003
0000
0100
,
0101
0100
0000
0100
,
0101
0000
0100
0100
,
1000
0000
0100
0001
,
2000
3000
0100
1000
,
0000
0100
0010
1000
,
2002
3003
0000
0000
0000
0000
0000
0000
,
0000
0001
0000
0010
,
0220
0000
0000
0330
1000
0000
0010
0000
,
0000
0000
2000
3200
,
0310
0000
0001
0000
,
0010
0000
1000
0100
,
0020
0000
0030
0000
,
0000
0100
1100
0110
,
0002
0000
0000
0003
0200
0000
0310
0000
,
2000
0000
3100
0110
,
0110
0000
0000
1001
,
1001
0000
2000
3200
,
0310
0000
0001
0000
,
0010
0000
1000
0100
,
0020
0000
0030
0000
,
0000
0100
1100
0110
,
0001
0000
0000
0010
,
0010
0000
0000
0100
,
2002
0000
0000
3003
,
0000
0100
0000
0100
,
2000
0000
0000
3000
0000
0000
0100
0000
,
0100
0000
0000
0010
,
0200
0000
0000
0300
0001
0000
0100
0000
,
0001
0000
0000
0000
0200
0300
2020
3030
,
0120
0000
2000
3030
,
0002
0000
0000
0003
,
0200
0000
0000
0000
0000
0000
0000
0300
,
0101
0000
0000
0100
,
1100
0000
0000
0100
,
1001
1000
0000
1000
,
0000
1000
0010
0001
,
0001
0000
0001
0100
,
0010
0000
0100
0001
,
0010
0001
0000
0100
,
0000
0100
1000
0001
,
0010
0100
0000
1000
,
0000
0001
0000
0010
,
0000
1000
0000
1000
,
0000
0100
0000
1000
,
0011
0000
0000
0100
,
0000
0010
0110
1000
,
0000
0000
1000
0000
,
0002
0000
0000
0000
,
0003
0000
0000
0000
;

//--------------- dance-single - Blood4Fame ----------------
#NOTES:
     dance-single:
     Blood4Fame:
     Medium:
     6:
     0,0,0,0,0:
0000
0000
0000
0000
,
2002
0000
0000
0000
0000
0000
0000
3003
,
2020
0000
0000
3030
,
2200
0000
0000
0300
0200
0000
0302
3003
,
0022
0000
0000
0000
0033
1000
0010
1000
,
0100
0100
1100
0000
0100
0100
0101
0000
,
2010
3100
0012
0103
,
1000
1000
1100
0000
0001
0001
0101
0000
,
0000
1000
0100
0010
0000
0010
0100
0001
,
1100
0100
0100
0000
0101
0100
0100
0000
,
1001
0000
0010
0000
0100
0000
0000
0100
,
0002
0000
0003
2002
0000
3003
0100
0000
,
0101
0010
0100
2000
3000
0010
0100
1000
,
0001
0000
0000
0001
0100
0000
0100
0010
,
1000
0000
0000
0010
0100
0000
0001
0100
,
2000
0000
3000
1000
0100
0010
1000
2002
,
3003
1000
0100
0000
0010
0100
1000
0000
,
2002
3003
0000
2200
0000
0000
0000
3300
,
0000
0010
0001
0200
0300
1000
0010
0001
,
0220
0000
0000
0330
1000
0001
0010
2020
,
0000
3030
0000
0000
2000
0000
3200
0000
,
0310
0000
0000
0100
0001
0000
0000
0001
,
0010
0000
0000
0100
1000
0000
0100
0000
,
0021
0000
0001
0200
0330
0011
0000
1100
,
0000
1000
0100
0000
1100
0000
0110
0000
,
0012
0000
0000
0013
0200
0000
0310
0000
,
2010
0000
0000
0010
3100
0000
0110
0000
,
0110
0000
0001
0100
0000
0010
0001
0020
,
0000
0030
2000
3200
,
0310
0000
0000
0100
0001
0000
0000
0001
,
0010
0000
0000
0100
1000
0000
0100
0000
,
0021
0000
0001
0200
0330
0011
0000
1100
,
0000
1000
0100
0000
1100
0000
0110
0000
,
0001
1000
0100
0020
0000
0130
0010
0002
,
0000
0000
0020
0003
0000
0000
0230
0000
0300
0000
2002
0000
0000
0000
3223
0000
,
0000
0000
0000
0000
0000
0330
0000
0020
,
0000
1030
0100
0020
0000
0031
0100
0020
,
2000
0000
0000
3030
0000
1000
0100
0002
,
0000
0000
0000
0000
0000
0000
0003
0010
,
0200
0000
0000
0320
0001
1030
0100
0220
,
0000
0000
0000
0330
2200
3300
2020
3030
,
0120
0000
0000
0100
2000
0000
3030
0001
,
0002
0000
0000
0000
0000
0000
0003
0010
,
0200
0000
0000
0000
0000
0000
0000
0300
,
0101
0000
0000
1010
0000
0000
0100
0000
,
1100
0000
0000
0011
0000
0000
0100
0000
,
1001
0000
1000
1010
0000
0000
0000
1010
,
0000
1000
1000
1000
0010
0000
0001
0000
,
0001
0000
0000
0100
0001
0000
0100
0010
,
0010
0000
0000
1000
0100
0000
0001
0000
,
0010
0000
0001
1000
0000
1000
0100
0011
,
0000
0100
0100
0000
1000
0000
0001
0000
,
0010
0010
0100
1000
0000
0001
1000
0100
,
0000
0010
0001
0100
0000
0010
0010
0020
,
0000
0000
1000
0000
0000
0030
1000
0001
,
0000
0001
0100
0001
0000
0001
1000
0000
,
0011
0000
0000
1100
0000
0010
0100
0101
,
0000
1000
0010
0000
0110
0000
1000
2020
,
0000
0000
0000
0000
0000
0000
0000
0030
,
0002
0000
0000
0000
,
3003
0000
0000
0000
;

//--------------- dance-single - Blood4Fame ----------------
#NOTES:
     dance-single:
     Blood4Fame:
     Hard:
     8:
     0,0,0,0,0:
0000
0000
0000
0000
0000
0000
0000
0000
0000
0000
0000
0000
1000
0100
0010
0001
,
2002
0000
0000
0000
0000
0000
0000
3003
,
2020
0000
0000
0000
0000
0000
3030
0100
,
2200
0000
0000
0300
0200
0000
0302
3003
,
0022
0000
0000
0000
0000
0000
0000
0000
0033
0000
1000
0100
0010
0001
1000
0010
,
0100
0100
1100
0000
0100
0100
0101
0000
,
2010
3100
0012
0103
,
1000
1000
1100
0000
0001
0001
0101
0000
,
0000
1000
0100
0010
0000
0010
0100
0001
,
1100
0100
0100
0000
0101
0100
0100
0000
,
1001
0000
0000
0000
0010
0000
0000
0000
0100
0000
0000
1000
0000
0000
0100
0000
,
0022
0000
0033
2002
0000
3003
0100
0000
,
0101
0000
0010
0000
0100
0000
2020
0000
3030
0000
0010
0000
0100
0000
1000
0100
,
0001
0000
0000
0001
0000
0000
0001
0000
0100
0000
0000
0000
0100
0000
0010
0000
,
1000
0000
0000
0100
0000
0000
0010
0000
0100
0000
0000
0000
0001
0000
0100
0000
,
2000
0000
3000
1000
0100
0110
1000
2002
,
3003
1000
0100
0000
0010
0100
1000
0000
,
2002
3003
0010
2200
0000
0000
0000
0300
,
0000
0000
0010
0000
0001
0000
0200
0000
3300
0000
1000
0100
0010
0000
0001
0000
,
0220
0000
0000
0330
1000
0101
0010
2020
,
0000
3030
0000
0000
2000
0000
3200
0000
,
0310
0000
0000
0010
0000
0000
0100
0000
0001
0000
0000
0000
0000
0000
0001
1000
,
0010
0000
0000
0010
0000
0000
0100
0000
1000
0000
0000
0000
0100
0000
0000
0000
,
0021
0000
0001
0200
0330
0011
0000
1100
,
0000
1000
0100
0000
1100
0000
0110
0000
,
2010
0000
0000
0001
0000
0000
3010
0000
0200
0000
0000
0000
0310
0000
0000
0000
,
2020
3000
0000
1000
0000
0000
1000
0000
0130
0000
0000
0000
0110
0000
0000
0000
,
0110
0000
1001
1100
0000
0011
0001
0020
,
0000
0030
2000
3200
,
0310
0000
0000
0010
0000
0000
0100
0000
0001
0000
0000
0000
0000
0000
0001
1000
,
0010
0000
0000
0010
0000
0000
0100
0000
1000
0000
0000
0000
0100
0000
0000
0000
,
0021
0000
0001
0200
0330
0011
0000
1100
,
0000
1000
0100
0000
1100
0000
0110
0000
,
0011
1000
0100
0020
0000
0130
0010
0002
,
0000
0000
0020
0003
0000
0000
0230
0000
0300
0000
2002
0000
0000
0000
3223
0000
,
0000
0000
0000
0000
0000
0330
0000
0020
,
0000
1030
0010
0200
0000
0301
0100
0020
,
2000
0000
0000
3000
0000
1000
0100
0002
,
0000
0000
0000
0000
0000
0000
0000
0000
0000
0000
0000
0000
0033
0000
0010
1000
,
0200
0000
0000
0320
0001
1030
0100
0220
,
0000
0000
0000
0330
2200
3300
2020
3030
,
0120
0000
0000
1000
0000
0000
0100
0000
2000
0000
0000
0000
3030
0000
0001
0010
,
0202
0000
0000
0000
0000
0000
0000
0000
0000
0000
0000
0000
0303
0000
0010
0100
,
2200
0000
0000
0000
0000
0000
0000
3300
,
0101
0000
0000
1010
0000
0000
0100
0000
,
1100
0000
0000
0011
0000
0000
0100
0000
,
1001
0000
1000
1010
0000
0000
0000
1010
,
0000
0000
1000
0100
1000
0100
1000
0100
0010
0000
0000
0000
0001
0000
0000
1000
,
0001
0000
0000
0010
0000
0000
0100
0000
0001
0000
0000
1000
0100
0000
0010
0001
,
0010
0000
0000
0100
0000
0000
1000
0000
0100
0000
0000
0000
0001
0000
0000
1000
,
0010
0000
0001
1000
0000
1001
0100
0011
,
0000
0000
0100
0000
0100
0000
0000
0000
1000
0000
0000
0000
0001
0000
0000
1000
,
0100
0000
0100
0000
0010
0000
0001
0000
0000
0001
1000
0000
0001
0000
0010
0000
,
0000
0010
0100
0000
1000
0000
0010
0000
0000
0000
0100
0001
0100
0001
0200
0000
,
0000
0000
0000
0000
1000
0000
0000
0000
0000
0000
0300
0000
1000
0010
1000
0000
,
0000
0000
0001
1000
0100
0010
0001
0000
0000
0000
0001
0000
1000
0000
0000
0000
,
1010
0000
0000
1100
0000
0010
0100
0101
,
0000
1000
0010
0000
0110
0000
1000
2020
,
0000
0000
0000
0000
0000
0000
0000
0030
,
0002
0000
0000
0000
,
3003
0000
0000
0000
;
