#TITLE:Luv is True;
#SUBTITLE:~LUV POP~;
#ARTIST:3rd Coast;
#TITLETRANSLIT:;
#SUBTITLETRANSLIT:;
#ARTISTTRANSLIT:;
#GENRE:Hip Hop;
#CREDIT:Bloodd4Fame;
#MUSIC:[DJMAX Portable 3] 3rd Coast - Luv is True.mp3;
#BANNER:Banner.png;
#BACKGROUND:BG.png;
#CDTITLE:DJMAX Portable 3;
#SAMPLESTART:56.981;
#SAMPLELENGTH:15.469;
#SELECTABLE:YES;
#OFFSET:-1.200;
#BPMS:0.000=128.000;
#STOPS:;
#BGCHANGES:-2.200=[DJMAX Portable 3] 3rd Coast - Luv is True.mp4=1.000=1=0=1===CrossFade==,
99999.000=-nosongbg-=1.000=0=0=0=StretchNoLoop====
;
#FGCHANGES:;

//--------------- dance-single - Blood4Fame ----------------
#NOTES:
     dance-single:
     Blood4Fame:
     Beginner:
     2:
     0,0,0,0,0:
0000
0000
0000
0000
,
0000
0000
0000
0000
,
0100
0100
0100
0000
,
0001
0001
0001
0000
,
0100
0100
0100
0000
,
1000
1000
1000
0000
,
0100
0100
0100
0000
,
0001
0001
0001
2002
,
0000
0000
3003
0000
,
0100
0000
0001
0001
,
0000
1000
0000
0001
,
0000
1000
0000
0010
,
0000
0000
1000
0000
1000
0000
0000
0010
,
0000
0000
0000
0010
0000
0000
0000
0000
,
0000
0001
0000
0010
,
0000
0001
0000
1000
,
0000
0010
0000
0002
,
0000
0003
0000
0000
0000
0000
0000
0000
,
1000
0000
1000
0000
,
0010
0010
0010
0010
,
0000
0010
0000
1000
,
0000
0001
0001
0001
,
0000
0010
0000
0010
,
0000
1000
1000
1000
,
0000
0010
0000
1000
,
0000
0100
0000
0100
,
0100
0100
0100
0000
,
0001
0001
0001
0000
,
1000
1000
1000
0000
,
0010
0010
0010
0000
,
0100
0100
0100
0000
,
0001
0001
0001
2002
,
0000
0000
0000
3003
0000
0000
0000
0000
,
0001
0000
1000
0000
,
0000
0100
0000
0001
,
0000
0100
0000
0010
,
0000
1000
0000
0001
,
0000
1100
0000
1000
,
0000
0010
0000
0010
,
0000
0001
0000
0100
,
0000
0100
0100
0000
,
0000
0100
0100
0100
,
0000
1100
0000
0011
,
0000
0000
0000
0000
,
0000
1100
0000
0011
,
0000
0000
0000
0000
,
0000
1010
0000
0101
,
0000
0000
0000
0000
,
0000
1010
0000
0101
,
0000
2002
3003
0000
,
0100
0100
0100
0000
,
0001
0001
0001
0000
,
0010
0010
0010
0000
,
1000
1000
1000
0000
,
0100
0100
0100
0000
,
0001
0001
0001
2002
,
0000
0000
0000
3003
0000
0000
0000
0000
,
0000
0100
0000
0002
,
0003
0000
0000
0000
;

//--------------- dance-single - Blood4Fame ----------------
#NOTES:
     dance-single:
     Blood4Fame:
     Easy:
     3:
     0,0,0,0,0:
0000
0000
0000
0000
,
0000
0000
0000
0001
,
0100
0100
0010
0000
,
0100
0100
0100
0000
,
0100
0100
0100
0000
,
0100
0000
0000
0010
0000
0000
0100
0000
,
1000
0100
0010
0000
,
0100
0000
0000
0100
0000
0000
2002
0000
,
0000
0000
3003
0000
,
0100
0010
0001
0001
,
0000
1000
0100
0001
,
0100
1000
0010
0000
,
0001
0000
1000
0000
1000
0000
0000
0010
,
0000
0100
0000
0010
0000
0000
0000
0000
,
0000
0001
1000
0010
,
0000
0100
0000
0001
0000
0000
1000
0000
,
0001
0010
1000
0002
,
0000
0003
0000
0000
0000
0000
0000
0000
,
1000
0001
1000
0001
,
0000
0010
0100
0100
,
0000
0010
0100
1000
,
0100
0001
0000
0110
,
0000
0010
0100
0000
,
0010
0100
0010
0001
,
0000
0010
1000
1000
,
0000
0100
0010
1000
,
0100
0100
0010
0000
,
0100
0100
0100
0000
,
0100
0100
0100
0000
,
0100
0000
0000
0010
0000
0000
0100
0000
,
0001
0100
0010
0000
,
0100
0000
0000
0100
0000
0000
2002
0000
,
0000
0000
0000
3003
0000
0000
0000
0000
,
0001
0100
1000
0010
,
1000
0100
0000
0001
,
0010
0100
0000
0010
,
0001
1000
0000
0001
,
0100
0000
1100
0000
0000
0000
0000
1000
,
0000
0000
0010
0000
0100
0000
0000
0010
,
0000
0000
0001
0000
0100
0000
0000
1000
,
0000
0100
0100
0010
,
0000
0100
0001
0100
,
0100
1100
0010
0011
,
0000
0000
0000
0000
,
0100
1100
0010
0011
,
0000
0000
0000
0000
,
1000
1010
0100
0101
,
0000
0000
0000
0000
,
0010
1010
0100
0101
,
0010
0100
1001
1001
,
0100
0100
0010
0000
,
0100
0100
0100
0000
,
0100
0100
0100
0000
,
0100
0000
0000
0010
0000
0000
0100
0000
,
1000
0100
0010
0000
,
0100
0000
0000
0100
0000
0000
2002
0000
,
0000
0000
0000
3003
0000
0000
0000
0000
,
1100
0110
0011
0202
,
0303
0000
0000
0000
;

//--------------- dance-single - Blood4Fame ----------------
#NOTES:
     dance-single:
     Blood4Fame:
     Medium:
     6:
     0,0,0,0,0:
0000
0000
0000
0000
,
0000
0000
0000
0000
0000
0000
0001
1000
,
0100
0000
0100
0000
0010
0000
0010
0001
,
0100
0000
0100
0000
0100
0000
0010
0001
,
0100
0000
0100
0000
0100
0000
1000
0010
,
0100
0000
0000
0100
0000
0000
0010
0000
0000
0000
0001
0000
0100
0000
0010
0000
,
1000
0000
0100
0000
0010
0000
1000
0001
,
0100
0000
0000
0010
0000
0000
0100
0000
0000
0000
0000
0000
1001
0000
2002
0000
,
0000
0000
0000
3003
,
1100
0110
0011
0101
,
0000
0000
1000
0010
0100
0000
0001
0010
,
0100
0000
1000
0100
0010
0000
0001
1000
,
0001
0000
1000
0010
1000
0000
0000
0010
,
0000
0100
0000
0011
0000
1000
0100
0000
,
0110
0000
0001
0000
1000
0100
0010
0010
,
0000
0100
0000
0001
0000
1000
1000
0100
,
0011
0000
0110
0000
1100
0000
0010
0002
,
0000
0003
0000
0000
0000
0010
0010
0000
,
1000
0100
0001
0000
1000
0100
0001
0000
,
0000
0010
0010
1000
0100
0010
0100
0000
,
0000
0001
0010
0000
0100
0100
1000
0000
,
0100
0010
0001
0000
0001
0000
0110
0000
,
0000
0010
0010
0000
0100
0000
0000
0010
,
0010
0100
0100
0000
0010
1000
0001
0000
,
0010
0100
0010
0000
1000
0010
1000
0100
,
0000
0100
0100
0000
0010
1000
1000
0001
,
0100
0000
0100
0000
0010
0000
0010
1000
,
0100
0000
0100
0000
0100
0000
0010
1000
,
0100
0000
0100
0000
0100
0000
0001
0010
,
0100
0000
0000
0100
0000
0000
0010
0000
0000
0000
1000
0000
0100
0000
0010
0000
,
0001
0000
0100
0000
0010
0000
0001
1000
,
0100
0000
0000
0010
0000
0000
0100
0000
0000
0000
0000
0000
1001
0000
2002
0000
,
0000
0000
0000
3003
,
0101
0110
1010
0011
,
1000
1000
0200
0000
0310
0001
0002
0000
,
0023
0000
0000
0030
0200
0000
0000
0300
1000
0000
0100
0000
0010
0000
0000
0000
,
0001
0001
1000
0010
0100
0100
0001
0010
,
0100
0000
1100
0000
0010
0001
0000
1000
,
0000
0010
0010
0000
0100
0010
0000
0010
,
0000
1000
0001
0000
0100
0100
0000
1000
,
0000
0010
0100
0000
0100
0001
0010
0000
,
1000
0010
0100
1000
0001
0010
0100
0001
,
0100
1100
0010
0011
,
1000
1000
0100
0100
,
0100
1100
0010
0011
,
1000
1000
0100
0100
,
1000
1010
0100
0101
,
1000
1000
0010
0010
,
0010
1010
0100
0101
,
0011
0000
0110
0000
1001
0000
0011
1000
,
0100
0000
0100
0000
0010
0000
0010
0001
,
0100
0000
0100
0000
0100
0000
0010
0001
,
0100
0000
0100
0000
0100
0000
1000
0010
,
0100
0000
0000
0100
0000
0000
0010
0000
0000
0000
0001
0000
0100
0000
0010
0000
,
1000
0000
0100
0000
0010
0000
1000
0001
,
0100
0000
0000
0010
0000
0000
0100
0000
0000
0000
0000
0000
1001
0000
2002
0000
,
0000
0000
0000
3003
,
1100
0110
0011
0202
,
0303
0000
0000
0000
;

//--------------- dance-single - Blood4Fame ----------------
#NOTES:
     dance-single:
     Blood4Fame:
     Hard:
     7:
     0,0,0,0,0:
0000
0000
0000
0000
,
0000
0000
0000
0000
0000
0000
0001
1000
,
0100
0000
0000
0000
0100
0000
0000
0000
0010
0000
0000
0100
0010
0000
0001
0000
,
0100
0000
0000
0000
0100
0000
0000
0000
0100
0000
0010
1000
0010
0000
1000
0000
,
0100
0000
0000
0000
0100
0000
0000
0000
0100
0000
0000
1000
0001
0000
0010
0000
,
0100
0000
0000
0100
0000
0000
0010
0000
0000
0000
0001
0000
0100
0000
0010
0000
,
1000
0000
0000
0000
0100
0000
0000
0000
0010
0000
0000
0100
1000
0000
0001
0000
,
0100
0000
0000
0010
0000
0000
0100
0000
0000
0000
0000
0000
1001
0000
2002
0000
,
0000
0000
0000
3003
,
1100
0110
0011
1001
,
0000
0000
0000
0000
1000
0000
0000
0010
0100
0000
0000
0000
0001
0000
0010
0000
,
0100
0000
1000
0100
0010
0000
0001
0001
,
0001
0000
1000
0010
1000
0000
0000
0010
,
0000
0100
0000
1010
0000
1000
0100
0000
,
0110
0000
0000
0000
0001
0000
0000
0010
0001
0000
0100
0000
0010
0000
0010
0000
,
0000
0100
0000
0001
0000
1000
1000
0100
,
0011
0000
0110
0000
1100
0100
0010
0001
,
1000
0000
0000
0001
0000
0000
0001
0000
0000
0000
0010
0000
0010
0000
0000
0000
,
0001
0000
0100
0000
0010
0000
0000
0000
1000
0000
0010
0000
0100
0000
0000
1000
,
0000
0010
0010
1000
0100
0010
0100
0000
,
0100
0001
0010
0000
0100
0100
1000
0000
,
0100
0000
0010
0000
0001
0100
0000
0000
0001
0000
0010
0100
0000
0000
0110
0000
,
0000
0000
0010
0000
0010
0100
0000
0000
0100
0000
0000
0000
0000
0000
0010
0000
,
0010
0100
0100
0000
0010
1000
0001
0000
,
0010
0100
0010
0000
1000
0010
1000
0100
,
0000
0100
0100
0000
0010
1000
1000
0001
,
0100
0000
0000
0000
0100
0000
0000
0000
0010
0000
0000
0100
0010
0000
1000
0000
,
0100
0000
0000
0000
0100
0000
0000
0000
0100
0000
0000
1000
0010
0000
1000
0000
,
0001
0000
0000
0000
0100
0000
0000
0000
0100
0000
0000
0001
1000
0000
0010
0000
,
0100
0000
0000
0100
0000
0000
0010
0000
0000
0000
1000
0000
0100
0000
0010
0000
,
0001
0000
0000
0000
0100
0000
0000
0000
0010
0000
0000
0100
0001
0000
1000
0000
,
0100
0000
0000
0010
0000
0000
0100
0000
0000
0000
0000
0000
1001
0000
2002
0000
,
0000
0000
0000
3003
,
0101
0110
1010
1001
,
1000
1000
0200
0000
0310
0001
0002
0000
,
0023
0000
0000
0030
0200
0000
0000
0300
1000
0000
0100
0000
0010
0000
0000
0000
,
0001
0001
1000
0010
0100
0100
0001
0100
,
1010
0000
0000
0000
1100
0000
0000
0000
0010
0000
0001
0010
0000
0000
1000
0000
,
0000
0000
0010
0000
0010
0000
0000
0000
0100
0000
0010
1000
0000
0000
0010
0000
,
0000
0000
1000
0000
0001
0000
0000
0000
0100
0000
0100
0010
0000
0000
0000
0000
,
1000
0010
0100
0000
0100
0001
0010
0000
,
0001
0010
0100
1000
0001
0100
0010
1000
,
1010
1100
0011
0011
,
1000
1000
0100
0100
,
1010
1100
0011
0011
,
1000
1000
0100
0100
,
1010
0110
0101
0101
,
1000
1000
0010
0010
,
1010
0110
0101
0101
,
0011
0000
0110
0000
1001
0000
0110
1000
,
0010
0000
0000
0000
0100
0000
0000
0000
0010
0000
0000
0100
0010
0000
1000
0000
,
0100
0000
0000
0000
0100
0000
0000
0000
0100
0000
0000
0001
0010
0000
0001
0000
,
0100
0000
0000
0000
0100
0000
0000
0000
0100
0000
0000
0001
1000
0000
0010
0000
,
0100
0000
0000
0100
0000
0000
0001
0000
0000
0000
0001
0000
0100
0000
0010
0000
,
1000
0000
0000
0000
0100
0000
0000
0000
0010
0000
0000
0100
1000
0000
0001
0000
,
0100
0000
0000
0010
0000
0000
0100
0000
0000
0000
0000
0000
1001
0000
2002
0000
,
0000
0000
0000
3003
,
1001
0110
1001
0220
,
0330
0000
0000
0000
;
