#TITLE:Lovely Hands;
#SUBTITLE:;
#ARTIST:Planet Boom;
#TITLETRANSLIT:;
#SUBTITLETRANSLIT:;
#ARTISTTRANSLIT:;
#GENRE:Groove;
#CREDIT:Blood4Fame;
#MUSIC:Lovely hands.mp3;
#BANNER:Banner.png;
#BACKGROUND:BG.png;
#CDTITLE:;
#SAMPLESTART:50.492;
#SAMPLELENGTH:17.458;
#SELECTABLE:YES;
#OFFSET:0.338;
#BPMS:0.000=132.000
,76.000=131.793
,144.000=131.931
,176.000=132.000
;
#STOPS:;
#BGCHANGES:;
#FGCHANGES:;

//--------------- dance-single - Blood4Fame ----------------
#NOTES:
     dance-single:
     Blood4Fame:
     Easy:
     2:
     0,0,0,0,0:
0000
0000
0000
0000
,
0000
0000
0000
0000
,
0000
0000
0000
0000
,
0000
0000
0000
0000
,
0000
0000
0000
0000
,
0000
0000
0000
0000
,
0002
0000
0000
0003
,
2000
0000
0000
3000
,
0200
0000
0000
0300
,
2000
0000
0000
3000
,
0000
0000
0000
0000
,
1000
0010
0100
0100
,
0100
0000
0100
1000
,
0001
0000
0001
0010
,
1000
0000
0010
0010
,
0002
0000
0000
0003
0001
0000
0000
0000
0000
0000
0000
0000
0100
0000
0000
0000
,
0000
0010
0100
0100
,
1000
0101
0100
1000
,
0000
1000
0100
0000
,
0020
0030
0100
1000
,
0100
0001
0000
0001
,
0100
0000
0010
0000
,
1000
1000
1000
0100
,
0000
0001
0001
1000
,
0010
0000
0000
0000
,
0022
0000
0000
0000
,
0033
0010
0000
0010
,
0200
0000
0000
0000
0000
0300
0001
0000
,
0100
0100
1100
0001
,
0000
0010
0001
0010
,
0000
0100
1000
0100
,
0022
0003
0000
0000
,
0000
0030
0000
0000
0100
0000
1000
0000
,
0000
0001
0001
0100
,
0000
1001
0010
0000
,
1020
0000
0000
0000
0000
0030
0000
0000
,
0100
0000
0001
1000
,
0000
0000
0000
0100
,
1000
0100
0000
0000
,
0010
0001
1000
0001
,
0100
0002
0003
0001
,
0000
0000
0010
0000
,
0000
0100
0000
0000
,
1000
0000
0010
0011
,
0100
0100
1100
0001
,
0000
0001
0001
0010
,
0000
1000
1000
1000
,
0022
0003
0000
0000
,
0000
0030
0000
0000
0100
0000
1000
0000
,
0000
0001
0100
0001
,
0000
0000
1000
1000
,
1020
1030
0100
0000
,
2000
0000
0000
0000
,
0000
0000
0000
3000
;

//--------------- dance-single - Blood4Fame ----------------
#NOTES:
     dance-single:
     Blood4Fame:
     Medium:
     6:
     0,0,0,0,0:
0000
0000
0000
0000
,
0000
0000
0000
0000
,
0000
0000
0000
0000
,
0000
0000
0000
0000
,
0000
0000
0000
0000
,
0000
0000
0000
0000
,
0002
0000
0000
0003
,
2000
0000
0000
3000
,
0202
0000
0000
0303
,
2200
0000
0000
3300
,
0000
0000
0000
0000
,
1000
0100
0010
0000
0100
0001
0100
0010
,
0000
1100
0000
0000
0100
0010
1000
0100
,
0000
0010
0000
0000
0001
0100
0010
1000
,
0000
0010
0000
0000
0010
0001
0010
1000
,
0002
0000
0000
0003
0001
0000
0200
0000
0000
0000
0310
0000
0100
0000
0002
0000
,
0000
0000
0010
0003
0100
0100
0000
1000
,
1000
0000
0101
0000
0100
0001
1000
0010
,
0000
0000
1000
0100
0100
1000
0000
0001
,
0020
0000
0030
0000
0100
0001
0000
0010
,
0000
0100
0001
0100
0000
1000
0001
0020
,
0000
0000
0000
0000
0000
0000
0030
0220
,
0000
0000
0330
0001
1000
0001
0100
2020
,
0000
3030
0100
0000
0001
0000
0010
0000
0001
0000
0100
0000
1000
0000
2002
0000
,
0000
0000
3003
0000
,
0022
0000
0000
0000
,
0033
1000
0010
1000
0000
0100
0010
0000
,
0200
0000
0000
0000
0000
0300
0001
0001
,
0100
0000
0100
0000
1100
0100
0001
0101
,
0000
0011
0000
1000
0001
0100
0010
0110
,
0000
1100
0000
2002
0003
3100
0000
0000
,
0022
0000
0003
0001
0000
0001
0000
0100
,
0000
1030
0000
1000
0100
0001
1000
1010
,
0000
1010
0000
1000
0001
0010
0100
0011
,
0000
0011
0001
0202
0000
0000
0303
0000
,
1020
0100
0000
0100
0000
1030
0000
1000
,
0100
0000
0000
0100
0001
1000
1000
0020
,
0000
0000
0030
0000
0000
0000
0100
0010
,
1000
0100
0100
0200
0000
0000
0300
0100
,
0010
0000
0001
0010
1000
0010
0001
0100
,
0100
0000
0002
0000
0003
1000
0001
0020
,
0000
0000
0000
0000
0000
0000
0000
0030
0010
0000
0000
0000
0000
0000
0100
0000
,
0000
0000
0100
2000
0000
0000
3000
0000
,
1000
0000
0000
0010
0010
0000
0011
0000
,
0100
0000
0100
0000
1100
0100
0001
0101
,
0000
0011
0000
0000
0001
0100
0010
0110
,
0100
0000
1000
1000
1000
1000
1000
0000
,
0022
0000
0003
0001
0000
0001
0000
0100
,
0000
1030
0000
1000
0100
0001
1000
1010
,
0000
1010
0000
1000
0000
0001
0001
0001
,
0001
0001
0000
0102
1000
0100
1003
0000
,
1020
0000
1030
0001
0100
1000
0000
1200
,
0000
0000
0000
0000
,
0000
0000
0000
0300
;

//--------------- dance-single - Blood4Fame ----------------
#NOTES:
     dance-single:
     Blood4Fame:
     Hard:
     9:
     0,0,0,0,0:
0000
0000
0000
0000
,
0000
0000
0000
0000
,
0000
0000
0000
0000
,
0000
0000
0000
0000
,
0000
0000
0000
0000
,
0000
0000
0000
0000
,
0002
0000
0000
0003
,
2000
0000
0000
3000
,
0202
0000
0000
0303
,
2200
0000
0000
3300
,
0000
0000
0000
0000
0000
0000
0000
0000
0000
0000
0000
0000
0000
1000
0000
0001
,
1000
0000
0100
0000
0010
0000
0000
0001
0100
0000
0001
0000
0100
0000
0010
0000
,
0000
0000
1010
0000
0000
0000
0000
0001
0100
0000
0010
1000
0100
0000
1000
0000
,
0000
0000
0010
0000
0000
0000
0000
1000
0001
0000
0100
0000
0010
0000
1000
0000
,
0000
0000
0010
0000
0000
0000
0000
1000
0100
0000
0001
0100
0010
0000
0001
0100
,
0002
0000
0000
1003
0001
0000
0200
0000
0000
0000
0310
1000
0100
0000
2000
0000
,
0000
0000
0000
0000
3010
0000
0000
0001
0100
0000
0100
0000
0000
0000
1000
0000
,
0001
0000
0000
0000
0101
0000
0000
0010
0100
0000
0001
0000
1000
0000
0010
0000
,
0000
0000
0000
0000
1000
0001
0100
0010
0100
0001
1000
0100
0000
0000
0001
0100
,
0020
0000
0000
0000
0030
0000
0000
0001
0100
0000
0001
0000
0000
0000
0010
0000
,
0000
0100
0001
0100
0000
1000
0001
0020
,
0000
0000
0000
0000
0000
0000
0030
0220
,
0000
0000
0330
0001
1000
0001
0100
2020
,
0000
3030
0100
0000
0001
0000
0010
0000
0001
0000
0100
0000
0001
0000
2002
0000
,
0000
0000
3003
0000
,
0022
0000
0000
0000
,
0033
0000
1000
0010
0100
0000
1000
0100
0000
0001
0100
0000
0010
1000
0000
1000
,
0200
0000
0000
0000
0000
0000
0000
0000
0000
1000
0300
1000
0001
0000
0001
0010
,
0100
0000
0100
0000
1100
0100
0010
0011
,
0000
0011
0000
1000
0001
0100
0010
0110
,
0000
1010
0000
2002
0003
3010
0000
0000
,
0022
0000
0003
0001
0000
0001
0000
0100
,
0000
0031
0000
0001
0100
0001
1000
1010
,
0000
1010
0000
1000
0001
0010
0100
0011
,
0000
0011
0001
0202
0000
0000
0303
0000
,
1020
0000
0100
0000
0000
0000
0100
0000
0000
0000
1030
0000
0000
0000
1000
0001
,
0100
0000
0000
0010
0000
0000
0100
0000
0001
0000
1000
0100
1000
0000
0020
0000
,
0000
0000
0000
0000
0000
0000
0030
0000
0000
0000
0000
0000
0000
0000
0000
0000
0000
0001
0100
0000
0000
0010
0000
0000
,
1000
0000
0100
0000
0100
1000
0200
0000
0000
0000
0000
0000
0300
0000
0100
1000
,
0010
0000
0000
0100
0001
1000
0010
0000
1000
0100
0010
0000
0001
0010
0100
1000
,
0100
0010
0000
0010
0002
0000
0000
0000
0003
0000
1000
0100
0001
0100
0020
0000
,
0000
0000
0000
0000
0000
0000
0000
0030
0010
0000
0000
0002
0000
0000
0103
0000
,
0000
0020
0000
0030
0100
0000
0002
0020
0000
0000
0000
0003
0030
0000
0000
0000
,
1000
0001
0000
0010
0000
0100
0010
0100
0010
0000
0000
0000
0011
0000
0000
0002
,
0100
0000
0100
0003
1010
0010
1000
0101
,
0000
0011
0000
0000
0001
0100
0010
0110
,
0100
0000
0000
0000
1000
0100
1000
0100
1000
0010
1000
0001
1000
0000
0000
0000
,
0022
0000
0003
0001
0000
0001
0000
0100
,
0000
0031
0000
1000
0010
1000
0001
1010
,
0000
0000
1010
0000
0000
0000
1000
0000
0000
0000
0001
0010
0001
0010
0001
0010
,
0001
1000
0001
0000
0000
0000
0102
0000
1000
0000
0100
0000
1003
0000
0000
0000
,
1020
0000
0000
0000
1030
0000
0001
0010
0100
0000
1000
0000
0000
0000
1200
0000
,
0000
0000
0000
0000
,
0000
0000
0300
0000
;
