#TITLE:Honey|moon;
#SUBTITLE:;
#ARTIST:Humming Urban Stereo;
#TITLETRANSLIT:;
#SUBTITLETRANSLIT:;
#ARTISTTRANSLIT:;
#GENRE:J/K-Pop;
#CREDIT:Blood4Fame;
#MUSIC:music.mp3;
#BANNER:banner.png;
#BACKGROUND:bg.png;
#CDTITLE:;
#SAMPLESTART:0.000;
#SAMPLELENGTH:0.000;
#SELECTABLE:YES;
#OFFSET:-0.341;
#BPMS:0.000=150.000;
#STOPS:;
#BGCHANGES:;
#FGCHANGES:;

//--------------- dance-single - Blood4Fame ----------------
#NOTES:
     dance-single:
     Blood4Fame:
     Beginner:
     2:
     0,0,0,0,0:
0000
0000
0000
0000
,
0000
0000
0000
0000
,
0000
0000
0000
0000
,
0000
0000
0000
0000
,
0000
0000
0000
0000
,
1000
0000
0000
0000
,
0001
0000
0000
0000
,
1000
0000
0000
0000
,
0001
0000
0010
0000
,
0001
0000
0000
0000
0000
0000
0000
0001
,
0000
0000
0000
0001
,
0100
0000
0000
0000
0000
0000
0000
0100
,
0000
0000
0100
0010
,
0000
0000
1000
0000
0000
0000
0000
1000
,
0000
0000
0010
0000
,
0010
0000
0000
0000
0000
0000
0000
0010
,
0000
0000
0100
0000
,
0001
0000
0000
0000
,
1000
1000
1000
0000
,
0000
0010
0000
0000
,
0100
0100
0100
0000
,
0000
0010
0000
0000
,
0001
0001
0001
0000
,
0000
0100
0000
0000
,
0010
0010
0010
0000
,
1000
0000
0000
1000
,
0001
0000
0000
0000
,
0010
0000
0000
0010
,
0100
0000
0000
0000
,
1000
0000
0000
1000
,
0100
0000
0000
0000
,
0001
0000
0000
0100
,
0001
0000
0010
0000
,
1000
0000
0000
0000
,
1000
0000
0000
0010
,
0100
0000
0000
0100
,
0001
0000
0000
0010
,
1000
0000
0000
0100
,
0001
0000
0000
0010
,
0100
0000
0000
0010
,
1000
0000
0100
0000
,
1000
0000
0000
1000
,
0001
0000
0000
0000
,
0100
0000
0000
0100
,
0010
0000
0000
0000
,
0010
0000
0000
1000
,
0001
0000
0000
0000
,
0100
0000
0000
0010
,
0001
0000
0010
0000
,
0001
0000
0000
0100
,
0010
0000
0000
1000
,
0100
0000
0000
0001
,
0100
0000
0000
0010
,
1000
0000
0000
0100
,
0001
0000
0000
0010
,
0100
0000
0000
0001
,
0001
0000
1000
0000
,
0100
0000
0000
0000
;

//--------------- dance-single - Blood4Fame ----------------
#NOTES:
     dance-single:
     Blood4Fame:
     Easy:
     4:
     0,0,0,0,0:
0000
0000
0000
0000
,
0000
0000
0000
0000
,
0000
0000
0000
0000
,
0000
0000
0000
0000
,
0000
0000
0000
0000
,
0000
0000
0000
0001
0000
0001
0000
0000
,
2200
0000
3300
0000
,
0000
0000
0000
1000
0000
1000
0000
0000
,
0202
0000
0000
0303
,
0000
0000
0010
0000
0010
0000
0010
1000
,
0000
0100
0000
0000
0100
0000
0010
0000
,
0000
0000
0010
0000
0010
0000
0010
0001
,
0000
0100
0000
0000
0100
0000
0010
0000
,
0000
0000
0010
0000
0010
0000
0010
1000
,
0000
0100
0000
0000
0100
0000
0010
0000
,
0000
0000
0010
0000
0010
0000
0010
0001
,
0000
0100
0000
0000
0100
0000
0010
0000
,
0000
0010
0010
0100
,
0010
0010
0010
0000
,
0000
0001
0001
0010
,
1000
0001
1000
0000
,
0000
0010
0001
1000
,
0010
0000
0010
0000
0100
0000
0000
1000
,
0000
1000
0010
0100
,
0001
0001
0110
0000
,
0010
0000
0010
1000
0000
1000
0010
0000
,
0010
0000
0010
0010
,
0011
0000
0000
0001
0000
0001
0000
0001
,
0010
0000
0010
0001
,
0010
0000
0010
1000
0000
1000
0010
0000
,
0010
0000
0010
0010
,
0011
0000
0000
0001
0000
0001
0000
0001
,
0010
0001
0010
0100
,
1020
0000
0000
0030
,
0020
0000
0030
0010
,
0200
0000
0000
0300
,
0020
0230
2300
3002
,
2003
0000
0000
0000
0000
3000
0000
0100
,
0000
0020
0000
0000
,
0032
0000
0000
0000
0000
0000
0000
0103
,
0002
0203
0302
2003
,
3001
0000
0000
0100
0000
1000
0010
0000
,
0100
0000
0000
0000
0000
0010
0000
0010
,
0000
0100
0000
0001
0000
0010
0001
0000
,
0100
0000
0000
0000
0000
0001
0000
0010
,
0000
0001
0000
0100
0000
1000
0100
0000
,
0010
0000
0000
0000
0000
0010
0000
2000
,
0000
3001
0000
0100
0000
1000
0100
0000
,
0010
0100
0010
0100
,
1000
0000
0010
1000
0000
1000
0000
1000
,
0010
0000
0000
0010
,
0011
0000
0000
0001
0000
0001
0000
0001
,
0010
0000
0000
0000
0000
1000
0000
0100
,
0010
0000
0010
1000
0000
1000
0010
0000
,
0010
0000
0000
0010
,
0010
0000
0000
0001
0000
0001
0000
0001
,
0010
0000
0000
0000
0000
1000
0000
0100
;

//--------------- dance-single - Blood4Fame ----------------
#NOTES:
     dance-single:
     Blood4Fame:
     Medium:
     6:
     0,0,0,0,0:
0000
0000
0000
0000
,
0000
0000
0000
0000
,
0000
0000
0000
0000
,
0000
0000
0000
0000
,
0000
0000
0000
0000
,
0001
0000
1000
0001
0000
0001
0010
0000
,
2200
0000
3300
0000
,
1000
0000
0001
1000
0000
1000
0010
0000
,
0202
0000
0000
0303
,
0000
0000
0010
0000
0010
1000
0010
1000
,
0000
0100
0000
1000
0100
0000
0010
0001
,
0000
0000
0010
0000
0010
0001
0010
0001
,
0000
0100
0000
0001
0100
0000
0010
1000
,
0000
0000
0010
0000
0010
1000
0010
1000
,
0000
0100
0000
1000
0100
0000
0010
0001
,
0000
0000
0010
0000
0010
0001
0010
0001
,
0000
0100
0000
0001
0100
0000
0011
0000
,
0000
0000
0010
0001
0010
0000
0100
0000
,
0010
0010
0010
0000
,
0000
0000
0001
0100
0001
0000
0010
0000
,
1000
0001
1000
0000
,
0000
0000
0010
0100
0001
0000
1000
0000
,
0010
0000
0010
1000
0100
0000
0000
1000
,
0000
0000
1000
0100
0010
0000
0100
1000
,
0001
1001
0110
0000
,
1010
0000
0010
1000
0000
1000
0010
1000
,
0010
0000
0000
0000
0010
0001
0010
0001
,
0011
0000
0000
0001
0000
0001
0010
0001
,
0010
0000
0000
0000
0010
1000
0001
0000
,
1010
0000
0010
1000
0000
1000
0010
1000
,
0010
0000
0000
0000
0010
0001
0010
0001
,
0011
0000
0000
0001
0000
0001
0010
0001
,
0010
0001
0010
0100
,
1020
0000
0000
1000
0000
1000
0030
1000
,
0020
0000
0000
0000
0030
0000
0010
1000
,
0200
0000
0000
1000
0000
1000
0300
0001
,
0020
0230
2300
3002
,
2003
0000
0000
0010
0000
3010
0000
0100
,
0001
0020
0100
0001
,
0032
0000
0000
1000
0000
1000
0000
0103
,
0002
0203
0302
2003
,
3001
1000
0100
0100
0000
1000
0010
0100
,
0100
0000
0202
0000
0303
0010
1000
0010
,
0000
0100
0000
0001
0000
0010
0001
0100
,
0100
0000
0220
0000
0330
0001
1000
0010
,
0000
0001
0000
0100
0000
1000
0100
0010
,
0010
0000
0022
0000
0033
0010
0100
2000
,
0000
3001
0000
0100
0000
1000
0100
0000
,
0011
0101
0011
0101
,
1000
0000
0010
1000
0000
1000
0010
1000
,
0010
0000
0000
0000
0000
0000
0010
0001
,
0011
0000
0000
0001
0000
0001
0010
0001
,
0010
0000
0000
0000
0000
1000
0001
0100
,
0010
0000
0010
1000
0000
1000
0010
1000
,
0010
0000
0000
0000
0000
0000
0010
0001
,
0010
0000
0000
0001
0000
0001
0010
0001
,
0010
0000
0000
0000
0000
1000
0001
0100
;

//--------------- dance-single - Blood4Fame ----------------
#NOTES:
     dance-single:
     Blood4Fame:
     Hard:
     7:
     0,0,0,0,0:
0000
0000
0000
0000
,
0000
0000
0000
0000
,
0000
0000
0000
0000
,
0000
0000
0000
0000
,
0000
0000
0000
0000
,
0001
0000
1000
0001
0000
0001
0010
0100
,
1200
0001
1300
0000
,
1000
0000
0001
1000
0000
1000
0010
0100
,
0201
1000
0001
0310
,
0000
0000
1010
0000
0010
1000
0010
1000
,
0000
1100
0000
1000
0100
0000
0010
0001
,
0000
0000
0011
0000
0010
0001
0010
0001
,
0000
0101
0000
0001
0100
0000
0010
1000
,
0000
0000
1010
0000
0010
1000
0010
1000
,
0000
1100
0000
1000
0100
0000
0010
0001
,
0000
0000
0011
0000
0010
0001
0010
0001
,
0000
0101
0000
0001
0100
0000
0010
1000
,
0100
0000
0010
0001
0010
0000
0100
1000
,
0010
0000
0010
0000
0010
0000
1000
0100
,
0010
0000
0001
0100
0001
0000
0010
0100
,
1000
0001
1000
0000
,
1010
0000
0010
0100
0001
0000
1000
0100
,
0010
0000
0010
0001
0100
0000
0001
1000
,
0000
0000
1000
0100
0010
0010
0100
1000
,
0001
1001
0110
1001
,
1010
0000
0010
1000
0000
1000
0010
1000
,
0010
0000
1100
0000
0010
0001
0010
0001
,
0011
0000
0000
0001
0000
0001
0010
0001
,
0010
0000
0101
0000
0010
1000
0001
0100
,
1010
0000
0010
1000
0000
1000
0010
1000
,
0010
0000
1100
0000
0010
0001
0010
0001
,
0011
0000
0000
0001
0000
0001
0010
0001
,
0010
0101
1010
0110
,
1020
0000
0000
1000
0000
1000
0030
1000
,
0010
0000
1200
0000
0010
0000
0310
0001
,
0200
0000
0000
0001
0000
0301
0010
0001
,
0020
0230
1000
0001
,
2300
0000
0000
0010
0000
0010
0000
3100
,
1000
0021
0100
1000
,
0032
0000
0000
1000
0000
1000
0000
0103
,
0001
0200
0001
1000
,
0301
1000
0100
0100
0010
0001
0010
0100
,
0100
0000
2200
0000
3300
0010
0001
1000
,
0010
0100
0001
0001
0100
0010
1000
0100
,
0100
0000
0220
0000
0330
0001
1000
0010
,
0100
0001
0100
0100
0010
1000
0100
0010
,
0010
0000
0022
0000
0033
0010
0100
2000
,
0000
3001
0100
0100
0010
1000
0100
0000
,
0011
0101
1010
1100
,
1010
0000
0010
1000
0000
1000
0010
1000
,
0010
0000
1100
0000
0010
0001
0010
0001
,
0011
0000
0000
0001
0000
0001
0010
0001
,
0010
0000
0101
0000
0010
1000
0001
0100
,
1010
0000
0010
1000
0000
1000
0010
1000
,
0010
0000
1100
0000
0010
0001
0010
0001
,
0011
0000
0000
0001
0000
0001
0010
0001
,
0010
0000
0101
0000
0010
1000
0001
0100
;
