#TITLE:Here in the Moment;
#SUBTITLE:;
#ARTIST:Ruby Tuesday;
#TITLETRANSLIT:;
#SUBTITLETRANSLIT:;
#ARTISTTRANSLIT:;
#GENRE:Jazzy;
#CREDIT:Blood4Fame;
#MUSIC:music.mp3;
#BANNER:banner.png;
#BACKGROUND:bg.png;
#CDTITLE:;
#SAMPLESTART:57.913;
#SAMPLELENGTH:17.478;
#SELECTABLE:YES;
#OFFSET:0.000;
#BPMS:0.000=115.000
,8.000=57.500
,20.000=230.000
,24.000=115.000
,52.000=57.500
,56.000=115.000
,108.000=57.500
,110.000=115.000
,162.000=57.500
;
#STOPS:20.000=0.087
,20.333=0.087
,20.667=0.087
,21.000=0.087
,21.333=0.087
,21.667=0.087
,22.000=0.174
,22.667=0.087
,23.000=0.130
,23.500=0.130
;
#BGCHANGES:;
#FGCHANGES:;

//--------------- dance-single - Blood4Fame ----------------
#NOTES:
     dance-single:
     Blood4Fame:
     Beginner:
     2:
     0,0,0,0,0:
0000
0000
0000
0000
,
0000
0000
0000
0000
,
0000
0000
0000
0000
,
0000
0000
0000
0000
1000
0000
1000
1000
,
1000
0000
0001
0001
0001
0000
0001
0000
,
0100
0010
0100
0000
,
2000
0000
0000
0000
,
3000
0010
0000
0010
,
0000
0100
0000
0100
,
0100
0000
0100
0100
,
0100
0000
0010
0010
,
0010
0000
0100
0000
,
0001
0000
0010
0000
,
1000
0010
0001
0100
,
0010
0010
0010
0000
,
1000
1000
1000
0000
,
0100
0000
0010
0000
,
0001
0000
0100
0000
,
0010
0010
0010
0000
,
1000
1000
1000
0000
,
0001
0000
0001
0000
,
1000
0000
1000
0000
,
1100
0000
0000
0000
,
0011
0000
0000
0000
,
1001
0000
0001
0000
,
1010
0000
0010
0000
,
1100
0000
0100
0000
,
0011
0000
1000
1000
,
1000
0000
0001
0001
,
0001
0000
0100
0100
,
0100
0000
0010
0010
,
0010
0000
1000
0000
,
0001
0000
0100
0000
,
0001
0000
1000
0000
,
0010
0000
1000
0100
,
0010
0001
0100
0000
,
0100
0000
0010
0000
,
0010
0000
1000
0000
,
1000
0000
0001
0000
,
0001
0000
0200
0300
,
2000
3000
0100
0000
,
0002
0000
0000
0000
,
0003
0000
0000
0000
;

//--------------- dance-single - Blood4Fame ----------------
#NOTES:
     dance-single:
     Blood4Fame:
     Easy:
     3:
     0,0,0,0,0:
0000
0000
0000
0000
,
0000
0000
0000
0000
,
2020
0000
0000
3030
2200
0000
0000
3300
,
0202
0303
0022
0033
2000
0000
3000
0010
,
0200
0000
0000
0310
0002
0000
0003
0001
,
0001
1000
0100
0000
,
0020
0000
0000
0000
,
0030
0100
0010
0001
,
0200
0000
0000
0300
0010
0000
1000
0000
,
0002
0000
0003
0001
,
0200
0000
0300
0100
,
0020
0000
0030
0001
,
0200
0000
0000
0300
0000
0000
0100
0000
,
0000
0000
0000
0020
0000
0000
0000
0000
0030
0000
0000
0200
0000
0000
0000
0000
0300
0000
0000
2000
0000
0000
0000
0000
3000
0000
0000
0200
0000
0000
0000
0000
,
0301
0000
0001
0100
,
1000
0000
0100
0001
,
0200
0300
0202
0303
,
2020
3030
0202
0303
,
0010
0100
0200
0310
,
0200
0310
0200
0310
,
2200
3300
0220
0330
,
2002
3003
2020
3030
,
2000
3100
0020
0130
,
0200
0301
0010
1000
,
0220
0330
2020
3030
,
2002
3003
2200
3300
,
0020
0000
0000
0030
0100
0000
0100
0000
,
0020
0000
0000
0000
0000
0000
0000
0000
0000
0000
0000
0030
0000
0000
0000
0000
0001
0000
0000
0000
0000
0000
0000
0000
0001
0000
0000
0000
0000
0000
0000
0000
,
2020
3030
0000
0000
0010
0000
0010
0000
,
2200
3300
0000
0000
0100
0000
0100
0000
,
1000
0010
1000
0010
,
0000
0010
2200
3300
,
2000
3000
0200
0300
,
0020
0030
0100
0010
,
0100
0001
1000
1000
,
0100
1000
2000
3000
,
0200
0300
2000
3000
,
0020
0000
0030
0000
0002
0003
0001
0000
,
0020
0030
0010
0000
2000
3000
1000
0000
,
0020
0000
0030
0000
0010
0000
0000
0000
2000
0000
0000
0000
0000
0000
0000
3000
,
0020
0000
0000
0000
0000
0000
0030
0000
2002
3003
0000
0000
0000
0000
0000
0000
,
0200
0000
0000
0000
,
0000
0300
0000
0000
;

//--------------- dance-single - Blood4Fame ----------------
#NOTES:
     dance-single:
     Blood4Fame:
     Medium:
     5:
     0,0,0,0,0:
0000
0000
0000
0000
,
0000
0000
0000
0000
,
2020
3030
0001
0010
2200
3300
0010
0100
,
0202
0000
0303
0000
0021
0000
0031
0000
2020
0000
0000
0000
3030
0000
0022
0033
,
2020
0000
0000
0000
3030
0000
0220
0330
2002
0000
0000
0000
3003
0000
0020
0000
,
0031
0000
1000
0000
0100
0000
0100
0010
,
2002
0000
0000
0000
0000
0000
0000
3000
,
1003
0000
0100
0001
0010
0000
0001
0100
,
0200
0000
0000
0310
0000
0000
1000
0000
,
0001
0000
0001
0000
0001
0001
0001
1000
,
0100
0000
0100
0000
0100
0100
0100
0010
,
0200
0000
0000
0310
0000
0000
0001
1000
,
0200
0000
0000
1300
0000
0000
0100
1000
,
0100
0000
0000
0020
0000
0000
0000
0000
0031
0000
0000
0200
0000
0000
0000
0000
0310
0000
0000
2000
0000
0000
0000
0000
3001
0000
0000
0200
0000
0000
0000
0000
,
0301
0000
0001
0010
0001
0000
0100
0100
,
1000
0000
0100
0010
0100
0010
0001
1000
,
0100
0000
0001
0100
0101
0000
0001
1000
,
1010
0000
0001
0100
0101
0000
0001
0010
,
0011
0000
0000
0010
0200
0000
0300
1000
,
0200
0000
0300
0001
0200
0000
0300
1000
,
0200
0000
0300
0001
0200
0000
0300
0100
,
2000
0000
3000
0010
2000
0000
3000
0010
,
2000
0000
3100
1000
0020
0000
0130
1000
,
0200
0000
0301
1000
0010
0100
1000
0100
,
0020
0000
0030
1000
0020
0000
0030
0010
,
2000
0000
3000
0100
2000
0000
3000
0100
,
0020
0000
0000
0030
0100
0010
0100
1000
,
0020
0000
0000
0000
0000
0000
0000
0000
0000
0000
0000
0030
0000
0000
0000
0000
0000
0000
0000
0000
2200
0000
0000
0000
3300
0000
0000
0000
0000
0000
0000
0000
,
2020
3030
0000
0101
0000
2002
3003
0000
,
2200
3300
0000
0110
0000
0202
0000
0303
,
1000
0000
0000
0010
1000
0100
0010
0001
,
0010
0000
0010
0010
2200
0000
3300
0010
,
2000
0000
3000
0001
0200
0000
0300
0100
,
0000
0001
0100
0100
0100
0000
0010
1000
,
0100
0000
0001
1000
1000
0000
1000
0001
,
0100
0010
1000
0100
1000
0001
0001
0000
,
0100
0000
0010
0010
1000
1000
1000
0000
,
0100
0000
0100
0010
0001
0001
0001
0000
,
0010
0000
0010
0100
1000
1000
1000
0000
,
0010
0000
0000
0000
0010
0000
0100
0000
2000
0000
0000
0000
0000
0000
0000
3000
,
0020
0000
0000
0000
0000
0000
0030
0000
2002
3003
0000
0000
0000
0000
0000
0000
,
0200
0000
0000
0300
1000
0000
0100
0000
0020
0000
0000
0000
0000
0000
0000
0000
,
0030
0000
0000
0000
;

//--------------- dance-single - Blood4Fame ----------------
#NOTES:
     dance-single:
     Blood4Fame:
     Hard:
     8:
     0,0,0,0,0:
0000
0000
0000
0000
,
0000
0000
0000
0000
,
2020
3030
0001
0010
2200
3300
0010
0100
,
0202
0000
0000
0000
0303
0000
0000
0000
0021
0000
0000
0000
0031
0000
0000
0000
1010
0000
0000
1000
0100
0000
0000
0100
0010
0000
0001
0000
0022
0000
0033
0000
,
1010
0000
0000
0010
0100
0000
0001
0000
0010
0000
0001
0000
0220
0000
0330
0000
1001
0000
0000
0001
0100
0000
0010
0000
1000
0000
0100
0000
0010
0000
0001
0000
,
0001
0000
1000
0000
0010
0000
1000
0000
0100
0000
0010
0000
0100
0000
0000
0000
1000
0000
0100
0000
0000
0010
0000
0000
,
2002
0000
0000
0000
0000
0000
0000
3000
,
1003
0000
0000
0010
0100
0000
0001
0000
0010
0000
0000
0010
0001
0000
0100
0000
,
0200
0000
0000
0000
0000
0000
0310
0200
0000
0000
0000
0000
0000
0000
0300
0000
,
0001
0000
1000
0001
0000
1000
0000
1000
0000
1000
0000
1000
0001
0000
1000
0000
,
0100
0000
0010
0100
0000
0010
0000
0010
0000
0010
0000
0010
0100
0000
0010
0000
,
0100
0000
0000
1000
0000
0000
0010
0000
0000
0100
0000
0000
0001
0000
1000
0000
,
0100
0000
0000
0010
0000
0000
0001
0000
0000
0010
0000
0000
0100
0000
1000
0000
,
0100
0000
0000
0020
0000
0000
0000
0000
0031
0000
0000
0200
0000
0000
0000
0000
0310
0000
0000
2000
0000
0000
0000
0000
3001
0000
0000
0200
0000
0000
0000
0000
,
0301
0000
0000
1000
0001
0000
0010
0000
0001
0000
0000
1000
0100
0000
0100
0000
,
1000
0000
0000
1000
0100
0000
0010
0000
0100
0000
0010
0001
0000
0010
0100
0000
,
1100
0000
0000
1000
0001
0000
0100
0000
0011
0000
0000
1000
0001
0000
1000
0000
,
1010
0000
0000
1000
0001
0000
0100
0000
0101
0000
0000
1000
0001
0000
0010
0000
,
0011
0000
0000
1000
0000
0000
0010
0000
0100
0000
0000
0001
0000
0000
1000
0000
,
0100
0000
0000
0010
0000
0000
0001
0000
0100
0000
0000
0100
0000
0010
1000
0000
,
0100
0000
0000
1000
0000
0000
0001
0000
0100
0000
0000
0010
0000
0000
0100
0000
,
1000
0000
0000
0100
0000
0000
0010
0000
1000
0000
0000
0100
0000
0000
0010
0000
,
0001
0000
0000
0010
0100
0000
1000
0000
0010
0000
0000
1000
0100
0000
1000
0000
,
0100
0000
0010
0000
0001
0000
1000
0000
0010
0000
0100
0010
0000
1000
0100
0000
,
0010
0000
0000
0010
0000
0000
0001
0000
0010
0000
0000
0100
0000
0000
0010
0000
,
0001
0000
0000
0010
0000
0000
0100
0000
1000
0000
0000
0010
0000
0000
0100
0000
,
0001
0000
0010
0100
0000
0010
0000
0001
0100
0000
0010
1000
0000
0100
0000
1000
,
0020
0000
0000
0000
0000
0000
0000
0000
0000
0000
0000
0030
0000
0000
0000
0000
0000
0000
0000
0000
1100
0000
0000
0000
0000
0000
0011
0000
0000
0000
0000
0000
,
1010
0000
0000
0110
0000
0000
0101
0000
0000
0000
1001
0000
0000
1010
0000
0000
,
1100
0000
0000
0011
0000
0000
0110
0000
0000
0000
0001
0000
0100
0010
0000
0000
,
1000
0000
0000
1000
0100
0000
0010
0000
0001
0000
0100
0010
0000
1000
0000
0100
,
0010
0001
0000
0001
0010
0100
1000
0000
1100
0000
0001
0100
0000
0000
0010
0000
,
1000
0000
0100
0010
0000
0000
0001
0000
0200
0000
0000
0001
0300
0000
0100
0000
,
0000
0000
0001
0000
0000
0000
0100
0010
0000
0000
0100
0000
0010
0000
1000
0000
,
0100
0000
0000
0010
0001
0000
1000
0000
1000
0000
0000
0010
1000
0000
0001
0000
,
0100
0000
0010
0000
1000
0000
0100
0000
1000
0000
0001
0000
0001
1000
0000
1000
,
0000
0100
0000
1000
0100
0000
0010
0000
0001
0000
1000
0000
1000
0001
0000
0001
,
0000
0100
0000
0001
0100
0000
0010
0000
1000
0000
0001
0000
0001
1000
0000
1000
,
0000
0010
0000
1000
0010
0000
0100
0000
0001
0000
1000
0000
1000
0001
0000
0001
,
0000
0010
0000
0001
0010
0000
0100
0000
2000
0000
0000
0200
0000
0000
0000
3000
,
0020
0000
0300
0002
0000
0000
0030
0003
2002
3003
0000
0000
0000
0000
0000
0000
,
0200
0000
0000
0300
1000
0010
0100
0020
0000
0000
0000
0000
0000
0000
0000
0000
,
0000
0030
0000
0000
;

//--------------- dance-single - Blood4Fame ----------------
#NOTES:
     dance-single:
     Blood4Fame:
     Challenge:
     9:
     0,0,0,0,0:
0000
0000
0000
0000
,
0000
0000
0000
0000
,
0202
0000
0000
0000
0303
0000
0001
1000
0010
0100
0001
0100
0010
1000
0100
0000
0220
0000
0000
0000
0330
0000
0000
0001
0100
0010
1000
0100
0010
0001
0100
0000
,
0022
0000
0000
0000
0033
0000
0000
0000
0202
0000
0003
0000
0310
0000
0000
0000
1010
0000
0000
1000
0100
0000
0000
0100
0010
0000
0001
0000
0022
0000
0033
0000
,
1010
0000
0000
0010
0100
0000
0001
0000
0010
0000
0001
0000
0220
0000
0330
0000
1001
0000
0000
0001
0100
0000
0010
0000
1000
0000
0100
0000
0010
0000
0001
0000
,
0001
0000
1000
0000
0010
0000
1000
0000
0100
0000
0010
0000
0100
0000
0000
0000
1000
0000
0100
0000
0000
0010
0000
0000
,
2002
0000
0000
0000
,
3003
0000
0010
1000
0100
0010
0000
0100
0000
0001
0000
1000
0010
0100
0010
1000
,
0200
0000
0000
0000
0000
0000
0310
0200
0000
0000
0000
0000
0000
0000
0300
0000
,
1000
0000
1000
1000
0000
1000
0000
1000
0000
1000
0000
1000
1000
0000
1000
0000
,
0010
0000
0010
0010
0000
0010
0000
0010
0000
0010
0000
0010
0010
0000
0010
0000
,
0100
0000
0000
0001
0000
0000
0010
0000
0000
0100
0000
0000
0001
0000
1000
0000
,
0100
0000
0000
0010
0000
0000
0001
0000
0000
0010
0000
0000
0100
0000
1000
0000
,
0100
0000
0000
0020
0000
0000
0000
0000
0031
0000
0000
0200
0000
0000
0000
0000
0310
0000
0000
2000
0000
0000
0000
0000
3001
0000
0000
0200
1000
0000
0000
0000
,
0301
0000
0000
0000
0001
0000
0010
0000
0001
0010
0000
0000
1000
0000
0100
0000
,
1000
0000
0100
0010
0000
0000
0001
0000
0100
0000
0010
1000
0000
0010
1000
0000
,
1100
0000
0000
1000
0001
0000
0100
0000
0011
0000
0000
1000
0001
0000
1000
0000
,
1010
0000
0000
1000
0001
0000
0100
0000
0101
0000
0000
1000
0001
0000
0010
0000
,
0011
0000
0000
1000
0000
0000
0010
0000
0100
0000
0000
0001
0000
0000
1000
0000
,
0100
0000
0000
0010
0000
0000
0001
0000
0100
0000
0000
0100
0000
0010
1000
0010
,
0100
0000
0000
0100
0000
0000
0001
0000
0100
0000
0000
0010
0000
0000
0100
0000
,
1000
0000
0000
0100
0000
0000
0010
0000
1000
0000
0000
0100
0000
0000
0010
0000
,
0001
0000
0100
0010
0000
0100
0000
0001
0010
0000
0100
1000
0000
0010
0000
1000
,
0100
0000
0010
0100
0000
0001
0000
1000
0010
0000
0100
0010
0000
1000
0100
0000
,
0010
0000
0000
0010
0000
0000
0001
0000
0010
0000
0000
0100
0000
0000
0010
0000
,
0001
0000
0000
0010
0000
0000
0100
0000
1000
0000
0000
0010
0000
0000
0100
0000
,
0001
0000
0010
0100
0000
0010
0000
0001
0100
0000
0010
1000
0000
0100
0000
1000
,
0020
0000
1000
0000
0000
1000
1000
0000
1000
0000
0000
1030
0100
0010
0001
0010
0100
0000
0000
0000
1100
0000
0000
0000
0000
0000
0011
0000
0000
0000
0000
0000
,
1010
0000
0000
0110
0000
0000
0101
0000
0000
0000
1001
0000
0000
1010
0000
0000
,
1100
0000
0000
0011
0000
0000
0110
0000
0000
0000
0001
0000
0100
0010
0000
0000
,
0001
0000
0000
1000
0000
0100
0010
0000
0001
0000
0100
0010
0000
1000
0000
0100
,
0010
0001
0000
0001
0010
0100
1000
0000
1100
0000
0001
0100
0000
0000
0010
0000
,
1000
0000
0100
0010
0000
0000
0001
0000
0200
0000
0010
0000
0301
0000
0100
0000
,
0000
0001
0000
0000
1000
0000
0100
0010
0000
0000
0001
0100
0000
0000
0001
0000
,
0100
0000
0100
0010
0000
0010
1000
0000
1000
0000
0100
0010
0000
0010
0000
0001
,
0100
0000
0010
0000
1000
0000
0100
0000
1000
0000
0001
0000
0001
1000
0000
1000
,
0000
0100
0000
1000
0100
0000
0010
0000
0001
0000
1000
0000
1000
0001
0000
0001
,
0000
0100
0000
0001
0100
0000
0010
0000
1000
0000
0001
0000
0001
1000
0000
1000
,
0000
0010
0000
1000
0010
0000
0100
0000
0001
0000
1000
0000
1000
0001
0000
0001
,
0000
0010
0000
0001
0010
0000
0100
0000
2000
0000
0000
0200
0000
0000
0000
3000
,
0020
0000
0000
0000
0300
0000
0002
0000
0000
0000
0000
0000
0030
0000
0003
0000
2002
0000
3003
0000
0000
0000
0000
0000
0000
0000
0000
0000
0000
0000
0010
1000
,
0200
0000
0000
0000
0000
0000
0300
0000
1000
0100
0010
0001
0100
0010
2000
0000
0000
0000
0000
0000
0000
0000
0000
0000
0000
0000
0000
0000
0000
0000
0000
0000
,
0000
0000
3000
0000
;
