#TITLE:Groovin Up;
#SUBTITLE:;
#ARTIST:Mycin.T;
#TITLETRANSLIT:;
#SUBTITLETRANSLIT:;
#ARTISTTRANSLIT:;
#GENRE:Dance;
#CREDIT:Blood4Fame;
#MUSIC:Groovin Up.mp3;
#BANNER:Banner.png;
#BACKGROUND:BG.png;
#CDTITLE:;
#SAMPLESTART:50.741;
#SAMPLELENGTH:21.948;
#SELECTABLE:YES;
#OFFSET:1.259;
#BPMS:0.000=120.000;
#STOPS:;
#BGCHANGES:1.559=Groovin Up.avi=1.000=1=0=1===CrossFade==,
99999.000=-nosongbg-=1.000=0=0=0=StretchNoLoop====;
#FGCHANGES:;

//--------------- dance-single - Blood4Fame ----------------
#NOTES:
     dance-single:
     Blood4Fame:
     Beginner:
     3:
     0,0,0,0,0:
0000
0000
0000
0000
,
1001
0000
1001
0000
,
1001
0000
1001
0000
,
0110
0000
0110
0000
,
0110
0000
0110
0000
,
1000
0000
0100
0000
,
1000
0000
0100
0000
,
1000
0000
0010
0000
,
1000
0000
0010
0000
,
1000
0000
0001
0000
,
1000
0000
0001
0000
,
1000
0000
0010
0000
,
1000
0000
0010
0000
,
1000
1000
1000
0000
,
0010
0010
0010
0000
,
0001
0001
0001
0000
,
0100
0100
0100
0000
,
1000
1000
1000
0000
,
0010
0010
0010
0000
,
0100
0100
0100
0000
,
0001
0001
0001
0000
,
1001
1001
0000
0100
,
0000
0200
0000
0300
,
1001
1001
0000
0000
,
0000
0200
0000
0300
,
1001
1001
0000
0100
,
0000
0200
0000
0300
,
1001
1001
0000
0010
,
0000
0010
0000
0100
,
0010
0100
0010
0100
,
0010
0100
0010
0100
,
0010
0100
0010
0100
,
0010
0010
0020
0030
,
0010
0100
0010
0100
,
0010
0100
0010
0100
,
0200
0000
0300
0000
,
0100
0100
0100
0000
,
0010
0100
0010
0100
,
0010
0100
0010
0100
,
0010
0100
0010
0100
,
0010
0010
0020
0030
,
0010
0100
0010
0100
,
0100
0100
0010
0100
,
0002
0000
2003
0000
,
3001
1000
0001
1000
,
0000
1001
0000
1001
,
0000
1001
0000
1001
,
0000
0110
0000
0110
,
0000
0110
0000
0110
,
0000
1100
0000
1100
,
0000
1100
0000
1100
,
0000
0011
0000
0011
,
0022
0000
0033
0000
,
1001
0100
1001
0000
,
1001
0100
1001
0000
,
1001
0010
1001
0000
,
1001
0010
1001
0000
,
0001
0010
0100
0000
,
0001
0010
0100
0000
,
1000
0100
0010
0000
,
1000
0100
0020
0000
,
0030
0000
0000
0000
;

//--------------- dance-single - Blood4Fame ----------------
#NOTES:
     dance-single:
     Blood4Fame:
     Medium:
     5:
     0,0,0,0,0:
0000
0000
0000
0000
,
0000
1001
0000
1001
,
0000
0000
0000
0000
0010
0100
0000
0000
0100
0000
0000
0000
1001
0000
0000
0000
,
0000
1001
0000
1001
,
0000
0000
0010
0000
0010
0001
1000
0000
,
1001
0000
1001
0000
2002
0000
3000
0003
0000
0000
0000
0000
0010
0000
0000
0000
,
1100
0010
0100
0010
,
1001
0000
1001
0000
2002
0000
0003
3000
0000
0000
0000
0000
0010
0000
0000
0000
,
0101
0010
0100
0010
,
1001
0000
1001
0000
2002
0000
3000
0003
0000
0000
0000
0000
0100
0000
0000
0000
,
1010
0100
1000
0100
,
1001
0000
1001
0000
2002
0000
0003
3000
0000
0000
0000
0000
0100
0000
0000
0000
,
0022
0000
0000
0000
0000
0000
0000
0030
0003
0000
2002
0000
0000
0000
0000
0000
,
0000
3003
0000
0000
0010
0000
0100
0000
2200
0000
0000
3300
0000
0000
2000
0000
,
0200
0000
3300
0000
,
0000
0000
0000
0000
0100
0000
0010
0000
0022
0000
0000
0033
0000
0000
0001
0000
,
0200
0000
0000
0300
0002
0000
0000
0000
0200
0000
0000
0000
0300
0003
0000
0000
,
0000
0000
0010
0100
0010
0000
0100
0000
,
0022
0000
0000
0000
0000
0000
0000
0033
0000
0000
0000
0000
0000
0000
0000
0000
,
0000
0000
0100
0010
0100
0000
1000
0000
,
0200
0000
0000
0300
0020
0000
0000
0030
0001
0000
0000
0000
0001
0000
0000
0000
,
0010
0001
0010
0000
0000
0010
0000
1000
,
0000
0010
0000
0010
0000
0100
0000
0000
,
0010
0100
0010
0000
0000
0100
0000
0010
,
0000
0001
0000
0010
0000
0010
0000
0000
,
0010
0100
0010
0000
0000
0010
0000
0100
,
0000
1000
0000
0100
0000
1000
0000
0000
,
0010
0100
0010
0000
0000
1001
0000
1000
,
0001
0000
0001
0000
0000
0000
0000
0000
0200
0000
2000
0000
0000
3300
0000
0000
,
0000
1000
0010
0000
0010
0000
0000
0100
,
0000
0000
1000
0000
0100
0000
1000
0000
0100
0000
0000
1000
0000
0000
0200
0000
,
0000
0000
0000
0020
0000
0000
0330
0000
,
1000
0000
0000
0000
0010
0000
0000
0000
0001
0000
0000
0001
0000
0000
0001
0000
,
0000
0000
0100
0000
0010
0000
0000
0001
,
0000
0000
0000
0001
0000
0000
0100
0000
0000
0001
0000
0000
0100
0000
0000
0000
0002
0000
0000
0000
0000
0200
0000
0000
,
0000
0000
0000
0303
,
1000
0000
0010
0000
1001
2002
0000
3003
,
0000
0000
0001
0000
0010
0000
0000
0000
1000
0000
0000
0010
0000
0000
0010
0000
,
0000
0000
0001
0000
0010
0000
0000
0000
0010
0000
0000
0001
0000
0000
0020
0000
,
0000
0000
0000
0200
0000
0000
0330
0000
,
0010
0000
0000
0000
0100
0000
0000
0000
0100
0000
0000
0001
0000
0000
0010
0000
,
0000
0000
0000
0000
0100
0000
0000
0000
0001
0000
0000
0100
0000
0000
1000
0000
,
0000
0000
0000
1000
0000
0000
0100
0000
0000
1000
0000
0000
0100
0000
0000
0000
2000
0000
0000
0000
0000
0200
0000
0000
,
0000
3000
0000
0000
0000
0000
0010
0000
0000
0000
0000
0000
0300
0000
0000
0000
,
0011
0000
0011
0000
0011
0000
0011
0000
0022
0000
0030
0003
0000
0000
0000
0000
,
1000
0010
0010
0000
1000
0010
0010
0000
,
1000
0010
0010
1000
0010
0010
1000
0000
,
1000
0100
0100
0000
1000
0100
0100
0000
,
1000
0100
0100
1000
0100
0100
1000
0000
,
0001
0010
0010
0000
0001
0010
0010
0000
,
0001
0010
0010
0001
0010
0010
0001
0000
,
0001
0100
0100
0000
0001
0100
0100
0000
,
0001
0100
0100
0001
0100
0100
0100
0100
,
0001
0000
0000
0000
2002
0000
3000
0003
0000
0000
0000
0000
0010
0000
0000
0000
,
1000
0010
0100
0010
,
1001
0000
0000
0000
2002
0000
0003
3000
0000
0000
0000
0000
0010
0000
0000
0000
,
0100
0010
0100
0010
,
1001
0000
0000
0000
2002
0000
3000
0003
0000
0000
0000
0000
0100
0000
0000
0000
,
0010
0100
0010
0100
,
1001
0000
1001
0000
1001
0000
0002
2000
0000
0000
3000
0000
0100
0003
0000
0000
,
0200
0000
0000
0000
0000
0000
0300
0000
0000
0000
0020
0000
0000
0000
0000
0030
;

//--------------- dance-single - Blood4Fame ----------------
#NOTES:
     dance-single:
     Blood4Fame:
     Hard:
     8:
     0,0,0,0,0:
0000
0000
0000
0000
,
0100
0000
0000
0000
1001
0000
0000
0010
0100
0000
0000
0000
1001
0000
0000
0000
,
0100
0000
0000
0000
0010
0100
0000
0000
0100
0000
0000
0000
1001
0000
0000
0000
,
0100
0000
0000
0000
1001
0000
0000
0010
0100
0000
0000
0000
1001
0000
0000
0000
,
0100
0000
0100
0000
0010
0000
0000
0100
0010
0000
0001
0000
1000
0000
0000
0000
,
1001
0000
1001
0000
1001
0000
1000
0001
0000
0000
0000
0000
0010
0000
0000
0000
,
2100
0000
0010
0000
0100
3000
0010
0000
,
1001
0000
1001
0000
1001
0000
0001
1000
0000
0000
0000
0000
0010
0000
0000
0000
,
0102
0000
0010
0000
0100
0003
0010
0000
,
1001
0000
1001
0000
1001
0000
1000
0001
0000
0000
0000
0000
0100
0000
0000
0000
,
1020
0000
0100
0000
1000
0030
0100
0000
,
1001
0000
1001
0000
1001
0000
0001
1000
0000
0000
0000
0000
0100
0000
0000
0000
,
0022
0000
0000
0000
0000
0000
0000
0030
0003
0000
2002
0000
0000
0000
0000
0000
,
0000
3003
0000
0000
0010
0000
0100
0000
1100
0000
0000
1100
0000
0000
1000
0000
,
0200
0000
0300
0000
,
0000
0000
0000
0000
0100
0000
0010
0000
0011
0000
0000
0011
0000
0000
0001
0000
,
0200
0000
0000
0000
0002
0000
0000
0300
0100
0000
0000
0000
0000
0003
0000
0000
,
0000
0000
0000
0000
0010
0000
0100
0000
0020
0000
0000
1030
0000
0000
0100
0000
,
0010
0000
0002
0020
0000
0000
0000
0000
0000
0000
0033
0000
0000
0000
0000
0000
,
0000
0000
0000
0000
0100
0000
0010
0000
0100
0000
0000
0001
0000
0000
1000
0000
,
0200
0000
0000
0300
0020
0000
0000
0030
0001
0000
0001
0010
0000
0000
0000
0000
,
0010
0000
0010
0001
0010
0000
0000
0000
0000
0000
0010
0000
0000
0000
1000
0000
,
0000
0000
0010
0000
0000
0000
0010
0000
0100
0000
0100
0010
0000
0000
0000
0000
,
0010
0100
0010
0000
0000
0100
0000
0010
,
0000
0000
0001
0000
0000
0000
0010
0000
0100
0000
0010
0100
0000
0000
0000
0000
,
0010
0100
0010
0000
0000
0010
0000
0100
,
0000
0000
1000
0000
0000
0000
0100
0000
1000
0000
1000
0100
0000
0000
0000
0000
,
0010
0100
0010
0000
0000
1001
0000
1000
,
0001
0000
0001
0010
0000
0000
0000
0000
0200
0000
2000
0000
0000
3300
0000
0000
,
0000
0000
1000
0000
0100
0000
0010
0000
0001
0000
0000
0010
0000
0000
2200
0000
,
3000
0000
2300
0000
3200
0000
2300
0000
3200
0000
0000
2300
0000
0000
0200
0000
,
0000
0000
3000
0020
0000
0000
0330
0000
,
2100
0000
3100
0000
0210
0000
0310
0000
0011
0000
0000
1001
0000
0000
0101
0000
,
0000
0000
0001
0000
0100
0000
0010
0000
1000
0000
0000
0110
0000
0000
0202
0000
,
0003
0000
0000
0000
0000
0000
0302
0000
0000
0000
0000
0000
0203
0000
0000
0000
0000
0000
0302
0000
0000
0000
0000
0000
0203
0000
0000
0000
0000
0000
0000
0000
0002
0300
0000
0000
0000
0000
0000
0000
0000
0000
0200
0000
0000
0000
0000
0000
,
0000
0000
0000
0303
,
1000
0100
0010
0001
1001
2002
0000
3003
,
0000
0000
0001
0000
0010
0000
0100
0000
1000
0000
0000
0110
0000
0000
0022
0000
,
0003
0000
0032
0000
0023
0000
0032
0000
0023
0000
0000
0032
0000
0000
0020
0000
,
0000
0000
0003
0200
0000
0000
0330
0000
,
0012
0000
0013
0000
0120
0000
0130
0000
1100
0000
0000
1001
0000
0000
1010
0000
,
0000
0000
1000
0000
0100
0000
0010
0000
0001
0000
0000
0110
0000
0000
2200
0000
,
3000
0000
0000
0000
0000
0000
2300
0000
0000
0000
0000
0000
3200
0000
0000
0000
0000
0000
2300
0000
0000
0000
0000
0000
3200
0000
0000
0000
0000
0000
0000
0000
2000
0300
0000
0000
0000
0000
0000
0000
0000
0000
0200
0000
0000
0000
0000
0000
,
0000
0000
0000
3000
0000
0000
0020
0000
0000
0000
0000
0000
0330
0000
0000
0000
,
0011
0000
0011
0000
0011
0000
0011
0000
0011
0000
0020
0002
0033
0000
0000
0000
,
1000
0000
0010
1000
0010
0000
0000
0000
1000
0000
0010
1000
0010
0000
0000
0000
,
1000
0000
0010
1000
0010
0000
1000
0000
0010
1000
0010
0000
1000
0000
0000
0000
,
1000
0000
0100
0010
0100
0000
0000
0000
1000
0000
0100
0010
0100
0000
0000
0000
,
1000
0000
0100
0010
0100
0000
1000
0000
0100
0010
0100
0000
1000
0000
0000
0000
,
0001
0000
0010
0100
0010
0000
0000
0000
0001
0000
0010
0100
0010
0000
0000
0000
,
0001
0000
0010
0100
0010
0000
0001
0000
0010
0100
0010
0000
0001
0000
0000
0000
,
0001
0000
0100
0010
0100
0000
0000
0000
0001
0000
0100
0010
0100
0000
0000
0000
,
0001
0000
0100
0000
0100
0000
0001
0000
0100
0001
0100
0001
0100
0001
0100
0001
,
0001
0000
0001
0000
0001
0000
2000
0002
0000
0000
0003
0000
0010
3000
0000
0000
,
2100
0000
0010
0000
0100
3000
0010
0000
,
1001
0000
1001
0000
1001
0000
0002
2000
0000
0000
3000
0000
0010
0003
0000
0000
,
0102
0000
0010
0000
0100
0003
0010
0000
,
1001
0000
1001
0000
1001
0000
2000
0002
0000
0000
0003
0000
0100
3000
0000
0000
,
2010
0000
0100
0000
0010
3000
0100
0000
,
1001
0000
1001
0000
1001
0000
0002
2000
0000
0000
3000
0000
0100
0003
0000
0000
,
2200
0000
0000
0000
0000
0000
3300
0000
0000
0000
0220
0000
0000
0000
0000
0330
;

//--------------- dance-single - Blood4Fame ----------------
#NOTES:
     dance-single:
     Blood4Fame:
     Challenge:
     10:
     0,0,0,0,0:
0000
0000
0000
0000
,
0100
0000
0000
0000
1001
0000
0000
0010
0100
0000
0000
0000
1001
0000
0000
0000
,
0100
0000
0000
0000
0010
0100
0000
0000
0100
0000
0000
0000
1001
0000
0000
0000
,
0100
0000
0000
0000
1001
0000
0000
0010
0100
0000
0000
0000
1001
0000
0000
0000
,
0100
0000
0100
0000
0010
0100
0000
0100
0010
0000
0001
0000
1000
0100
0010
0000
,
1001
0000
1001
0000
1001
0000
2000
0002
0000
0000
0003
0000
0010
3000
0000
0000
,
2200
0000
0000
0300
3010
0000
0000
0000
2200
0000
0000
0300
3010
0000
0000
0000
,
1001
0000
1001
0000
1001
0000
0002
2000
0000
0000
3000
0000
0010
0003
0000
0000
,
0202
0000
0000
0300
0013
0000
0000
0000
0202
0000
0000
0300
0013
0000
0000
0000
,
1001
0000
1001
0000
1001
0000
2000
0002
0000
0000
0003
0000
0100
3000
0000
0000
,
2020
0000
0000
0030
3100
0000
0000
0000
2020
0000
0000
0030
3100
0000
0000
0000
,
1001
0000
1001
0000
1001
0000
0002
2000
0000
0000
3000
0000
0100
0003
0000
0000
,
0022
0030
0200
0000
0303
0022
0000
0000
,
0000
0033
0000
0000
0010
0000
0100
0000
1100
0000
0000
1100
0000
0000
1000
0000
,
0200
0010
0300
0011
,
0000
0000
0000
0000
0100
0000
0010
0000
1010
0000
0000
1010
0000
0000
0002
0000
,
0200
0000
0000
0003
0002
0000
0000
0300
2000
0000
0000
0000
0000
3003
0000
0000
,
0000
0000
0000
0000
0010
0000
0100
0000
0020
0000
0000
1030
0000
0000
0100
0000
,
0010
0000
0002
0020
0000
0000
0000
0000
0033
0000
0000
0000
1100
0000
0000
0000
,
0000
0000
0000
0000
0100
0000
0010
0000
0200
0000
0000
0301
0000
0000
2000
0000
,
0020
0000
0000
3000
0230
0000
0000
0000
0301
0000
0002
0100
0003
0000
0000
0000
,
0010
0100
0010
0001
0010
0000
0000
0000
0000
0000
0110
0000
0000
0000
1010
0000
,
0000
0000
1010
0000
0000
0000
0110
0000
0110
0000
0200
0020
0000
0330
0000
0000
,
0010
0100
0010
1000
0010
0000
0000
0000
0000
0000
0110
0000
0000
0000
0011
0000
,
0000
0000
0011
0000
0000
0000
0110
0000
0110
0000
0020
0200
0000
0000
0330
0000
,
0010
0100
0010
1000
0010
0000
0000
0000
0000
0000
0110
0000
0000
0000
1100
0000
,
0000
0000
1100
0000
0000
0000
1100
0000
1100
0000
2000
0200
0000
0000
3300
0000
,
0010
0100
0010
1000
0010
0000
0000
0000
0000
0000
1001
0000
0000
0000
1001
0000
,
1001
0000
0001
0200
0000
0000
0300
0000
0020
0000
2000
0000
0000
3030
0000
0000
,
0000
0000
1100
0000
0110
0000
0011
0000
0011
0000
0000
0110
0000
0000
2200
0000
,
3000
0000
2300
0000
3200
0000
2300
0000
3200
0000
0000
2300
0000
0000
0200
0000
,
0000
0000
3000
0020
0000
0000
0330
0000
,
1100
0000
1100
0000
0110
0000
0110
0000
0022
0033
0000
2002
3003
0000
0101
0000
,
0000
0000
0101
0000
0110
0000
1010
0000
1010
0000
0000
0110
0000
0000
0202
0000
,
0003
0000
0000
0000
0000
0000
0302
0000
0000
0000
0000
0000
0203
0000
0000
0000
0000
0000
0302
0000
0000
0000
0000
0000
0203
0000
0000
0000
0000
0000
0000
0000
0002
0300
0000
0000
0000
0000
0000
0000
0000
0000
0200
0000
0000
0000
0000
0000
,
0000
0000
0000
0303
,
1000
0100
0010
0001
1001
2002
0000
3003
,
0000
0000
0011
0000
0110
0000
1100
0000
1100
0000
0000
0110
0000
0000
0022
0000
,
0003
0000
0032
0000
0023
0000
0032
0000
0023
0000
0000
0032
0000
0000
0020
0000
,
0000
0000
0003
0200
0000
0000
0330
0000
,
0011
0000
0011
0000
0110
0000
0110
0000
2200
3300
0000
2002
3003
0000
1010
0000
,
0000
0000
1010
0000
0110
0000
1010
0000
1010
0000
0000
0110
0000
0000
2200
0000
,
3000
0000
0000
0000
0000
0000
2300
0000
0000
0000
0000
0000
3200
0000
0000
0000
0000
0000
2300
0000
0000
0000
0000
0000
3200
0000
0000
0000
0000
0000
0000
0000
2000
0300
0000
0000
0000
0000
0000
0000
0000
0000
0200
0000
0000
0000
0000
0000
,
0000
0000
0000
3000
0000
0000
0020
0000
0000
0000
0000
0000
0330
0000
0000
0000
,
0011
0000
0011
0000
0110
0000
1100
0000
1010
0000
1000
0002
0003
0000
0000
0000
,
1000
0100
0010
0001
0010
0000
0000
0000
1000
0100
0010
0001
0010
0000
0000
0000
,
1000
0100
0010
0001
0010
0100
1000
0100
0010
0001
0010
0100
1000
0000
0000
0000
,
1000
0010
0100
0001
0100
0000
0000
0000
1000
0010
0100
0001
0100
0000
0000
0000
,
1000
0010
0100
0001
0100
0010
1000
0010
0100
0001
0100
0010
1000
0000
0000
0000
,
1000
0100
0010
0001
0010
0000
0000
0000
1000
0100
0010
0001
0010
0000
0000
0000
,
0001
0100
0010
1000
0010
0100
0001
0100
0010
1000
0010
0100
0001
0000
0000
0000
,
0001
0010
0100
1000
0100
0000
0000
0000
0001
0010
0100
1000
0100
0000
0000
0000
,
1000
0010
0100
0001
0100
0010
1000
0010
0100
0001
0100
0001
0100
0001
0100
0001
,
1001
0000
1001
0000
1001
0000
2000
0002
0000
0000
0003
0000
0010
3000
0000
0000
,
2200
0000
0000
0300
3010
0000
0000
0000
2200
0000
0000
3300
0010
0000
0000
0000
,
1001
0000
1001
0000
1001
0000
0002
2000
0000
0000
3000
0000
0010
0003
0000
0000
,
0202
0000
0000
0300
0013
0000
0000
0000
0202
0000
0000
0303
0010
0000
0000
0000
,
1001
0000
1001
0000
1001
0000
2000
0002
0000
0000
0003
0000
0100
3000
0000
0000
,
2020
0000
0000
0030
3100
0000
0000
0000
2020
0000
0000
3030
0100
0000
0000
0000
,
1001
0000
1001
0000
1001
0000
0002
2000
0000
0000
3000
0000
0100
0003
0000
0000
,
2200
0000
0000
0000
0000
0000
3300
0000
0000
0000
0220
0030
0300
0010
0100
0010
;
