#TITLE:Get on Top;
#SUBTITLE:;
#ARTIST:Planet Boom;
#TITLETRANSLIT:;
#SUBTITLETRANSLIT:;
#ARTISTTRANSLIT:;
#GENRE:Rock;
#CREDIT:Blood4Fame;
#MUSIC:Get on Top.mp3;
#BANNER:Banner.png;
#BACKGROUND:BG.png;
#CDTITLE:;
#SAMPLESTART:25.958;
#SAMPLELENGTH:23.330;
#SELECTABLE:YES;
#OFFSET:-0.038;
#BPMS:0.000=125.000;
#STOPS:;
#BGCHANGES:;
#FGCHANGES:;

//--------------- dance-single - Blood4Fame ----------------
#NOTES:
     dance-single:
     Blood4Fame:
     Easy:
     3:
     0,0,0,0,0:
0000
0000
0000
0000
,
0000
0000
0000
0000
,
0000
0000
0000
0000
,
0000
0000
0000
0000
,
0000
0000
0000
0000
,
1000
0001
0100
0010
,
0100
1000
0100
0000
,
0001
0010
0100
0000
,
0100
1000
0100
0000
,
0001
0000
0010
0000
0000
0000
0022
0033
,
0100
0001
0100
0000
,
1000
0010
0001
0000
,
0100
0001
0100
0000
,
1000
0000
0010
0000
0000
0000
2020
3030
,
0010
0000
0010
0000
0002
0003
1000
0000
,
0010
0000
0000
0100
0000
0000
0000
0000
,
1000
0000
0000
0100
0000
0000
0010
0000
0000
0000
0000
0000
0000
0000
0000
0000
,
0200
0000
0000
0000
0300
0100
0000
0000
,
0022
0033
0010
0001
,
0001
0010
0000
0000
,
0100
0010
0001
0010
,
0200
0000
0300
0000
,
0001
0000
0020
0000
0000
0030
0000
0000
,
0100
0000
1000
0100
,
0001
0000
0020
0000
0000
0030
0000
0000
,
0100
0010
0000
0001
,
0001
0000
0020
0000
0000
0030
0000
0000
,
0100
0000
0010
0010
,
0001
0000
0020
0000
0000
0030
1000
0000
,
0000
0010
0010
1000
,
2200
0300
0000
0000
,
0001
3000
0000
0000
0000
0000
0100
0000
,
2000
0000
0000
0000
,
0010
3000
0001
0000
0010
0000
0100
0000
,
0200
0000
1000
0000
,
0300
0010
0100
1001
,
0002
0000
1000
0003
0000
0000
0100
0000
,
2000
3000
2000
3000
2000
3000
2000
3000
,
0010
0000
0000
0100
0000
0000
0000
0000
2000
0000
3000
0000
0001
0000
0000
0000
,
0010
0100
0100
0000
,
0001
0000
0000
0100
0000
0000
0010
0000
0000
0000
0000
0000
0000
0000
0000
0000
,
0200
0000
0000
0000
0000
0000
0000
0000
0300
0000
0100
0000
0000
0010
0000
0000
,
0020
0030
0010
1000
,
1000
0010
0100
0000
,
0100
0100
1000
0100
,
0200
0000
1300
0000
,
1000
0000
0020
0000
0000
0030
0100
0000
,
1000
0100
0000
0100
,
1000
0000
0020
0000
0000
0030
1000
0000
,
0100
0010
1000
0000
,
1000
0000
0020
0000
0000
0030
0100
0000
,
1000
0100
0010
0100
,
1000
0000
0020
0000
0000
0030
1000
0000
,
0100
0010
0010
0001
,
0100
0000
0100
1000
,
0000
0000
0000
1000
,
0010
1000
0100
0001
,
0001
0001
1000
2000
,
3022
0000
0003
0030
0100
0000
0001
0000
,
0010
0000
0001
0000
0011
0000
0020
0030
,
0010
0000
0000
0000
0000
0000
0200
0300
,
0200
0000
2300
3000
0100
0000
0200
0300
,
1000
0001
0001
1010
,
1000
0000
0010
0000
0000
0000
0020
0030
,
0220
0330
0000
0000
0000
0000
0000
0000
;

//--------------- dance-single - Blood4Fame ----------------
#NOTES:
     dance-single:
     Blood4Fame:
     Medium:
     6:
     0,0,0,0,0:
0000
0000
0000
0000
,
0000
0000
0000
0000
,
0000
0000
0000
0000
,
0000
0000
0000
0000
,
0000
0000
0000
0000
,
2100
0000
0001
0000
0100
0000
0010
3000
,
0101
1000
1000
0000
0101
0001
0000
0000
,
0001
1000
0010
1000
0100
1000
0000
0100
,
0100
1000
1000
0000
0101
0001
0000
0000
,
0001
1000
0010
1000
0000
0000
0022
0033
,
1100
0001
0001
0000
1100
1000
0000
0000
,
1000
0001
0010
0001
0001
0010
0000
0100
,
0100
0001
0001
0000
1100
1000
0000
0000
,
1000
0001
0010
0001
0000
0000
2020
3030
,
0010
0000
0000
0010
0000
0000
0100
0000
0002
0000
0013
0000
1000
0000
1000
0000
,
0010
0002
0003
0002
0000
0000
0000
0000
,
1003
0000
0000
0100
0000
0000
0020
0000
0000
0000
0000
0000
0030
0000
0000
0000
,
0200
0000
0000
0000
0000
0000
0000
0000
0300
0000
1100
0000
0000
0100
0000
0000
,
0022
0000
0033
1000
0010
0100
0001
1000
,
0001
0100
0010
0010
0000
2000
0000
3000
,
0100
0100
0010
0010
0001
0010
0010
0010
,
0200
0000
0000
0002
0300
0000
0000
0003
,
0001
1000
0020
0000
0000
0230
0000
0302
,
0000
2003
0000
3000
1000
0000
0100
0000
,
0001
1000
0020
0000
0000
2030
0000
0002
,
3000
1000
0013
0000
0000
0200
0000
0000
,
0301
1000
0020
0000
0000
0230
0000
0302
,
0000
2003
0000
0000
0010
0000
0010
3000
,
0001
1000
0020
0000
0000
2030
0000
3002
,
0000
1003
0010
0000
0010
0001
1000
0000
,
2200
0000
0300
0200
0000
0000
0000
0000
,
0300
3200
0000
0302
0000
0023
0000
1030
,
2000
0000
0000
0200
0000
0000
0000
0000
,
0300
3100
0001
0010
0010
1000
0100
0001
,
0200
0000
0000
2000
0000
0000
0000
0000
,
3300
1000
0010
1000
0100
1000
1001
1000
,
0002
0000
0000
0203
0000
0301
0100
0000
,
2000
3010
2000
3001
2000
3100
2000
3010
,
0010
0000
0000
0100
0000
0000
0100
0000
2000
0000
3010
0000
0001
0000
0001
0000
,
0010
2000
3000
2000
0000
0000
0000
0000
,
3001
0000
0000
0100
0000
0000
0020
0000
0000
0000
0000
0000
0030
0000
0000
0000
,
0200
0000
0000
0000
0000
0000
0000
0000
0300
0000
0101
0000
0000
0010
0000
0000
,
2020
0000
3030
0001
0010
0100
1000
0001
,
1000
0100
0010
0010
0000
0002
0000
0003
,
0100
0000
0100
0000
0100
0000
1000
0000
1000
0000
0000
0100
0000
0000
0010
0000
,
0200
0000
0000
2000
0300
0000
0000
3000
,
1000
0001
0020
0000
0000
0230
0000
2300
,
0000
3002
0000
0003
0000
0000
0100
0000
,
1000
0001
0020
0000
0000
0032
0000
2000
,
0003
0001
3010
0000
1000
0200
0000
0000
,
1300
0001
0020
0000
0000
0230
0000
2300
,
0000
3002
0000
0000
0010
0000
0100
0003
,
1000
0001
0020
0000
0000
0032
0000
2003
,
0000
3001
0010
0000
0010
1000
0001
0200
,
0000
0300
0000
0100
0100
0001
1000
1000
,
0000
0000
0000
0010
0000
1000
1000
1000
,
0010
0100
1000
0010
0100
0100
0001
0001
,
0001
0100
0001
0002
1003
0000
2000
0000
,
3022
0000
0003
0031
0100
0100
0001
0010
,
0010
0010
0001
0010
0011
1000
0020
0030
,
0010
0000
0000
0200
0000
2300
3200
2300
,
3200
0000
2300
3000
0000
2000
3200
0300
,
1000
0000
0001
0000
0001
0110
1010
0000
,
1000
1000
0010
0000
0000
0000
0020
0030
,
0220
0330
0000
0000
0000
0000
0000
0000
;

//--------------- dance-single - Blood4Fame ----------------
#NOTES:
     dance-single:
     Blood4Fame:
     Hard:
     8:
     0,0,0,0,0:
0000
0000
0000
0000
,
0000
0000
0000
0000
,
0000
0000
0000
0000
,
0000
0000
0000
0000
,
0000
0000
0000
0000
,
2100
0000
0001
0000
0100
0000
0010
3000
,
0101
0000
1000
0000
1000
0100
0000
0000
0101
0000
0001
0100
0000
0000
0000
0000
,
0001
0000
1000
0000
0010
0000
1000
0001
0100
0000
1000
0100
0000
1000
0100
0000
,
0100
0000
1000
0000
1000
0100
0000
0000
0101
0000
0001
0100
0000
0000
0000
0000
,
0001
0000
1000
0000
0010
0100
1000
0000
0000
0100
0000
0000
0022
0000
0033
0000
,
1100
0000
0001
0000
0001
0100
0000
0000
1100
0000
1000
0100
0000
0000
0000
0000
,
1000
0000
0001
0000
0010
0000
0001
1000
0001
0000
0010
0001
0000
0010
0100
0000
,
0100
0000
0001
0000
0001
0100
0000
0000
1100
0000
1000
0100
0000
0000
0000
0000
,
1000
0000
0001
0000
0010
0100
0001
0000
0000
0100
0000
0000
2020
0000
3030
0000
,
0010
0000
0000
0010
0000
0000
0100
0000
0002
0000
0013
0100
1000
0000
1000
0100
,
0010
0002
0003
0002
0000
0000
0000
0000
,
1003
0000
0000
0100
0000
0000
0020
0000
0000
0000
0000
0000
0030
0000
0000
1000
,
0200
0000
0000
0000
0000
0000
0000
0000
0300
0000
1100
0000
0000
1001
0000
0000
,
0022
0000
0000
0000
0033
0000
1000
0100
0010
0000
0100
0010
0001
0000
1000
0010
,
0001
0000
0100
0001
0010
0000
0010
0001
0000
0100
2000
0000
0000
0000
3000
0000
,
0100
1000
0000
0010
0000
0010
0000
1000
0000
0010
0000
0100
0000
1000
0000
0001
,
0200
0000
0000
0002
0300
0000
0000
0003
,
0001
0000
1000
0100
0020
0000
0000
0000
0000
0000
0230
0000
0000
0000
0302
0000
,
0000
0000
2003
0000
0000
0000
3000
0000
1000
0000
0000
0010
0000
0001
0000
0000
,
0001
0000
1000
0100
0020
0000
0000
0000
0000
0000
2030
0000
0000
0000
0002
0000
,
3000
0000
1000
0000
0013
0100
0000
0100
0000
0000
0200
0000
0000
0000
0000
0000
,
0301
0000
1000
0100
0020
0000
0000
0000
0000
0000
0230
0000
0000
0000
0302
0000
,
0000
2003
0000
0000
0000
0000
0000
3000
,
0001
0000
1000
0100
0020
0000
0000
0000
0000
0000
2030
0000
0000
0000
3002
0000
,
0000
0000
1003
0000
0010
0100
0000
0100
0010
0000
0001
0000
1000
0000
0000
0000
,
2200
0000
0300
0200
0000
0000
0000
0000
,
0300
3200
0000
0302
0000
0023
0000
1030
,
2000
0000
0000
0200
0000
0000
0000
0000
,
0300
3100
0001
0010
0010
1000
0100
0001
,
0200
0000
0000
2000
0000
0000
0000
0000
,
3300
1000
0010
1000
0100
1000
1001
1000
,
0002
0000
0000
0203
0000
0301
0100
0000
,
2000
0000
3010
0000
2000
0000
3001
0000
2000
0000
3100
0000
2000
0000
3010
0100
,
0010
0000
0000
0010
0000
0000
0100
0000
2000
0000
3010
0100
0001
0000
0001
0100
,
0010
2000
3000
2000
0000
0000
0000
0000
,
3001
0000
0000
0100
0000
0000
0020
0000
0000
0000
0000
0000
0030
0000
0000
0001
,
0200
0000
0000
0000
0000
0000
0000
0000
0300
0000
0101
0000
0000
1001
0000
0000
,
2020
0000
0000
0000
3030
0000
0001
0100
0010
0000
0100
0010
1000
0000
0001
0010
,
1000
0000
0100
1000
0010
0000
0010
1000
0000
0100
0002
0000
0000
0000
0003
0000
,
0100
0000
0100
0010
0100
0000
1000
0000
1000
0010
0000
0100
0000
0000
0010
1000
,
0200
0000
0000
2000
0300
0000
0000
3000
,
1000
0000
0001
0100
0020
0000
0000
0000
0000
0000
0230
0000
0000
0000
2300
0000
,
0000
0000
3002
0000
0000
0000
0003
0000
0000
0100
0000
0010
0000
1000
0000
0000
,
1000
0000
0001
0100
0020
0000
0000
0000
0000
0000
0032
0000
0000
0000
2000
0000
,
0003
0000
0001
0000
3010
0100
0000
0000
1000
0000
0200
0000
0000
0000
0000
0000
,
1300
0000
0001
0100
0020
0000
0000
0000
0000
0000
0230
0000
0000
0000
2300
0000
,
0000
3002
0000
0000
0000
0000
0000
0003
,
1000
0000
0001
0100
0020
0000
0000
0000
0000
0000
0032
0000
0000
0000
2003
0000
,
0000
0000
3001
0000
0010
0000
0000
0100
0010
0000
1000
0000
0001
0000
0000
0200
,
0000
0000
0000
0000
0300
0010
0100
1000
0100
0000
0001
0000
1000
0000
1000
0200
,
0000
0000
0000
0000
0300
0000
0010
0001
0000
0100
1000
0000
1000
0001
1000
0100
,
0010
0000
0100
0010
1000
0000
0010
1000
0100
0000
0100
0010
0001
0000
0001
0010
,
0001
0000
0100
1000
0001
0000
0002
0000
1003
0100
0000
0100
2000
0000
0000
0000
,
3022
0000
0000
0000
0003
0000
0031
0010
0100
0000
0100
0000
0001
0000
0010
0000
,
0010
0001
0010
0000
0001
0000
0010
0000
0011
0000
1000
0000
0020
0000
0030
0000
,
0010
0200
0000
0000
0300
0000
0200
0000
0000
0000
2300
0000
3200
0000
2300
0000
,
3200
0000
0000
0000
2300
0000
3000
0200
0000
0000
2300
0000
3200
0000
0300
0000
,
1000
0100
0000
0010
0001
1000
0000
0100
0001
0000
0110
0000
1010
0000
0000
0000
,
1000
0100
1000
0000
0010
0001
0000
1000
0000
0000
0000
0100
0020
0000
0030
0000
,
0220
0330
0000
0000
0000
0000
0000
0000
;

//--------------- dance-single - Blood4Fame ----------------
#NOTES:
     dance-single:
     Blood4Fame:
     Challenge:
     10:
     0,0,0,0,0:
0000
0000
0000
0000
,
0000
0000
0000
0000
,
0000
0000
0000
0000
,
0000
0000
0000
0000
,
0000
0000
0000
0000
,
2100
0000
0001
0000
0100
0000
0010
3000
,
0101
0000
1000
0000
1000
0100
0000
0000
0101
0000
0001
0100
0000
0000
0000
0000
,
0001
0000
1000
0000
0010
0100
0001
1000
0001
0100
0010
1000
0100
0010
0100
0000
,
0100
0000
1000
0000
1000
0100
0000
0000
0101
0000
0001
0100
0000
0000
0000
0000
,
0001
0000
1000
0000
0010
0100
0001
0000
0000
0100
0010
0000
2020
0000
3030
0000
,
1100
0000
0001
0000
0001
0100
0000
0000
1100
0000
1000
0100
0000
0000
0000
0000
,
1000
0000
0001
0000
0010
0100
1000
0001
1000
0100
0010
0001
0100
0010
0100
0000
,
0100
0000
0001
0000
0001
0100
0000
0000
1100
0000
1000
0100
0000
0000
0000
0000
,
1000
0000
0001
0000
0010
0100
1000
0000
0000
1000
0010
0000
2020
0000
3030
0100
,
0010
0000
0000
0010
0000
0000
0100
0000
0002
0000
0013
0100
1000
0001
1000
0100
,
0010
0002
0003
0002
0000
0000
0000
0003
,
0001
0000
0000
0100
0000
0000
0020
0000
0000
0000
0000
0000
0030
1000
0010
1000
,
0200
0000
0000
0000
0000
0000
0000
0000
0300
0000
1100
0000
0000
1001
0000
0000
,
2020
0000
0000
0000
3030
0000
0010
0100
0010
0000
0100
0010
1000
0000
1000
0010
,
0100
0000
1000
0001
0010
0000
0010
0001
0000
0100
0002
0000
0000
0003
0000
0000
,
0100
1000
0100
0010
0100
0010
1000
0001
0010
0001
0000
1000
0000
1000
0010
0001
,
0200
0000
0000
0002
0300
0000
0000
0003
,
0010
0001
1000
0100
0020
0000
0000
0000
0000
0000
0230
0000
0000
0000
0302
0000
,
0000
0000
2003
0000
0000
0000
3000
0000
1000
0100
0000
0010
0000
0001
0100
0000
,
0001
1000
0010
0100
0020
0000
0000
0000
0000
0000
2030
0000
0000
0000
0002
0000
,
3000
0000
1000
0000
0013
0100
0000
0100
0001
0000
0200
0000
0000
0000
0000
0000
,
0310
1000
0100
1000
0020
0000
0000
0000
0000
0000
0230
0000
0000
0000
0302
0000
,
0000
2003
0000
0000
0000
0000
0000
3000
,
1000
0001
0100
0001
0020
0000
0000
0000
0000
0000
0032
0000
0003
0000
2000
0000
,
0000
0000
3001
0000
0010
0100
0000
0100
0010
0000
0001
0000
1000
0100
0000
0000
,
2200
0000
0300
0200
0000
0000
0000
0000
,
0300
3200
0000
0302
0000
0023
0000
1030
,
2000
0000
0000
0200
0000
0000
0000
0000
,
0300
3100
0001
0010
0010
1000
0100
0001
,
0200
0000
0000
2000
0000
0000
0000
0000
,
3300
1000
0010
1000
0100
1000
1001
1000
,
1000
0002
0000
0000
0000
0000
0203
0000
0000
0000
0301
0000
0100
0001
0000
0000
,
2000
0000
3010
0000
2000
0000
3001
0000
2000
0000
3100
0000
2000
0000
3010
0100
,
0010
0000
0000
0010
0000
0000
0100
0000
0002
0000
0013
0100
1000
0001
1000
0100
,
0010
0002
0003
2000
0000
0000
0000
0000
,
3001
0000
0000
0100
0000
0000
0020
0000
0000
0000
0000
0000
0030
1000
0010
1000
,
0200
0000
0000
0000
0000
0000
0000
0000
0300
0000
1100
0000
0000
1001
0000
0000
,
2020
0000
0000
0000
3030
0000
0001
0100
0010
0000
0100
0010
1000
0000
0100
0010
,
0001
0000
0100
0001
0010
0000
0010
0001
0000
0001
0200
0000
0000
0000
0300
0000
,
0100
0001
0100
0010
0100
0010
1000
0001
1000
0010
0000
0100
0000
0001
0010
0001
,
0200
0000
0000
0002
0300
0000
0000
0003
,
1000
0010
0100
0001
0020
0000
0000
0000
0000
0000
0230
0000
0000
0000
2300
0000
,
0000
0000
3002
0000
0000
0000
0003
0000
0001
0100
0000
0010
0000
1000
0100
0000
,
1000
0010
0100
0001
0020
0000
0000
0000
0000
0000
0032
0000
0000
0000
2000
0000
,
0003
0000
0001
0000
3010
0100
0000
0100
1000
0000
0200
0000
0000
0000
0000
0000
,
1300
0010
1000
0100
0020
0000
0000
0000
0000
0000
0230
0000
0000
0000
2300
0000
,
0000
3002
0000
0000
0000
0000
0000
0003
,
0001
0010
0001
0100
0020
0000
0000
0000
0000
0000
2030
0000
0000
0000
3002
0000
,
0000
0000
1003
0000
0010
0100
0000
0100
0010
0000
1000
0000
0001
0100
0000
0200
,
0000
0000
0000
0000
0300
0010
0100
1000
0100
0000
0001
0000
1000
0000
1000
0200
,
0000
0000
0000
0000
0300
0000
0010
0001
0000
0001
1000
0000
1000
0001
1000
0100
,
0010
0001
0100
0010
1000
0100
0010
0001
0100
0010
0100
0010
1000
0010
1000
0010
,
1000
0010
0100
0001
0100
0010
2000
0000
3001
0100
0000
0100
0002
0000
0000
0000
,
0023
0000
0000
0000
0000
0000
0031
0010
0100
0000
0100
0000
1000
0000
0010
0000
,
1000
0001
0010
0000
0001
0000
0010
0000
0011
0000
0001
0000
0020
0000
0030
0000
,
0010
0200
0000
0000
0300
0000
0200
0000
0000
0000
2300
0000
3200
0000
2300
0000
,
3200
0000
0000
0000
2300
0000
3100
0200
0000
0000
2300
0000
3200
0000
0300
0000
,
1000
0100
0000
0010
0001
1000
0000
0001
0100
0000
0110
0000
1010
0000
0000
0000
,
1000
0100
1000
0000
0010
1000
0000
0001
0000
1000
0000
0100
0020
0000
0030
0000
,
0220
0330
0000
0000
0000
0000
0000
0000
;
