#TITLE:FURY;
#SUBTITLE:;
#ARTIST:Sugar Donut;
#TITLETRANSLIT:;
#SUBTITLETRANSLIT:;
#ARTISTTRANSLIT:;
#GENRE:Rock;
#CREDIT:Blood4Fame;
#MUSIC:music.mp3;
#BANNER:banner.png;
#BACKGROUND:bg.png;
#CDTITLE:;
#SAMPLESTART:44.714;
#SAMPLELENGTH:21.331;
#SELECTABLE:YES;
#OFFSET:-0.274;
#BPMS:0.000=135.014;
#STOPS:;
#BGCHANGES:-0.274=video.mp4=1.000=1=0=1===CrossFade==,
99999.000=-nosongbg-=1.000=0=0=0=StretchNoLoop====;
#FGCHANGES:;

//--------------- dance-single - Blood4Fame ----------------
#NOTES:
     dance-single:
     Blood4Fame:
     Beginner:
     2:
     0,0,0,0,0:
0000
0000
0000
0000
,
0000
0000
0000
0000
,
0000
0000
0000
0000
,
0000
0000
0000
0000
,
0000
0000
0000
0000
,
1000
0000
0000
0000
,
1000
0000
0000
0000
,
0001
0000
0001
0000
,
0001
0001
0001
0001
,
1000
0000
0000
0100
,
0100
0000
0000
0010
,
0010
0000
0000
1000
,
1000
0000
0000
0001
,
0001
0000
0000
0010
,
0010
0000
0000
0100
,
0100
0000
0000
0010
,
0010
0000
0000
1000
,
1000
0000
0001
0000
,
1000
0000
0010
0010
,
0010
0000
1000
0000
,
0100
0000
0001
0001
,
0001
0000
0010
0000
,
0100
0000
1000
1000
,
1000
0000
0001
0000
,
0010
0000
0100
0000
,
0001
0001
0100
0100
,
0000
1000
0000
1000
,
0010
0010
0100
0100
,
0000
0001
0000
0010
,
1000
1000
0100
0100
,
0000
0010
0000
0001
,
0100
0100
1000
1000
,
0000
0010
0000
0001
,
0100
0000
0000
0000
,
0100
0000
0000
0000
,
0001
0000
0001
0000
,
1000
0000
1000
0000
,
0010
0000
0100
0000
,
0001
0000
0100
0000
,
1000
0000
0010
0000
,
0100
0000
1000
0000
,
1000
1000
1000
1000
,
0001
0001
0001
0001
,
0010
0010
0010
0010
,
0100
0100
0100
0101
,
0000
1000
0000
0001
,
0000
0100
0010
0001
,
1000
0000
0100
0000
,
0000
0010
0100
0001
,
1000
0000
0100
0000
,
0000
0010
0010
0010
,
1000
0000
0100
0000
,
0000
0001
0010
0010
,
0100
0000
0000
0000
,
0101
0000
0000
0000
,
1100
0000
0000
0000
;

//--------------- dance-single - Blood4Fame ----------------
#NOTES:
     dance-single:
     Blood4Fame:
     Medium:
     6:
     0,0,0,0,0:
0000
0000
0000
0000
,
0000
0000
0000
0000
,
0000
0000
0000
0000
,
0000
0000
0000
0000
,
0000
0000
0000
0000
,
1000
0000
0000
0000
0000
1000
0100
0010
,
0001
0000
0000
0000
0000
0001
0100
0010
,
1000
0000
0000
0000
0000
1000
0001
0100
,
0010
0000
0010
0000
0010
0000
0010
0000
0010
1000
0100
0000
0011
0000
0000
0000
,
1001
0000
0000
0000
1000
0000
1000
0100
0000
0000
0000
0000
0010
0000
0010
0000
,
0001
0000
0000
0000
0100
0000
0100
0010
0000
0000
1000
0000
1000
0000
1000
0000
,
1001
0000
0000
0000
0100
0000
0100
0010
0000
0000
1000
0000
0001
0000
0100
0000
,
0010
0000
0010
0000
0010
0000
0010
1000
0000
0000
0100
0000
0100
0000
0010
0000
,
1001
0000
0000
0000
1000
0000
1000
0100
0000
0000
0000
0000
0010
0000
0010
0000
,
0001
0000
0000
0000
0100
0000
0100
0010
0000
0000
1000
0000
1000
0000
1000
0000
,
1001
0000
0000
0000
0100
0000
0100
0010
0000
0000
1000
0000
0001
0000
0100
0000
,
0010
0000
0010
0000
0010
0000
0010
1000
0000
0000
0100
0000
0100
0000
0010
0000
,
1001
0000
0100
0000
0100
0000
0010
0100
,
0001
0000
0001
1000
0100
0000
0010
0001
,
0100
0000
0000
0010
0100
0001
0000
0010
,
0000
0010
0001
0000
1000
0100
0000
1010
,
0000
0000
0010
0000
0010
0000
0100
0010
,
1000
0000
1000
0001
0010
0000
0100
1000
,
0010
0000
0000
0100
0010
1000
0000
0100
,
0000
0100
1000
0000
0001
0010
0000
0000
,
1100
1001
1100
1001
,
0000
0010
0000
0100
0010
0001
0100
0000
,
0101
1001
0101
1001
,
0000
0010
0000
0100
0010
1000
0100
0000
,
1010
1001
1010
1001
,
0000
0100
0000
0010
0100
0001
0010
0000
,
0011
1001
0011
1001
,
0000
0100
0000
0010
0100
1000
0010
0100
,
0002
0000
0000
0000
0000
0000
0000
0003
,
0202
0000
0000
0000
0000
0000
0000
0303
,
0022
0000
0000
0000
0000
0000
0000
0033
,
0220
0000
0000
0000
0000
0000
0000
0300
0100
0000
0000
0000
0100
0000
0030
0000
,
1100
0001
0100
0001
0000
1000
0010
1000
,
0000
0100
0001
0100
0100
0010
1000
0001
,
0000
1000
0010
1000
0000
0001
0100
0001
,
0000
0010
1000
0100
0010
0010
0100
0001
,
0000
1000
0100
1000
0000
0010
0100
0010
,
0000
1000
0010
0100
0001
0010
0100
1000
,
0000
0010
0001
0010
0000
0100
0010
0100
,
0000
0000
0010
0000
0100
0000
0001
0000
2002
0000
0000
3003
0022
0000
0000
0033
,
1100
1001
1100
1001
,
0000
0010
0000
0100
0010
0001
0100
0000
,
0101
1001
0101
1001
,
0000
0010
0000
0100
0010
1000
0100
0000
,
1010
1001
1010
1001
,
0000
0100
0000
0010
0100
0001
0010
0000
,
0011
1001
0011
1001
,
0000
0100
0000
0010
0100
1000
0010
0100
,
0002
0000
0000
0000
0000
0000
0000
0003
,
0001
0000
0000
0000
1000
0000
0000
0000
0100
0000
0000
0000
0000
0100
0000
0000
,
0000
0010
0000
0000
0000
0000
0000
0010
0000
0010
0000
0000
0000
0000
0000
0000
;

//--------------- dance-single - Blood4Fame ----------------
#NOTES:
     dance-single:
     Blood4Fame:
     Challenge:
     10:
     0,0,0,0,0:
0000
0000
0000
0000
,
0000
0000
0000
0000
,
0000
0000
0000
0000
,
0000
0000
0000
0000
,
0000
0000
0000
0000
,
1100
0000
0100
0100
0100
1000
0100
0100
,
0110
0000
0000
0000
0010
0000
0010
0000
0010
0000
0001
0000
0010
0000
0010
0001
,
0011
0000
0001
0001
0001
1000
0001
0001
,
1001
0000
1001
0000
1001
0000
0010
0000
1000
0001
0100
0020
2000
3030
0000
0000
,
1100
0000
1000
0000
0100
0000
0010
0001
0000
0000
0011
0000
0001
0000
0100
0000
,
0101
0000
0001
0000
0100
0000
0010
1000
0000
0000
1010
0000
1000
0000
0100
0000
,
1100
0000
1000
0000
0100
0000
0010
0001
0000
0000
0011
0000
0001
0000
0100
0000
,
0101
0000
0001
0000
0100
0000
0010
1000
0000
0000
1010
0000
1000
0000
0100
0000
,
1100
0000
1000
0000
0100
0000
0010
0001
0000
0000
0011
0000
0001
0000
0100
0000
,
0101
0000
0001
0000
0100
0000
0010
1000
0000
0000
1010
0000
1000
0000
0100
0000
,
1100
0000
1000
0000
0100
0000
0010
0001
0000
0000
0011
0000
0001
0000
0100
0000
,
0101
0000
0001
0000
0100
0000
0010
1000
0000
0000
1010
0000
1000
0000
0100
0000
,
0100
0000
0100
0010
0001
0000
0001
1000
0000
0000
0100
0000
0010
0000
1000
0001
,
0100
0000
0010
0000
1000
0000
0100
0010
0000
0100
0010
0000
0001
0000
0100
0000
,
0010
0000
1000
0000
0100
0000
1000
0001
0000
0100
0010
0000
1000
0000
0010
0000
,
0100
0001
0010
0100
0010
0022
0033
0202
,
0303
0000
1000
0000
0010
0000
1000
0100
0000
1000
0010
0000
0100
0000
0001
0000
,
0010
0100
0100
0010
0001
0100
0010
1000
,
1001
0000
0100
0010
0001
0220
0330
0022
,
0033
0000
0000
1000
1010
0220
0000
0330
,
1100
0000
0100
0000
1000
0000
1000
0001
0000
0100
0010
0000
0100
0000
0001
0000
,
0011
0000
0020
0000
0000
0000
0031
0000
0010
0000
0001
0010
0100
0000
1000
0000
,
1100
0000
0100
0000
1000
0000
0100
0010
0000
0010
0001
0000
0100
0000
0010
0000
,
0100
0002
0000
0103
0010
0100
0002
0003
,
1010
0000
0010
0000
0100
0000
0001
0100
0000
0010
1000
0000
0100
0000
0010
0000
,
0100
2000
0000
3001
0100
0010
2000
3000
,
1001
0000
0001
0000
0100
0000
0010
1000
0000
1000
0001
0000
0010
0000
0100
0000
,
0010
0002
0000
1003
0010
0100
0010
1000
,
0001
0000
0001
1000
0000
1000
0100
0000
0100
0000
0100
0010
0001
0100
0010
0000
,
0010
0000
1000
0010
0000
0010
1000
0000
1000
0000
0100
0000
0001
0100
1000
0000
,
1000
0000
0010
0100
0000
0001
0010
0000
0001
0000
0100
0000
0010
0100
0010
0000
,
1000
0000
0100
0000
1000
0000
0100
0000
0010
0001
0010
0000
0010
0100
0010
0000
,
0001
0000
0100
0010
1000
0000
0100
0000
0010
0000
0100
0000
1000
0001
0010
0000
,
0100
0000
0010
0000
0001
1000
0010
0000
0100
0000
0001
0000
0100
0010
0100
0000
,
1000
0000
0100
0000
0010
0100
0001
0000
0010
0000
0100
0000
0010
0001
0100
0000
,
0010
0000
0100
0000
0001
1000
0100
0000
0100
0000
0010
0000
0001
0010
0001
0000
,
0001
0000
0100
0000
0010
1000
0010
0000
0100
0000
0100
0000
0001
0010
0001
0000
,
0100
0000
0100
0000
0010
1000
0010
0000
0100
0000
0001
0000
0010
0001
0010
0000
,
0100
0000
0010
0000
0001
1000
0001
0000
0100
0000
0010
0000
1000
0001
1000
0000
,
0100
0000
0010
0000
0001
0100
0010
0000
1000
0100
0010
0001
0100
0010
0000
0000
,
1100
0000
0100
0000
1000
0000
1000
0001
0000
0100
0010
0000
0100
0000
0001
0000
,
0011
0000
0020
0000
0000
0000
0031
0000
0010
0000
0001
0010
0100
0000
1000
0000
,
1100
0000
0100
0000
1000
0000
0100
0010
0000
0010
0001
0000
0100
0000
0010
0000
,
0100
0002
0000
0103
0010
0100
0002
0003
,
1010
0000
0010
0000
0100
0000
0001
0100
0000
0010
1000
0000
0100
0000
0010
0000
,
0100
2000
0000
3001
0100
0010
2000
3000
,
1001
0000
0001
0000
0100
0000
0010
1000
0000
1000
0001
0000
0010
0000
0100
0000
,
0010
0002
0000
1003
0010
0100
0010
1000
,
0002
0000
0000
0000
0000
0000
0003
0000
1001
0000
0000
0011
0000
0000
0000
0000
,
1000
0000
0000
0000
0000
0000
0100
0000
0000
0000
0000
0000
1000
0000
0000
0000
0000
0000
0100
0000
0000
0000
0000
0000
0010
0000
0000
0000
0000
0000
0001
0000
0000
0000
0000
0000
0010
0000
0000
0000
0000
0000
0001
0000
0000
0000
0000
0000
1000
0000
0000
0000
0000
0000
0000
0000
0001
0000
0000
0000
0000
0000
0000
0000
0000
0000
0100
0000
0000
0000
0000
0000
0000
0000
0000
0010
0000
0000
0000
0000
0000
0000
0000
0000
1000
0000
0000
0000
0000
0000
0000
0000
0000
0100
0000
0000
,
0000
0010
0000
0000
0000
0000
0000
0001
0100
0001
0000
0000
0000
0000
0000
0000
;
