#TITLE:영원 (Forever);
#SUBTITLE:;
#ARTIST:BEXTER;
#TITLETRANSLIT:;
#SUBTITLETRANSLIT:;
#ARTISTTRANSLIT:;
#GENRE:J/K-Pop;
#CREDIT:Blood4Fame;
#MUSIC:Forever.mp3;
#BANNER:Banner.png;
#BACKGROUND:BG.png;
#CDTITLE:;
#SAMPLESTART:0.000;
#SAMPLELENGTH:0.000;
#SELECTABLE:YES;
#OFFSET:-0.111;
#BPMS:0.000=114.000;
#STOPS:;
#BGCHANGES:;
#FGCHANGES:;

//--------------- dance-single - Blood4Fame ----------------
#NOTES:
     dance-single:
     Blood4Fame:
     Easy:
     2:
     0,0,0,0,0:
0000
0000
0000
0000
,
0000
0000
0000
0000
,
0000
0000
0000
0000
,
0000
0010
0000
0010
,
0000
0010
0000
0010
,
0000
0010
0000
0010
,
0000
0010
0000
0010
,
2000
0000
0000
0000
,
3000
0000
0000
0010
,
0002
0000
0000
0013
,
0200
0000
0000
1300
,
0010
0001
0200
0000
,
0000
0000
0300
0001
,
0100
0000
0020
0000
0000
0000
0000
0030
,
2000
0000
0000
3020
0000
0000
1030
0000
,
0200
0000
0000
0000
,
0300
0000
0000
1000
,
0020
0000
0000
0130
,
0002
0000
0000
0013
,
0002
0000
0003
0010
0000
0100
0000
2000
,
0000
0000
3000
0000
,
0220
0000
0000
0000
,
0330
0000
0000
0000
,
2002
0000
0000
0000
3003
0002
0000
0000
,
0023
0000
0000
0000
0000
0030
0100
0000
,
0020
0000
0030
1000
,
0100
0000
0000
0001
,
0020
0000
0030
0200
,
0302
0000
0000
0013
,
2000
0000
0000
3100
,
0020
0000
0030
0010
0000
0000
1000
0000
,
0002
0000
0000
0003
,
0010
0000
0000
0100
,
0002
0000
0003
0010
,
1000
0000
0000
0100
,
0020
0000
0030
0001
,
0100
0000
0000
0010
,
2000
0000
0000
0000
0000
3100
0000
0001
,
0000
0100
0010
1000
,
0100
0000
0010
0001
,
0100
0000
1000
0010
,
0100
0000
0010
0001
,
0010
0000
0100
0100
,
1000
0000
0010
0100
,
0001
0000
1000
0001
,
0010
0000
0100
0010
,
0100
0000
1000
0100
,
0002
0000
0000
0103
0000
0000
1000
0000
,
0002
0000
0000
0023
0000
0000
0130
0000
,
0001
0000
0000
0100
0000
0000
1000
0000
,
0020
0000
0000
0230
0000
0000
0301
0000
,
0010
0000
0000
0100
0000
0000
0010
0000
,
1000
0000
0000
0001
0000
0000
0010
0000
,
0100
0000
0000
0010
0000
0000
1000
0000
,
0001
0000
0000
0100
0000
0000
0000
2000
,
0000
0000
0000
0000
,
0000
0000
0000
0000
,
0000
0000
0000
3000
;

//--------------- dance-single - Blood4Fame ----------------
#NOTES:
     dance-single:
     Blood4Fame:
     Medium:
     5:
     0,0,0,0,0:
0000
0000
0000
0000
,
0000
0000
0000
0000
,
0000
0000
0000
0000
,
0100
0000
0000
0000
0110
0000
0000
0100
0000
0000
0100
0000
0010
0000
0100
0000
,
0001
0000
0000
0000
1001
0000
0000
0001
0000
0000
0001
0000
1000
0000
0001
0000
,
0010
0000
0000
0000
0011
0000
0000
0010
0000
0000
0010
0000
0001
0000
0010
0000
,
0100
0000
0000
0000
1100
0000
0000
0100
0000
0000
0100
0000
1000
0000
0100
0000
,
0200
0000
0310
0002
0000
0003
0000
0000
,
1000
0000
1000
0000
0010
0000
0000
1000
0000
0000
0100
0000
0010
0000
0001
0000
,
2000
0000
3001
0020
0000
0030
0000
0000
,
0100
0000
0100
0000
0001
0000
0000
0100
0000
0000
1000
0000
0100
0000
0001
0000
,
0200
0000
0310
2000
0000
3000
0000
0000
,
0001
0000
0001
0000
0010
0000
0000
0001
0000
0000
0100
0000
0010
0000
1000
0000
,
0002
0000
1003
0020
0000
0030
0000
0000
,
0100
0000
0100
0000
1000
0000
0000
0100
0000
0000
0001
0000
0100
0000
1000
0000
,
0200
0000
0310
0002
0000
0003
0000
0000
,
1000
0000
1000
0000
0010
0000
0000
1000
0000
0000
0100
0000
0010
0000
0001
0000
,
2000
0000
3001
0020
0000
0030
0100
0020
,
0000
0000
0000
0000
0031
0000
0000
0100
0000
0000
1000
0000
0100
0000
0001
0000
,
0020
0000
0000
2030
0000
0000
3002
0000
0000
0000
0003
0000
0010
0000
0002
0000
,
0000
0000
2003
0000
0000
3000
0000
0001
0000
0000
0010
0000
0100
0000
2000
0000
,
0000
3002
0000
0203
0000
0300
0000
0020
,
0000
0000
0000
0030
0001
0000
0000
0010
0000
0000
1000
0000
0010
0000
0001
0000
,
0220
0000
0330
0002
0000
2003
0000
0000
,
3020
0000
0000
0000
0030
0000
0000
1000
0000
0000
0100
0000
0010
0001
0020
0000
,
0000
0000
0031
0020
0000
0130
0010
0001
,
0100
0000
0100
0000
0001
0000
0000
0100
0000
0000
1000
0000
0100
0000
0001
0010
,
0002
0000
0000
0000
0000
2003
0000
0000
,
3001
0000
0001
0000
0100
0000
0000
0001
0000
0000
0020
0000
0200
0000
0030
0000
,
0302
0000
0000
0000
1003
0000
0200
0000
0000
0000
0000
0000
0000
0000
1300
0100
,
0010
0010
0010
0001
0000
0001
0011
0000
,
2200
0000
3300
2000
0000
3200
0000
0320
,
0000
0031
0010
0002
0000
0203
0000
0320
,
0000
0030
0000
0020
0130
0002
0000
2003
,
0000
3000
1000
0200
0000
0320
0000
0032
,
0000
0003
0000
0001
0100
0020
0000
0230
,
0000
0302
0003
0002
0000
0003
0010
0002
,
0000
0000
0000
0000
0000
0203
0000
0320
,
0000
0030
2000
0000
3100
2000
0000
3001
,
0200
0000
0310
0002
0003
0022
0033
0220
,
0000
0330
0010
2200
3300
2020
3030
2002
,
0000
0000
3003
0010
0100
0020
0000
2030
,
0000
0000
3000
0200
0000
2300
0000
3002
,
0000
0000
0003
1000
0100
0020
0030
0020
,
0000
0032
0000
0000
0003
0000
0100
0020
,
0000
0000
1030
0200
0000
0320
0000
0032
,
0000
0000
0000
0000
1003
0000
0000
0010
0000
0000
0001
0000
0010
0000
1000
0000
,
0020
0000
0130
0002
0000
0013
1000
0000
,
1000
0000
1000
0000
0100
0000
0000
1000
0000
0000
0010
0000
0100
0000
0001
0000
,
2000
0000
3001
0200
0000
0301
1000
0000
,
0010
0000
0010
0000
0001
0000
0000
0010
0000
0000
1000
0000
0010
0000
0001
0000
,
0200
0000
0310
2000
0000
3010
0100
0000
,
0001
0000
0001
0000
0010
0000
0000
0001
0000
0000
0100
0000
0010
0000
1000
0000
,
0002
0000
1003
0020
0000
0030
0010
0100
,
0100
0000
0100
0000
1000
0000
0000
0100
0000
0000
0001
0000
0100
0000
2000
0000
,
0000
0000
0000
0000
,
0000
0000
0000
0000
,
0000
0000
0000
3000
;

//--------------- dance-single - Blood4Fame ----------------
#NOTES:
     dance-single:
     Blood4Fame:
     Hard:
     8:
     0,0,0,0,0:
0000
0000
0000
0000
,
0000
0000
0000
0000
,
0000
0000
0000
0000
,
1000
0000
0000
0000
1010
0000
0000
0100
0000
0000
0100
0000
0101
0000
0010
0000
,
0010
0000
0000
0000
0011
0000
0000
0100
0000
0000
0100
0000
1001
0000
0001
0000
,
0001
0000
0000
0000
0101
0000
0000
1100
0000
0000
0100
0000
0110
0000
0100
0000
,
0100
0000
0000
0000
1100
0000
0000
0001
0000
0000
0001
0000
1001
0000
0000
0000
,
0001
0000
0001
0000
0100
0000
0100
0001
0000
0001
0010
0000
0100
0000
1000
0000
,
0100
0000
0100
0000
0010
0000
0010
0001
0000
1000
0010
0000
0100
0000
0001
0000
,
0100
0000
0100
0000
0010
0000
0010
0100
0000
0100
0001
0000
0010
0000
0001
0000
,
1000
0000
1000
0000
0001
0000
0001
0100
0000
0010
1000
0000
0001
0000
0100
0000
,
0001
0000
0001
0000
0010
0000
0010
0001
0000
0001
0100
0000
0010
0000
1000
0000
,
0010
0000
0010
0000
0100
0000
0100
0001
0000
1000
0100
0000
0010
0000
0001
0000
,
0010
0000
0010
0000
0100
0000
0100
0010
0000
0010
0001
0000
0100
0000
0001
0000
,
1000
0000
1000
0000
0001
0000
0001
0010
0000
0100
1000
0000
0001
0000
0010
0000
,
0001
0000
0001
0000
0100
0000
0100
0001
0000
0001
0010
0000
0100
0000
1000
0000
,
0100
0000
0100
0000
0010
0000
0010
0001
0000
1000
0010
0000
0100
0000
0001
0000
,
0100
0000
0100
0000
0010
0000
0010
0100
0000
0100
0001
0000
0010
0000
0001
0000
,
1000
0000
1000
0000
0001
0000
0001
0100
0000
0010
1000
0000
0001
0000
0100
0000
,
0001
0000
0001
0000
0010
0000
0010
0001
0000
0001
0100
0000
0010
0000
1000
0000
,
0010
0000
0010
0000
0100
0000
0100
0001
0000
1000
0100
0000
0010
0000
0001
0000
,
0010
0000
0010
0000
0100
0000
0100
0010
0000
0010
0001
0000
0100
0000
0001
0000
,
1000
0000
1000
0000
0001
0000
0001
0010
0000
0100
1000
0000
0001
0000
0010
0000
,
0002
0000
0000
0000
0103
0000
0100
0001
0000
0001
0020
0000
0000
0000
0031
0000
,
0200
0000
0000
0000
0310
0000
0010
1000
0000
1000
0010
0000
0100
0000
0002
0000
,
0000
0000
0103
0000
0010
0000
0010
0100
0000
0100
0001
0000
0010
0000
0001
0000
,
1000
0000
1000
0000
0001
0000
0001
0100
0000
0010
1000
0000
0001
0000
0100
0010
,
2000
0000
0000
0000
3010
0000
0010
1000
0000
0001
0200
0000
0020
0000
0300
0030
,
0010
0000
0010
0000
0100
0000
0100
0001
0000
1000
0100
0000
0020
0000
0000
0000
,
0032
0000
0000
0000
0103
0000
0100
0010
0000
0010
1000
0000
0100
0000
1000
0100
,
0020
0000
0000
0000
0031
0000
0001
0010
0000
0100
1000
0000
0022
0000
0033
0000
,
0202
0000
0303
0000
0100
0000
0100
0001
0000
0001
0010
0000
0100
0000
1000
0000
,
0100
0000
0100
0000
0010
0000
0010
0001
0000
1000
0010
0000
0202
0000
0303
0000
,
0220
0000
0330
0000
0010
0000
0010
0100
0000
0100
0001
0000
0010
0000
0001
0000
,
1000
1000
0001
0202
0303
2020
3030
0110
,
2002
0000
3003
0000
0100
0000
0100
1000
0000
1000
0010
0000
0100
0000
0001
0000
,
0100
0000
0100
0000
0010
0000
0010
1000
0000
0001
0010
0000
0100
0000
1000
0000
,
0100
0000
0100
0000
0010
0000
0010
0100
0000
0100
1000
0000
0010
0000
1000
0000
,
0001
0000
0001
0000
1000
0000
1000
0100
0000
0010
0001
0000
1000
0000
0100
0000
,
1000
1000
0100
0200
0000
0320
0000
0032
,
0000
0000
0003
0000
0010
0000
0010
1000
0000
0001
0020
0000
0000
0000
0032
0000
,
0000
0103
0010
0010
0100
0002
0000
2003
,
0000
0000
3001
0000
1000
0000
1000
0100
0000
0010
0001
0000
1000
0000
0200
0000
,
0000
0000
0301
0000
0100
0000
0100
0001
0000
0001
0010
0000
0100
0000
2000
0000
,
0000
0000
3200
0000
0000
0000
0310
0001
0000
1000
0010
0000
0100
0000
0001
0000
,
0100
0000
0100
0000
0010
0000
0010
0100
0000
0100
0001
0000
0010
0000
0001
0000
,
1000
0000
1000
0000
0001
0000
0001
0100
0000
0010
1000
0000
0001
0000
0100
0000
,
0020
0000
0000
0000
0030
0010
2000
3000
,
0110
0000
0000
0011
0000
0000
0000
1100
,
0000
0000
0110
0000
0000
1010
0000
1000
,
1001
0000
0000
0000
0000
0000
1100
0000
0010
0000
0000
0001
0000
0000
0100
0000
,
0020
0000
2000
0000
0000
0000
0000
3030
0000
0001
0010
0000
0100
0000
1000
0000
,
0100
0000
0100
0000
0010
0000
0010
0001
0000
1000
0010
0000
0100
0000
0001
0000
,
0200
0000
0020
0000
0000
0330
0000
1000
0001
0000
0001
0000
0010
0000
0001
0000
,
0100
0000
0010
0000
1000
0000
0001
0100
0000
0010
1000
0000
0001
0000
0200
0000
,
0000
0000
0000
0000
,
0000
0000
0000
0000
,
0000
0000
0000
0300
;
