#TITLE:Fallin' in LUV;
#SUBTITLE:~LUV POP~;
#ARTIST:3rd Coast;
#TITLETRANSLIT:;
#SUBTITLETRANSLIT:;
#ARTISTTRANSLIT:;
#GENRE:Pop;
#CREDIT:Blood4Fame;
#MUSIC:Fallin' in LUV.mp3;
#BANNER:Banner.png;
#BACKGROUND:BG.png;
#CDTITLE:DJMAX TECKNIKA 3;
#SAMPLESTART:0.000;
#SAMPLELENGTH:0.000;
#SELECTABLE:YES;
#OFFSET:-0.260;
#BPMS:0.000=132.000
,26.500=264.000
,28.750=132.000
,34.500=264.000
,36.750=132.000
,48.000=264.000
,50.000=132.000
,122.500=264.000
,125.500=132.000
,130.500=264.000
,133.500=132.000
,146.500=264.000
,147.000=132.000
,152.000=264.000
,154.000=132.000
,216.000=264.000
,218.000=132.000
,226.500=264.000
,229.500=132.000
,234.500=264.000
,237.500=132.000
;
#STOPS:26.500=0.114
,27.000=0.114
,27.500=0.114
,28.000=0.114
,28.500=0.057
,34.500=0.114
,35.000=0.114
,35.500=0.114
,36.000=0.114
,36.500=0.057
,48.000=0.057
,48.250=0.114
,48.750=0.170
,49.500=0.114
,122.500=0.114
,123.000=0.114
,123.500=0.114
,124.000=0.114
,124.500=0.057
,124.750=0.170
,130.500=0.114
,131.000=0.114
,131.500=0.114
,132.000=0.114
,132.500=0.057
,132.750=0.170
,146.500=0.057
,146.750=0.057
,152.000=0.076
,152.333=0.076
,152.667=0.076
,153.000=0.076
,153.333=0.076
,153.667=0.076
,216.000=0.170
,216.750=0.170
,217.500=0.114
,226.500=0.114
,227.000=0.114
,227.500=0.114
,228.000=0.114
,228.500=0.057
,228.750=0.170
,234.500=0.114
,235.000=0.114
,235.500=0.114
,236.000=0.114
,236.500=0.057
,236.750=0.170
;
#DISPLAYBPM:132.000;
#BGCHANGES:;
#FGCHANGES:;

//--------------- dance-single - Blood4Fame ----------------
#NOTES:
     dance-single:
     Blood4Fame:
     Beginner:
     2:
     0,0,0,0,0:
0000
0000
0000
0000
,
0000
0000
0000
0000
,
0000
0000
0000
0000
,
0000
0000
0000
0000
,
0000
0000
0011
0000
,
0100
0000
1010
0000
,
0100
0000
2002
0000
,
0000
0000
0000
0000
0000
0000
0000
3003
0000
0000
0000
0000
1000
0000
0000
0000
,
1000
0000
0220
0000
,
0000
0000
0000
0000
0000
0000
0000
0330
0000
0000
0000
0000
0001
0000
0000
0000
,
0000
0220
0330
0000
,
0001
0000
0000
0001
0001
0000
0000
0000
0010
0000
0000
0000
0000
0000
0000
0000
,
1000
0000
0100
0000
,
1000
0000
0010
0000
,
0000
1000
1000
0000
,
0000
0000
0001
0000
0001
0000
0000
0020
,
0000
0030
0000
0200
0000
0000
0300
0000
,
0001
0000
0000
0010
0000
0010
0000
0000
,
1000
0000
1000
0000
,
0010
0000
0002
0003
,
0000
0000
0000
0000
,
0001
0000
1000
0000
,
0100
0000
0001
0000
,
0100
0000
1000
0000
,
0200
0300
0000
0000
0020
0030
0000
0000
,
1000
0000
0100
0000
,
0000
0000
0100
0000
0000
0000
0000
0100
,
0000
0100
0000
0000
1000
0000
1000
0000
,
1000
0000
0010
0010
,
0000
0010
0000
0000
0010
0000
0010
0000
,
0000
0000
2002
0000
,
0000
0000
0000
3003
0000
0000
0001
0000
,
0001
0000
0220
0000
,
0000
0000
0330
1000
,
1000
0000
0110
0000
,
1000
1000
0000
0010
,
0000
0000
0100
0000
,
0001
0000
0001
0001
,
0000
0000
0200
0300
,
0000
0100
0000
0100
,
0000
0010
0000
0010
,
0000
0001
0000
0010
,
0010
0010
0000
1000
,
0000
0010
0000
1000
,
0000
0011
0000
0001
,
0001
0000
1000
0000
,
0010
0010
0020
0030
,
0200
0300
0002
0003
,
2000
3000
0002
0003
,
0020
0030
0200
0300
,
0220
0330
0000
0110
,
0000
0110
0000
1001
,
0000
1100
0000
0011
,
0000
1100
0000
0010
,
0000
0000
0010
0010
,
0000
0000
1000
1000
,
0000
0000
2002
0000
,
0000
0000
3003
0000
,
1000
0000
0220
0000
,
0000
0000
0330
0000
,
0010
0000
0022
0033
,
0000
0001
0000
0010
,
0000
2002
0000
3003
;

//--------------- dance-single - Blood4Fame ----------------
#NOTES:
     dance-single:
     Blood4Fame:
     Easy:
     3:
     0,0,0,0,0:
0000
0000
0100
0100
,
0100
0100
0100
0100
,
0100
0000
0001
0001
,
0001
0000
1000
1000
,
1000
0000
0011
0011
,
0100
0000
1010
1010
,
0100
2002
0000
0000
,
0000
0000
0000
3003
0000
0000
0000
0000
0000
0000
0000
0000
1000
0000
0000
0000
,
1000
0220
0000
0000
,
0000
0000
0000
0330
0000
0000
0000
0000
0000
0000
0000
0000
0001
0000
0000
0000
,
0010
0220
0330
0000
,
0001
0001
0010
0010
,
1000
0000
0100
0000
,
1000
0000
0001
0000
0000
1000
0000
0100
,
0000
1000
1000
0010
,
0010
0000
0001
0000
0001
0000
0000
0020
,
0000
0032
0000
0203
0000
0000
0300
0000
,
0001
0000
0000
0010
0000
0010
0000
0000
,
1000
0000
0010
0000
0000
1000
0000
0010
,
0000
0010
0000
0010
0000
0002
0000
0000
,
0000
0003
0000
0000
,
0001
0000
1000
0000
0000
0001
0000
0000
,
0100
0001
0001
0100
,
0100
0000
1000
0000
1000
0000
0000
0200
,
0000
2300
0000
3020
0000
0000
0030
0000
,
1000
0000
1000
0000
0000
0100
0000
0000
,
0001
0000
0100
0000
0000
0001
0000
0100
,
0000
0100
0000
0000
1000
0000
1000
0000
,
1000
0000
0010
1010
,
0000
0010
0000
0000
0010
0000
0011
0000
,
0000
2002
0000
0000
,
0000
0000
0000
3003
0000
0000
0001
0000
,
0001
0220
0000
0000
,
0000
0000
0000
0330
0000
0000
1000
0000
,
0010
0000
0220
0000
0000
0330
0000
0000
,
1000
1000
0010
0010
,
0001
0000
0100
0010
,
0001
0100
0001
0001
,
0001
0010
0200
0301
,
0000
0100
0000
0100
,
0010
0010
1000
0010
,
0100
0001
1000
0010
,
0010
0010
0000
1000
,
0000
0010
1000
1000
,
0011
0011
0000
0001
,
0001
1000
1000
0100
,
0010
0010
2020
3030
,
0200
0300
0002
0003
,
2000
3000
0002
0003
,
0020
0030
0200
0300
,
0220
0330
0000
0110
,
0000
0110
0000
1001
,
0000
1100
0000
0011
,
0000
1100
0010
0010
,
1000
0000
0011
0011
,
0100
0000
0010
1010
,
0100
2002
0000
0000
,
0000
0000
0000
3003
0100
0000
1000
0000
,
1000
0220
0000
0000
,
0000
0000
0000
0330
0100
0000
0001
0000
,
0010
0100
0022
0033
,
0001
0001
0010
0010
,
1000
0000
0000
0100
0000
0000
0002
0000
0000
0000
0000
0000
0003
0000
0000
0000
;

//--------------- dance-single - Blood4Fame ----------------
#NOTES:
     dance-single:
     Blood4Fame:
     Medium:
     7:
     0,0,0,0,0:
0000
0000
0100
0100
,
0100
0100
0100
0100
,
0100
0100
0001
0001
,
0001
0000
0001
0000
1000
0100
1000
0100
,
1000
0100
0000
0100
0000
0000
0100
0000
0011
0000
0000
0000
0011
0000
0000
0000
,
0100
0010
0000
1000
1010
0000
1010
0000
,
0100
0000
0010
0000
0000
0000
2002
0000
0000
0003
0001
0000
0001
0000
0001
0000
,
0001
0000
0000
3001
0000
0000
1000
0000
,
1000
0100
0010
0020
0000
1000
1000
1000
,
1000
0000
0000
1030
0000
0000
0001
0000
,
0010
0000
0100
0020
0001
0000
0001
0000
,
0001
0000
0031
0000
0010
0001
0010
0001
,
1000
0000
0000
0100
0000
0000
0001
0000
0100
0000
0000
0000
0000
0000
0000
0000
,
1000
0010
0001
0001
0000
1000
0000
0100
,
0010
0000
1000
0010
1000
0000
0010
0000
,
0010
1000
0001
0000
0001
0000
0000
0020
,
0000
0032
0000
0203
0000
0000
0300
0000
,
0001
0100
0001
0010
0000
0010
0000
0000
,
1000
0100
0010
0001
0000
1000
0000
0010
,
0000
0010
0100
0010
0000
0002
0000
0000
,
0000
0003
0000
0000
,
0001
0100
1000
1000
0000
0001
0000
0010
,
0100
0000
0001
0100
0001
0000
0100
0000
,
0100
0001
1000
0000
1000
0000
0000
0200
,
0000
2300
0000
3020
0000
0000
0030
0000
,
1000
0010
1000
0100
0000
0100
0000
0000
,
0001
0010
0100
1000
0000
0001
0000
0100
,
0000
0100
0010
0100
1000
0100
1000
0100
,
1000
0100
0000
0100
0000
0000
1000
0000
0010
0000
0000
0000
1010
0000
0000
0000
,
0100
0010
0000
0001
0010
0000
0011
0000
,
0100
0000
0010
0000
0000
0000
2002
0000
0000
3000
1000
0000
1000
0000
1000
0000
,
1000
0000
0000
1003
0000
0000
0001
0000
,
0001
0100
0010
0020
0000
0001
0001
0001
,
0001
0000
0000
0031
0000
0000
1000
0000
,
0010
0000
0100
0020
1000
0000
1000
0000
,
1000
0000
1030
0000
0010
1000
0010
1000
,
0001
0000
0000
0100
0000
0000
1000
0000
0100
0000
1000
0000
0010
0000
0000
0000
,
0001
0000
0100
0001
0001
0000
0001
0000
,
0001
0010
0100
0001
0010
1000
0200
0000
0000
0301
0000
0000
,
1001
0000
0100
0010
0000
0100
0100
1000
,
0010
0000
0010
0000
1000
0100
0010
0010
,
0100
0001
0001
1000
1000
0000
0010
0000
,
0010
0100
0010
0001
0000
0001
1000
1000
,
0000
0100
0010
0100
1000
0100
1000
0100
,
0011
0100
0011
0100
0000
0010
0001
0001
,
0001
0010
1000
0010
1000
0010
0100
0001
,
0010
1000
0010
0001
2020
0000
3000
0000
,
0200
0030
0000
0000
0002
0300
0000
0000
,
2003
0000
0010
0000
0002
0000
0000
3000
,
0020
0003
0000
0000
0200
0000
0000
0330
,
0220
0330
1000
0110
,
0001
0110
0001
1001
,
0010
1100
0100
0011
,
0001
0000
1100
0000
0010
0001
0010
0100
,
1000
0000
0000
0100
0000
0000
1000
0000
0011
0000
0000
0000
0011
0000
0000
0000
,
0100
0010
0000
1000
0010
0000
1010
0000
,
0100
0000
0010
0000
0000
0000
2002
0000
0000
0003
0001
0000
0001
0000
0001
0000
,
0001
0000
0000
3001
0100
0000
1000
0000
,
1000
0100
0010
0020
0000
1000
1000
1000
,
1000
0000
0000
1030
0100
0000
0001
0000
,
0010
0000
0100
0020
0001
0000
0001
0000
,
0001
0000
0031
0000
0010
0001
0010
0001
,
1000
0100
0000
0100
0000
0000
0002
0000
0000
0000
0000
0000
0003
0000
0000
0000
;

//--------------- dance-single - Blood4Fame ----------------
#NOTES:
     dance-single:
     Blood4Fame:
     Hard:
     8:
     0,0,0,0,0:
0000
0000
0100
0100
,
0100
0100
0100
0100
,
0100
0100
0001
0001
,
0001
0000
0001
0000
1000
0100
1000
0100
,
1000
0100
1000
0100
1000
0100
1000
0100
0011
0000
0000
0000
0011
0000
0000
0000
,
0100
0000
0010
1000
0000
0000
1000
0000
1010
0000
0000
0000
1010
0000
0000
0000
,
0100
0000
0010
1000
0000
0000
2002
0000
0000
0003
0001
0000
0001
0000
0001
0000
,
3001
0000
1000
0001
0000
0000
0002
0000
0103
0000
0000
0000
1000
0000
0000
0000
,
0001
0100
0010
0020
0000
1000
1000
1000
,
1000
0030
0010
1000
0000
0000
1000
0000
0100
0000
0000
0000
0001
0000
0000
0000
,
0010
0000
0000
1000
0100
0000
0020
0000
0001
0000
0000
0000
0001
0000
0000
0000
,
0001
0000
0031
0000
0010
0001
0010
0001
,
1000
0100
0000
0100
0000
0000
1000
0000
0100
0000
0000
0000
0000
0000
0000
0000
,
1000
0010
1000
0001
0000
1000
0000
0100
,
0010
0000
0000
0001
1000
0000
0010
0000
1000
0000
0000
0000
0010
0000
0000
0000
,
0010
1000
0001
0000
0001
0000
0000
0020
,
0000
0001
0000
0200
0000
0000
0330
0000
,
0001
0000
0100
0000
0001
0000
0010
0000
0000
0000
0010
0000
0000
0000
0000
0001
,
1000
0100
0010
0001
0000
1000
0000
0010
,
0000
0010
0100
0010
0000
2000
0000
0000
,
0000
3000
0000
0000
0000
0000
0000
0000
,
0001
0100
0001
1000
0000
0001
0000
0010
,
0100
0000
0000
1000
0001
0000
0100
0000
0001
0000
0000
0000
0100
0000
0000
0000
,
0100
0001
1000
0000
1000
0000
0000
0200
,
0000
1000
0000
0020
0000
0000
0330
0000
,
1000
0000
0010
0000
1000
0000
0100
0000
0000
0000
0100
0000
0000
0000
0000
1000
,
0001
0010
0100
1000
0000
0001
0000
0100
,
0000
0100
0010
0100
0001
0100
0001
1000
,
0001
0100
0001
0100
0001
0100
0001
0100
0101
0000
0000
0000
0011
0000
0000
0000
,
0100
0000
0010
1000
0000
0000
0001
0000
0011
0000
0000
0000
0011
0000
0000
0000
,
0100
0000
0010
1000
0000
0000
2002
0000
0000
3000
1000
0000
1000
0000
1000
0000
,
1003
0000
0001
1000
0000
0000
2000
0000
3100
0000
0000
0000
0001
0000
0000
0000
,
0001
0100
0010
0020
0000
0001
0001
0001
,
0001
0030
0010
0001
0000
0000
0001
0000
0100
0000
0000
0000
1000
0000
0000
0000
,
0010
0000
0000
1000
0100
0000
0020
0000
0001
0000
0000
0000
0001
0000
0000
0000
,
0001
0000
0031
0000
0010
0001
1000
0100
,
0001
0100
0000
0100
0000
0000
0000
0000
0000
0000
1000
0100
0010
0000
0000
0010
,
0001
0000
0000
0010
0100
0000
1000
0000
0001
0000
0000
0000
0001
0000
0000
0000
,
0001
0000
0000
0000
0010
0000
0000
0000
0100
0000
0000
0000
1000
0000
0000
0000
0010
0000
0000
0000
1000
0000
0000
0000
0100
0000
0000
0000
0000
0000
0000
0000
0000
0010
0000
0000
0001
0000
0000
0000
0000
0000
0000
0000
0000
0000
0000
0000
,
1001
0000
0000
0000
0100
0000
0010
0001
0000
0010
0100
0000
0100
0000
1000
0000
,
0010
0000
0000
0000
0010
0000
0000
0000
1000
0000
0100
0000
0010
0001
0010
0000
,
0100
0000
1000
0000
0001
0000
1000
0000
1000
0000
0000
0100
0010
0000
0000
0001
,
0010
0000
0100
0000
0010
0000
0001
0000
0000
0000
0001
0000
1000
0000
1000
0100
,
0000
0000
0100
0000
0010
0000
0100
0000
1000
0010
0100
0010
1000
0000
0100
0000
,
0011
0000
0100
0000
0011
0000
0100
0000
0000
0100
0010
0100
1000
0000
0001
0000
,
0001
0010
0001
0010
1001
0010
0100
1000
,
0010
1100
0010
0001
2020
0000
0000
3000
,
0200
0000
0000
0000
0002
0030
0000
0003
,
2000
0300
0010
0000
0002
0000
0000
3000
,
0020
0000
0000
0003
0200
0000
0000
0330
,
0220
0000
0000
0000
0330
0000
0000
0000
1000
0000
0000
0100
0010
0000
0000
0000
,
0001
0000
0000
0010
0100
0000
0000
0000
0001
0000
0000
1000
0001
0000
0000
0000
,
0010
0000
0000
0100
1000
0000
0000
0000
0100
0000
0000
0010
0001
0000
0000
0000
,
0001
0000
0000
1000
0100
0000
0000
0000
0010
0000
0001
0000
0010
0000
0100
0000
,
1000
0000
0000
0100
0000
0000
1000
0000
0011
0000
0000
0000
0011
0000
0000
0000
,
0100
0000
0010
0001
0000
0000
1000
0000
1010
0000
0000
0000
1010
0000
0000
0000
,
0100
0000
0010
1000
0000
0000
2002
0000
0000
0003
0001
0000
0001
0000
0001
0000
,
3001
0000
1000
0001
0000
0000
0002
0000
0103
0000
0000
0000
1000
0000
0000
0000
,
1000
0001
1000
0020
0000
1000
1000
1000
,
1000
0030
0010
1000
0000
0000
1000
0000
0100
0000
0000
0000
0001
0000
0000
0000
,
0010
0000
0000
1000
0100
0000
0020
0000
0001
0000
0000
0000
0001
0000
0000
0000
,
0001
0000
0031
0000
0010
0001
0010
0001
,
1000
0100
0000
0100
0000
0000
0002
0000
0000
0000
0000
0000
0000
0000
0000
0000
,
0000
0000
0000
0000
,
0000
0000
0000
0000
,
0000
0003
0000
0000
;
