#TITLE:Eternal Memory;
#SUBTITLE:-A Girl's Dream-;
#ARTIST:M2U;
#TITLETRANSLIT:;
#SUBTITLETRANSLIT:;
#ARTISTTRANSLIT:;
#GENRE:J/K-Pop;
#CREDIT:Blood4Fame;
#MUSIC:music.mp3;
#BANNER:banner.png;
#BACKGROUND:bg.png;
#CDTITLE:;
#SAMPLESTART:0.000;
#SAMPLELENGTH:0.000;
#SELECTABLE:YES;
#OFFSET:-0.019;
#BPMS:0.000=62.508
,32.000=125.016
,228.000=62.508
;
#STOPS:;
#BGCHANGES:;
#FGCHANGES:;

//--------------- dance-single - Blood4Fame ----------------
#NOTES:
     dance-single:
     Blood4Fame:
     Easy:
     2:
     0,0,0,0,0:
0000
0000
0000
0000
0000
0000
0000
0000
1000
0000
0000
1000
0000
0000
0000
0000
,
0001
0000
0000
0001
0000
0000
0000
0000
0100
0000
0000
0100
0000
0000
0000
0000
,
0010
0000
0000
0010
0000
0000
0000
0000
1000
0000
0000
1000
0000
0000
0000
0000
,
0100
0000
0000
0100
0000
0000
0000
0000
0010
0000
0000
0010
0000
0000
0000
0000
,
0001
0000
0000
0001
0000
0000
0000
0000
1000
0000
0000
1000
0000
0000
0000
0000
,
0010
0000
0000
0010
0000
0000
0000
0000
0100
0000
0000
0100
0000
0000
0000
0000
,
0001
0000
0000
0001
0000
0000
1000
0000
0100
0000
0000
0100
0000
0000
0000
0000
,
0010
0000
0000
0010
0000
0000
0000
0000
0100
0000
0000
0000
0100
0000
0000
0000
,
0100
0100
0010
0010
,
0001
0000
0001
0000
,
1000
0000
1000
0100
,
0020
0030
0010
0000
,
0100
0000
0100
0000
,
0001
0100
0010
0000
,
0010
0000
1000
0000
,
1000
0010
0200
0300
,
0100
0000
0010
0000
,
0001
0010
0002
0003
,
1000
0010
1000
0000
,
1000
0100
2000
0000
,
3001
0100
0001
0000
,
1000
0100
1000
0000
,
0001
0100
0001
0000
,
0010
0010
0010
0000
,
0200
0302
2003
3200
,
0310
0010
0010
0000
,
1000
1000
1000
0000
,
0001
0000
0001
0000
,
0100
0100
0010
0010
,
0001
0000
2000
3000
,
0001
0100
0200
0300
,
0010
1000
0100
0000
,
1000
0000
1000
0100
,
0200
0300
1000
0000
,
0020
0030
0001
0000
,
0100
0100
0100
0000
,
0010
0010
0010
1000
,
0200
0000
0300
0000
0000
0100
0000
0100
,
0020
0000
0030
0000
0000
0010
0000
0010
,
2000
0000
3002
0000
,
1003
1000
0001
0001
,
0100
0100
0100
0000
,
0010
0010
0010
0000
,
1000
1000
0100
1000
,
1000
0000
0001
0000
,
0100
0100
0100
0000
,
0010
0010
0010
0000
,
1000
0100
1000
0000
,
0001
0100
0001
0010
,
0100
0100
0100
0000
,
1000
0010
0100
0000
,
0001
0100
0001
0001
,
1000
2000
0000
3000
,
2000
0000
3000
0000
0000
0001
0000
0100
,
0020
0000
0030
0000
0000
0100
0000
0010
,
2000
3000
2000
3000
,
0100
0100
0010
0010
,
2002
0000
3003
0000
;

//--------------- dance-single - Blood4Fame ----------------
#NOTES:
     dance-single:
     Blood4Fame:
     Medium:
     4:
     0,0,0,0,0:
0000
0000
0000
0000
0001
0100
0010
0000
,
1000
0010
0100
0000
0001
0010
0100
0000
,
1000
0100
0010
0100
1000
0100
0010
0000
,
0001
0100
0000
0100
0001
1000
0000
0000
,
1000
0001
0000
0000
0100
0000
0010
0000
,
0000
1000
0000
0000
0001
0000
0000
0000
0100
0000
0000
0000
0001
0000
0000
0000
,
0000
0010
0000
0000
0010
0000
0000
0000
1000
0000
0000
0000
0010
0000
0000
0000
,
0000
0100
0000
0000
0010
0000
0000
0000
0100
0000
0000
0000
0001
0000
0000
0000
,
0010
0000
1000
0000
0001
0100
0010
1000
,
0100
0100
0100
0000
,
0000
0010
0001
0100
0010
0000
1000
0100
,
0020
0000
0030
1000
0002
0000
0000
0000
,
0000
0000
0003
0000
0000
0010
0001
0000
,
0001
1000
0001
0000
0010
0000
0000
0010
,
1000
0000
1000
0010
0100
0000
0001
0100
,
0020
0000
0000
1030
0200
0000
0000
0300
,
1001
0000
1001
0000
,
0010
1000
0100
0010
0000
0000
0000
0000
,
0000
0000
0100
0010
0001
0000
1000
0100
,
0020
0000
0000
0000
0000
0030
0010
0000
2000
0000
0000
0000
0000
0000
0000
0000
,
0000
0000
0000
3000
0000
1000
0100
0000
,
0010
0000
0000
0000
0000
0010
1000
0000
,
0100
0000
0000
0000
0000
0010
0001
0000
,
0010
0000
0000
0000
0000
0000
0000
0100
,
0110
0000
0110
0000
0001
0100
0010
0000
,
0002
0000
1003
0100
0000
0010
0100
0000
,
2000
0000
3001
0010
0000
0000
0010
0001
,
0100
0000
1000
0100
0010
0001
0100
0020
,
0000
0000
0030
0000
,
1000
0000
1000
0000
1000
0000
0000
1000
,
0001
0000
0001
0000
0001
0000
0000
1000
,
0100
0000
1000
0100
0010
0000
0100
0020
,
0000
0000
0000
0030
0000
1000
0100
0000
,
0002
0000
0003
0100
0000
0010
1000
0000
,
0020
0000
0030
0010
0000
0001
1000
0000
,
0100
0000
0010
0000
1000
0000
0100
0200
,
0000
2300
0000
0000
0000
0000
3000
0000
,
0000
0100
0010
0000
0010
0000
0000
0011
,
0001
1000
0010
0000
0010
0000
0000
0100
,
1000
0000
1000
0100
0010
0000
0100
0010
,
0020
0000
0000
0030
,
2000
0000
3001
0100
0000
0010
0100
0000
,
0002
0000
1003
0010
0000
0100
0010
0000
,
0100
0010
0001
0000
0010
0000
0100
0020
,
0000
0000
0000
0000
0000
0030
0000
0000
,
0001
1000
0100
0000
0100
0000
0000
0001
,
0001
0100
0010
0000
0010
0000
0000
0001
,
0100
0000
1000
0100
0010
0000
0100
0020
,
0000
0000
0030
0000
0000
0001
0100
0010
,
2000
3000
0000
0100
0000
0010
0001
0100
,
0020
0000
0130
0010
0000
1000
0001
1000
,
0100
0000
0010
0000
0001
0000
0100
0200
,
0000
2300
0000
0000
0000
0000
3000
0000
,
0100
0000
0010
0000
0010
0000
0000
1010
,
1000
0001
0010
0000
0010
0000
0000
1000
,
0001
0000
0001
0100
0010
1000
0100
0000
,
0020
0000
0100
0130
,
2002
0000
0000
3003
;

//--------------- dance-single - Blood4Fame ----------------
#NOTES:
     dance-single:
     Blood4Fame:
     Hard:
     7:
     0,0,0,0,0:
0000
0000
0000
0000
0000
0000
0000
0000
0001
0010
0100
1000
0010
0000
0000
0000
,
1000
0100
0010
0001
0100
0000
0000
0000
0001
0100
0010
1000
0100
0000
0000
0000
,
1000
0010
0100
0001
0010
0001
0100
0010
1000
0001
0100
0010
0100
0000
0000
0000
,
0001
0000
1000
0000
0100
0000
0010
0000
0000
0000
0001
0010
0100
0000
1000
0000
0001
0000
0010
0000
0100
0000
1000
0000
0000
0000
0000
0000
0000
0000
0000
0000
,
1000
0000
0100
0000
1000
0000
0001
0000
0000
0000
0000
0000
0000
0000
0000
0000
0100
0000
0000
0100
0000
0000
0100
0000
0010
0000
0000
0010
0000
0000
0010
0000
,
0000
0000
1000
0000
0000
1000
0000
0000
0001
0000
0000
0001
0000
0000
0010
0000
0100
0000
1000
0000
0000
1000
0000
0000
0001
0000
0000
0010
0000
0000
0001
0000
,
0000
0000
0100
0000
0000
0100
0000
0000
0010
0000
0000
1000
0000
0000
0010
0000
1000
0000
0000
0001
0000
0000
0001
0000
0010
0000
0000
0010
0000
0000
0001
0000
,
0000
0000
0100
0000
0000
0100
0000
0000
0010
0000
0000
0010
0000
0000
1000
0000
0100
0000
0000
0000
0000
0000
0010
0000
0001
0000
0000
0000
0000
0000
0100
0000
,
0010
0000
1000
0000
0001
0100
0010
1000
,
0100
0000
0000
0000
0100
0000
1000
0200
0000
0000
0300
0000
0000
0000
0000
0000
,
0000
0010
0001
0100
0010
0100
1000
0100
,
0020
0000
0000
0000
0030
0000
1000
0000
0002
0000
0000
1000
0000
0000
0100
0000
,
0000
0000
0003
0000
0000
0010
0001
0010
,
0100
0000
1000
0000
0001
0000
0001
0100
0000
0000
0000
0000
0000
0000
0010
0000
,
1000
0100
1000
0010
0100
0100
0001
0100
,
0020
0000
0000
1030
0200
0000
0000
0300
,
1001
0000
0000
0100
0000
0000
0000
0000
1001
0000
0000
0000
0000
0000
0000
0000
,
0010
0000
1000
0000
0100
0000
0010
0200
0000
0000
0000
0000
0000
0000
0300
0000
,
0000
0000
0100
0010
0001
0100
1000
0100
,
0020
0000
0000
0000
0000
0030
0010
0000
2000
0000
0000
0001
0000
0000
0100
0000
,
0000
0000
0000
0000
0000
0000
3000
0000
0000
0000
1000
0000
0100
0000
0010
0200
,
0000
0000
0000
0000
0000
0000
0300
0000
0000
0000
0010
0000
1000
0000
0100
0020
,
0000
0000
0000
0000
0000
0000
0000
0030
0000
0000
0010
0000
0001
0000
0010
0200
,
0000
0000
0000
0000
0000
0300
0000
0100
,
0110
0000
0011
0000
0001
0100
0010
0100
,
0002
0000
1003
0100
0000
0010
0100
1000
,
2000
0000
3001
0010
0000
0100
0010
0001
,
0100
0010
1000
0100
0010
0001
0100
0020
,
0000
0000
0030
0000
,
1000
0000
0010
0000
1000
0001
0000
0200
0000
0000
0300
0000
0000
0000
1000
0000
,
1000
0000
0100
0000
0010
0001
0000
0200
0000
0000
0000
0000
0300
0000
1000
0000
,
0100
0010
1000
0100
0010
0001
0100
0020
,
0000
0000
0000
0030
0000
1000
0100
0010
,
0002
0000
0003
0100
0000
0010
1000
0100
,
0020
0000
0130
0010
0000
0001
1000
0001
,
0100
0100
0010
0010
1000
1000
0100
0200
,
0000
2300
0000
0000
0000
0000
3000
0000
,
0000
0000
0100
0000
0010
0001
0000
0200
0000
0000
0300
0000
0000
0000
0011
0000
,
0001
0000
1000
0000
0010
0100
0000
0020
0000
0000
0030
0000
0000
0000
0100
0000
,
1000
0100
1000
0100
0010
0001
0100
0010
,
0020
1000
0100
0130
,
2000
0000
3001
0100
0000
0010
0100
0001
,
0002
0000
1003
0010
0000
0100
0010
1000
,
0100
0010
0001
0100
0010
1000
0100
0020
,
0000
0000
0000
0000
0000
0030
0000
0000
,
0001
0000
1000
0000
0100
1000
0000
0200
0000
0000
0300
0000
0000
0000
0001
0000
,
0001
0000
0100
0000
0010
1000
0000
0200
0000
0000
0300
0000
0000
0000
0001
0000
,
0100
0010
1000
0100
0010
0001
0100
0010
,
0000
0000
1000
0000
1000
0100
0000
0010
0000
0000
0001
0000
0100
0000
0010
0000
,
2000
3000
0000
0100
0000
0010
0001
0100
,
0020
0000
0130
0010
0000
1000
0001
1000
,
0100
0100
0010
0010
0001
0001
0100
0200
,
0000
2300
0000
0000
0000
0000
3000
0000
,
0100
0000
0100
0000
0010
0001
0000
0200
0000
0000
0300
0000
0000
0000
1010
0000
,
1000
0000
0001
0000
0010
0100
0000
0020
0000
0000
0030
0000
0000
0000
1000
0000
,
0001
0100
0001
0100
0010
1000
0100
0010
,
0020
0001
0100
0130
,
2002
0000
0000
0003
0020
0000
0000
0000
0000
0000
0000
0030
3000
0000
0000
0000
;

//--------------- dance-single - Blood4Fame ----------------
#NOTES:
     dance-single:
     Blood4Fame:
     Challenge:
     9:
     0,0,0,0,0:
0000
0000
0000
0000
0000
0000
0000
0000
0001
0010
0100
1000
0010
0000
0000
0000
,
1000
0100
0010
0001
0100
0000
0000
0000
0001
0100
0010
1000
0100
0000
0000
0000
,
1000
0010
0100
0001
0010
0001
0100
0010
1000
0001
0100
0010
0100
0000
0000
0000
,
0001
0000
1000
0000
0100
0000
0010
0000
0000
0000
0001
0010
0100
0000
1000
0000
0001
0000
0010
0000
0100
0000
1000
0000
0000
0000
0000
0000
0000
0000
0000
0000
,
1000
0000
0100
0000
1000
0000
0001
0000
0000
0000
0000
0000
0000
0000
0000
0000
0100
0000
0000
0100
0000
0000
0100
0000
0010
0000
0000
0010
0000
0000
0010
0000
,
0000
0000
1000
0000
0000
1000
0000
0000
0001
0000
0000
0001
0000
0000
0010
0000
0100
0000
0000
1000
0100
0000
0010
0000
0001
0000
0000
0010
0000
1000
0100
0000
,
0000
0000
1000
0000
0000
1000
0000
0000
0001
0000
0000
0001
0000
0100
0010
0000
1000
0000
0001
0000
0000
0001
0000
0000
0010
0000
0000
0010
0000
0001
1000
0000
,
0000
0000
0100
0000
0000
0100
0000
0000
0010
0000
0000
0010
0000
0001
1000
0000
0100
0000
0000
0000
0000
0000
0010
0000
0001
0000
0000
0000
0000
0000
0100
0000
,
0010
0000
1000
0000
0001
0100
0010
1000
,
0100
0000
0100
0000
0100
0000
1000
0200
0000
0000
0300
0000
0000
0000
0000
0000
,
0000
0010
0001
0100
0010
0100
1000
0200
,
0020
0000
0030
0001
0301
0000
0000
0000
,
0000
0000
0100
0010
1000
0000
1000
0100
0010
0001
0100
0010
1000
0100
0000
0020
,
0000
0000
0030
0000
0000
0000
0001
0100
0000
0000
0000
0000
0000
0000
0010
0000
,
1000
0100
1000
0010
0100
0100
0001
0100
,
0020
0000
0000
1000
2000
0000
0000
3030
,
1010
0000
1000
0100
0000
0010
0001
0000
1001
0000
0000
0000
0000
0000
0000
0000
,
0010
0000
1000
0000
0100
0000
0010
0200
0000
0000
0000
0000
0000
0000
0300
0000
,
0000
0000
0100
0010
0001
0100
1000
0100
,
0020
0000
0000
0000
0000
0030
0010
0000
2000
0000
0000
0000
0000
0000
0000
0000
,
0000
0000
3100
0010
0001
0000
0100
0010
1000
0100
1000
0010
0100
0001
0000
2000
,
0000
0000
3000
0000
0000
0000
0000
0000
0000
0000
0010
0000
1000
0000
0100
0020
,
0000
0000
0000
0000
0000
0000
0000
0030
0000
0000
0010
0000
0001
0000
0010
0200
,
0000
0000
0000
0000
0000
0300
0000
0100
,
0110
0000
0011
0000
0001
0100
0010
0100
,
0002
0000
1003
0100
0000
0010
0100
1000
,
2000
0000
3001
0010
0000
0100
0010
0001
,
0100
0010
1000
0100
0010
0001
0100
0010
,
1000
0000
1000
0100
0010
0000
0100
0010
0001
0100
0010
1000
0100
0010
0000
0002
,
0000
0000
0003
0000
0000
0000
1000
0200
0000
0000
0300
0000
0000
0000
1000
0000
,
1000
0000
0100
0000
0010
0001
0000
0100
0000
0000
0100
0000
0010
0000
1000
0000
,
0100
0010
0001
0100
0010
1000
0100
0010
,
0000
0000
0001
0000
0001
0100
0000
0010
0000
0000
1000
0000
0100
0000
0010
0000
,
0002
0003
0000
0100
0000
0010
1000
0100
,
0020
0000
0130
0010
0000
0001
1000
0001
,
0100
0100
0010
0010
1000
1000
0100
0100
,
0010
0000
0001
0100
0010
0000
0010
1000
0100
1000
0100
0010
0001
0010
0000
0002
,
0000
0000
0103
0000
0010
1000
0000
0200
0000
0000
0300
0000
0000
0000
0011
0000
,
0001
0000
1000
0000
0010
0100
0000
0020
0000
0000
1030
0000
0000
1000
0000
0000
,
1000
0100
1000
0100
0010
0001
0100
0010
,
0020
1000
0100
0130
,
2000
0000
3001
0100
0000
0010
0100
0001
,
0002
0000
1003
0010
0000
0100
0010
1000
,
0100
0010
0001
0100
0010
1000
0100
0010
,
0001
0000
0001
0100
0010
0000
0100
0010
1000
0100
0010
0001
0100
0010
0000
2000
,
0000
0000
3000
0000
0000
0000
0001
0200
0000
0000
0300
0000
0000
0000
0001
0000
,
0001
0000
0100
0000
0010
1000
0000
0100
0000
0000
0100
0000
0010
0000
0001
0000
,
0100
0010
1000
0100
0010
0001
0100
0010
,
0000
0000
1000
0000
1000
0100
0000
0010
0000
0000
0001
0000
0100
0000
0010
0000
,
2000
3000
0000
0100
0000
0010
0001
0100
,
0020
0000
0130
0010
0000
1000
0001
1000
,
0100
0100
0010
0010
0001
0001
0100
0100
,
0010
0000
1000
0100
0010
0000
0010
0001
0100
0001
0100
0010
1000
0010
0000
2000
,
0000
0000
3100
0000
0010
0001
0000
0200
0000
0000
0300
0000
0000
0000
1010
0000
,
1000
0000
0001
0000
0010
0100
0000
0020
0000
0000
0031
0000
0000
0001
0000
0000
,
0001
0100
0001
0100
0010
1000
0100
0010
,
0020
0001
0100
0130
,
2002
0000
0000
0003
0020
0000
0000
0000
0000
0000
0000
0030
3200
0000
0320
0000
,
0032
0003
0000
0000
;
