#TITLE:Dear my Lady;
#SUBTITLE:;
#ARTIST:Oriental ST8;
#TITLETRANSLIT:;
#SUBTITLETRANSLIT:;
#ARTISTTRANSLIT:Oriental State;
#GENRE:Dance;
#CREDIT:Blood4Fame;
#MUSIC:Dear my Lady.mp3;
#BANNER:Banner.png;
#BACKGROUND:BG.png;
#CDTITLE:;
#SAMPLESTART:13.376;
#SAMPLELENGTH:18.750;
#SELECTABLE:YES;
#OFFSET:-0.251;
#BPMS:0.000=128.000;
#STOPS:;
#BGCHANGES:;
#FGCHANGES:;

//--------------- dance-single - Blood4Fame ----------------
#NOTES:
     dance-single:
     Blood4Fame:
     Beginner:
     2:
     0,0,0,0,0:
0000
0000
0000
0000
,
0000
0000
0000
0000
,
0000
0000
0000
0000
,
1000
0000
0000
0000
,
1000
0000
0000
0000
,
0001
0000
0000
0000
,
0001
0000
0000
0000
,
0100
0000
0010
0000
,
0100
0100
0100
0001
,
0001
0000
1000
0000
,
0010
0010
0010
0001
,
0000
1000
0000
0001
,
0000
0100
0100
0100
,
0001
0000
0100
0000
,
0010
0000
1000
1000
,
1000
1000
0001
0000
,
0010
0000
0100
0000
,
1001
0000
0000
0000
,
0110
0000
0000
0000
,
1001
0000
0000
0000
,
1000
0100
0010
0001
,
0000
0000
0000
0000
,
0110
0000
0000
0000
,
1001
0000
0000
0000
,
0001
0010
0100
1000
,
0002
0000
0000
0000
,
2003
0000
0000
0000
,
3200
0000
0000
0000
,
0320
0000
0000
0000
0000
0030
0000
0000
,
2002
0000
0000
3003
,
0220
0000
0000
0330
,
1000
0000
0100
0000
,
0001
0000
0010
0010
,
0001
0000
0100
0000
,
0001
0000
0010
0000
,
0001
0000
0100
0000
,
0001
0000
0010
0000
,
1000
0000
0010
0000
,
1000
0000
0100
0000
,
1000
0000
0010
0010
,
0010
0000
0001
1000
,
0001
0000
0100
0010
,
0100
0000
0001
1000
,
0001
0000
0100
0010
,
0100
0000
0001
0010
,
0100
0000
0001
0010
,
0100
0000
1000
0010
,
0100
0000
1000
0010
,
0100
0000
0001
1000
,
1001
0000
0000
0000
;

//--------------- dance-single - Blood4Fame ----------------
#NOTES:
     dance-single:
     Blood4Fame:
     Easy:
     3:
     0,0,0,0,0:
0000
0000
0000
0000
,
0000
0000
0000
0000
,
0000
0000
0000
0000
,
0100
0000
0000
0000
1000
0000
0000
0100
0000
0000
0000
0000
0001
0000
0000
0100
,
0000
0011
0000
1100
,
0100
0000
0000
0000
1000
0000
0000
0001
0000
0000
0000
0000
0010
0000
0000
0001
,
0000
0000
0000
1000
0000
0000
0001
0000
0000
0010
0000
0000
1000
0000
0000
0100
,
0000
0000
0001
0000
0000
0100
0000
0000
0010
0000
0000
0100
0000
0000
0000
0000
,
1000
0100
0010
0100
,
0002
0000
0000
0000
0203
0000
0000
0320
,
0000
0000
0130
0001
,
1000
0000
0100
0000
0001
0000
0000
0100
,
0000
0001
0010
0100
,
0002
0000
0000
0003
0200
0000
0000
2300
,
0000
0000
3010
0001
,
0010
0000
0100
0000
0001
0000
0000
0020
,
0000
0000
0000
0000
2000
0000
0000
3000
0000
0000
0000
0000
2000
0000
3030
0000
,
0000
0000
0001
0000
0000
0000
0100
0000
0000
0000
0000
0001
0000
0000
0200
0000
,
0000
0000
0301
0000
0000
0000
0100
0000
0000
0000
0000
0010
0000
0000
0000
0000
,
0000
0000
0001
0000
0000
0000
0100
0000
0000
0000
0000
0001
0000
0000
0000
0000
,
2000
0000
0000
0000
3200
0000
0000
0000
0320
0000
0000
0030
0001
0000
0000
0000
,
0000
0000
0001
0000
0000
0000
0100
0000
0000
0000
0000
0001
0000
0000
0200
0000
,
0000
0000
0301
0000
0000
0000
0100
0000
0000
0000
0000
0010
0000
0000
0000
0000
,
2000
0000
0000
3000
0100
0000
0100
0000
,
0001
1000
0100
0001
,
0020
0000
0000
0000
0000
0000
0000
0000
0000
0000
0000
0000
0030
0000
0000
0020
,
0000
0000
0000
0030
,
0200
0000
0000
0000
0000
0000
0000
0000
0000
0000
0000
0000
0300
0000
0000
0200
,
0000
0000
0000
0300
,
0020
0000
0000
0030
0000
0000
2000
0000
0000
0000
0000
0000
3000
0000
0000
0000
,
0100
0000
0000
2002
0000
0000
3003
0000
,
1000
0000
0100
0000
0001
0000
0000
0022
,
0000
0000
0000
0033
0000
0010
0000
0000
,
0200
0300
0000
0000
0002
0003
0000
0000
2000
3000
0000
0000
0000
0000
0200
0300
,
0000
0000
0002
0003
0000
0000
1000
0000
0000
0000
1000
0000
0000
0000
0000
0000
,
0200
0300
0000
0000
0020
0030
0000
0000
0001
0000
0000
0000
0000
0000
0020
0000
,
0000
1030
0000
0100
0000
0001
0000
0000
,
0020
0030
0000
0000
0002
0003
0000
0000
2000
3000
0000
0000
0000
0000
0020
0000
,
0030
0100
0000
0010
0000
0100
0000
0000
,
0200
0300
0000
0000
0020
0030
0000
0000
0020
0000
0000
0000
0030
0000
0002
0000
,
0000
0103
0001
0010
,
0002
0000
0000
0000
0203
0000
0000
0310
,
0000
0000
0002
0003
0000
0000
0020
0030
,
2000
0000
3200
0000
0302
0000
0000
0203
,
0000
1300
0010
0001
,
0002
0000
0000
0003
0100
0000
0000
0020
,
0000
0030
0000
0000
0001
0000
0000
0000
0010
0000
0000
0000
0020
0000
0030
0000
,
0002
0000
0203
0000
0302
0000
0003
0010
,
0000
0000
1000
0000
0000
0001
0000
0010
;

//--------------- dance-single - Blood4Fame ----------------
#NOTES:
     dance-single:
     Blood4Fame:
     Medium:
     7:
     0,0,0,0,0:
0000
0000
0000
0000
,
0000
0000
0000
0000
,
0000
0000
0000
0000
,
0100
0000
0001
0000
1000
0000
0000
0100
0000
0000
0010
0000
0001
0000
0100
0000
,
0000
0000
0100
0000
0011
0000
0000
0000
0000
0010
0000
0000
1100
0000
0000
0000
,
0100
0000
0010
0000
1000
0000
0000
0001
0000
0000
0100
0000
0010
0000
0001
0000
,
0000
0000
1000
0100
0000
0000
0001
0000
0001
0010
0000
0000
1000
0000
1000
0100
,
0000
0000
0001
0000
0010
0100
0000
0000
0100
0000
0001
0100
0000
0000
1000
0000
,
1000
0100
0001
0010
0001
0100
0001
1000
,
0002
0000
0000
0000
0203
0000
0001
0320
,
0000
0000
0230
0302
,
2003
0000
3200
0000
0302
0000
0010
0203
,
0000
0000
0301
1000
0001
0000
0100
0000
0000
0000
0100
0010
0100
0000
1000
0000
,
0002
0000
0000
0003
1100
0000
0001
2000
,
0000
0000
0000
0000
0000
0000
0000
0000
3020
0000
0000
0030
0002
0000
0000
0000
,
0023
0000
0230
0000
0302
0000
2003
3020
,
0000
0000
1030
0001
2000
0000
0000
3000
0000
0010
0001
0000
2000
0000
3010
0000
,
0000
0000
0001
0000
0010
0000
0100
0000
1000
0000
1000
0001
0000
0000
2200
0000
,
3000
0000
0301
0000
0010
0000
0100
0000
1000
0000
1000
0010
0000
0000
0001
1000
,
0000
0000
0001
0000
0010
0000
0100
0000
1000
0000
1000
0001
0000
0000
0000
0000
,
2000
0000
0000
0000
3200
0000
0000
0000
0320
0000
0000
0030
0002
0000
0000
0000
,
0003
0000
0001
0000
0010
0000
0100
0000
1000
0000
1000
0001
0000
0000
0200
0000
,
0000
0000
0301
0000
0010
0000
0100
0000
1000
0000
1000
0010
0000
0000
0002
0000
,
2003
0000
0000
0000
0000
0000
3100
1000
0100
0000
2000
0100
0000
0000
3100
0000
,
0002
0000
0000
0003
2002
0000
0000
3003
0202
0000
0300
0003
0022
0000
0033
0000
,
0020
0000
0000
0000
0001
0000
0000
0000
0100
0000
0000
0000
0031
0000
0000
0020
,
0000
1000
0100
1030
,
0200
0000
0000
0000
1000
0000
0000
0000
0001
0000
0000
0000
1300
0000
0000
0200
,
0000
0001
1000
0301
,
0020
0000
0000
0030
0002
0000
2000
0000
0000
0000
0003
0000
0000
0000
0100
0000
,
0100
0000
0000
0000
0000
3000
2002
0000
0000
0003
0010
0000
0200
0000
3300
0000
,
2200
3300
0000
0000
0220
0330
0000
0000
0101
0000
0010
0000
0000
0000
0022
0000
,
0000
0000
0000
0030
0103
0010
1000
0100
,
0220
0330
0000
0000
0022
0033
0000
0000
2200
3300
0000
0000
0000
0000
0220
0330
,
0000
0000
0022
0033
0000
0000
2200
0000
3300
0000
2000
0000
3002
0000
0103
0000
,
0220
0330
0000
0000
2020
3030
0000
0000
0001
0000
0001
0000
0100
0000
0020
0000
,
0000
1030
0001
0100
0010
0001
0010
0100
,
0220
0330
0000
0000
0022
0033
0000
0000
2200
3300
0000
0000
2200
3300
0020
0000
,
0030
0100
0001
0010
0100
0100
1000
0100
,
0220
0330
0000
0000
0020
0030
1000
0000
0020
0000
0000
0000
0130
0000
0002
0000
,
0000
1000
0103
0010
0001
0000
0110
0000
,
0002
0000
0000
0000
0203
0000
0001
0310
,
0000
1000
0100
0000
0002
0000
0003
0001
0000
1000
0001
0000
0020
0000
0031
0000
,
2000
0000
3200
0000
0302
0000
0010
0203
,
0000
0000
0000
0000
2300
0000
0000
0000
3020
0000
0000
0000
0032
0000
0000
0003
,
0002
0000
0000
0003
1100
0000
0001
0020
,
0000
1030
0100
0000
0002
0000
0003
0000
0000
1000
0001
0000
0020
0000
0030
0000
,
0002
0000
0203
0000
0302
0000
2003
3020
,
0000
0000
1030
0001
2000
0000
0000
3000
0000
0010
0001
0000
2000
0000
3010
0000
;

//--------------- dance-single - Blood4Fame ----------------
#NOTES:
     dance-single:
     Blood4Fame:
     Hard:
     9:
     0,0,0,0,0:
0000
0000
0000
0000
,
0000
0000
0000
0000
,
0000
0000
0000
0000
,
0100
0000
0001
0000
1000
0000
0000
0100
0000
0000
0010
0000
0001
0000
0100
0000
,
0000
0000
1100
0000
0011
0000
0000
0000
0000
1010
0000
0000
0101
0000
0000
0000
,
0100
0000
0010
0000
1000
0000
0000
1000
0000
0000
0010
0000
0100
0000
0001
0000
,
0000
0000
0001
0100
0000
0010
1000
0000
0001
0010
0000
0001
1000
0000
1000
0100
,
0000
0010
0001
0000
0001
0100
0000
1000
0100
0000
0001
0100
0000
0010
1000
0000
,
0001
0100
0010
1000
0001
0100
0010
1000
0010
1000
0100
0001
1000
0001
0100
0010
,
2000
0000
0000
0000
3200
0000
1000
0310
,
0000
0001
0100
0000
0001
0000
1000
0001
0000
1000
0001
0100
0010
0000
0001
0000
,
2000
0000
3200
0000
2300
0000
3010
0100
,
0001
0000
0001
2000
0000
0000
3001
0000
0000
1000
0100
0010
0100
0000
1000
0000
,
0002
0000
0000
0003
1100
0000
0001
0020
,
0000
0031
0100
0000
0002
0000
1003
0000
0000
1000
0001
0000
0020
0000
0130
0000
,
0002
0000
0203
0000
0302
0000
2003
3020
,
0000
0000
1030
0001
2000
0000
0000
3100
0000
0010
0001
0000
2000
0000
3010
0000
,
0000
0000
0011
0000
0010
0000
0100
0000
1100
0000
1000
0001
0000
0000
0200
0000
,
0000
0000
0301
0000
0010
0000
0100
0000
1100
0000
1000
0010
0000
1000
0001
0100
,
0000
0000
0011
0000
0010
0000
0100
0000
1100
0000
1000
0001
0000
0000
0000
0000
,
2000
0000
0000
0000
3200
0000
0000
0000
0320
0000
0000
0031
0000
1000
0001
0000
,
0000
0000
0011
0000
0010
0000
0100
0000
1100
0000
1000
0001
0000
0000
0200
0000
,
0000
0000
0301
0000
0010
0000
0100
0000
1100
0000
1000
0010
0000
0010
1000
0000
,
0200
0000
0000
0000
0300
0100
1000
0100
1000
0000
2000
0100
0000
0000
3100
0010
,
0002
0000
0000
0003
2002
0000
0000
3003
0102
0000
0100
0003
0012
0000
0010
0000
,
0023
0000
0000
0000
0001
0000
0000
0000
0100
0000
0000
0000
0031
0000
0100
0020
,
0000
0000
0000
0000
1000
0000
0000
0000
0100
0000
0000
0000
1030
0000
0001
1000
,
0200
0000
0000
0000
1000
0000
0000
0000
0001
0000
0000
0000
1300
0000
1000
0200
,
0000
0000
0000
0000
0001
0000
0000
0000
1000
0000
0000
0000
0301
0000
0100
1000
,
0020
0000
0000
0030
0002
0000
2000
0000
0000
0000
0003
0000
0000
0000
0100
0000
,
0100
0000
0000
0000
0000
3000
2002
0000
0000
0003
0010
0000
0200
0000
3300
0000
,
2200
3300
0000
0000
0220
0330
0000
0000
0202
0003
0020
0330
0000
0000
2010
0000
,
0001
0000
0000
0001
0000
0000
0001
0000
3100
0000
0010
0100
1000
0000
0100
0000
,
0220
0330
0000
0000
0022
0033
0000
0000
2200
3300
0000
0000
0000
0000
0220
0330
,
0000
0000
2020
3030
0000
0000
0202
0000
0303
0000
0002
0000
2003
0000
3100
0000
,
0220
0330
0000
0000
0022
0033
0000
0000
1020
0000
1030
0000
0100
0000
0020
0000
,
0000
0031
1000
0100
0010
0001
0010
0100
,
0220
0330
0000
0000
0022
0033
0000
0000
2200
3300
0000
0000
2200
3300
0020
0000
,
0030
0100
1000
0010
0100
0100
1000
0100
,
0220
0330
0000
0000
1020
0030
1000
0000
0020
0000
0000
0000
0130
0000
0002
0000
,
0000
1000
0103
0010
0011
0000
0110
0000
,
0002
0000
0000
0000
0203
0000
0001
0310
,
0000
0001
0100
0000
0002
0000
1003
0001
0000
1000
0001
0100
0020
0000
0130
0000
,
2000
0000
3200
0000
0302
0000
0010
0103
,
1000
0000
0001
2000
0000
0000
3001
0000
0000
1000
0100
0010
0100
0000
1000
0000
,
0002
0000
0000
0003
1100
0000
0001
0020
,
0000
0031
0100
0000
0002
0000
1003
0000
0000
1000
0001
0000
0020
0000
0130
0000
,
2000
0000
3200
0000
0302
0000
0203
0320
,
0000
0000
1030
0001
2000
0000
0000
3100
0000
0010
0001
0000
2000
0000
3010
0000
,
0100
0000
0000
0000
;
