#TITLE:DReam Again;
#SUBTITLE:;
#ARTIST:DINY;
#TITLETRANSLIT:;
#SUBTITLETRANSLIT:;
#ARTISTTRANSLIT:;
#GENRE:J/K-Pop;
#CREDIT:Blood4Fame;
#MUSIC:Dream Again.mp3;
#BANNER:Banner.png;
#BACKGROUND:BG.png;
#CDTITLE:;
#SAMPLESTART:0.000;
#SAMPLELENGTH:0.000;
#SELECTABLE:YES;
#OFFSET:-0.070;
#BPMS:0.000=140.000;
#STOPS:;
#BGCHANGES:;
#FGCHANGES:;

//--------------- dance-single - Blood4Fame ----------------
#NOTES:
     dance-single:
     Blood4Fame:
     Easy:
     3:
     0,0,0,0,0:
0000
0000
0000
0000
,
2000
3020
0000
0000
,
0230
0000
0000
0302
0000
0000
0203
0000
,
0000
0000
0000
0000
0000
0300
0000
0000
,
0020
0000
0000
0230
0000
0000
2300
0000
,
0000
3001
0200
0000
,
0320
0000
0130
0002
,
0000
0000
0000
2000
0000
0000
0000
3003
,
2002
0000
3003
0220
0000
0000
0000
0000
,
0000
0000
0000
0000
0000
0330
0000
0000
,
0020
0000
0000
1030
0000
0000
0000
0000
,
0002
0000
0000
1003
0000
0000
0000
0000
,
1000
0100
0010
0000
,
0001
0100
0010
0000
,
2000
0000
0000
3001
0000
0000
0000
0000
,
0020
0000
0000
0130
0000
0000
0000
0000
,
1000
0000
0000
0001
0000
0000
0220
0000
,
0000
0000
0330
0000
,
1000
0100
0100
0000
,
0001
0010
0010
0000
,
0001
0010
0100
1000
,
0100
0010
0001
0000
,
1000
0100
0100
0000
,
0001
1000
1000
0000
,
1000
0100
0001
0100
,
0010
0001
0000
1000
,
1000
0002
0000
0000
,
1003
0010
0100
0000
,
0001
0010
0100
1000
,
0002
0000
0000
1003
0000
0000
0000
0000
,
1000
0100
0010
0000
,
0100
0010
0001
0000
,
0001
0100
0010
0000
,
2002
0000
0000
3003
,
0100
0010
0001
0000
,
1000
0100
0010
0000
,
1000
0001
0001
0000
,
0010
1000
1000
0000
,
0001
0100
0010
0000
,
0010
1000
0100
0000
,
0010
0100
0100
0000
,
0001
0100
0100
0000
,
0010
0000
0000
1000
0000
0000
0001
0000
,
1000
0000
0200
0000
0000
0000
0000
0300
,
1000
0000
0000
0001
0000
0000
0010
0000
,
0001
0100
0001
0010
,
0001
0000
0000
0010
0000
0000
0200
0000
,
0000
0000
0000
0300
0000
0000
0010
0000
,
0001
0100
0010
1001
,
0000
0010
0100
0000
,
2000
0000
0000
0002
0000
0000
0000
0000
,
0000
0000
0000
3003
,
0000
0220
0000
0000
,
0000
0000
0000
0000
0000
0000
0000
0330
;

//--------------- dance-single - Blood4Fame ----------------
#NOTES:
     dance-single:
     Blood4Fame:
     Medium:
     6:
     0,0,0,0,0:
1000
0100
1000
0010
0000
0100
0002
0000
,
0000
0000
2000
0000
0000
0000
0000
3003
,
0001
0100
0001
0010
0000
0100
2000
0000
,
0000
0000
0000
0000
0000
0000
0000
3000
,
1000
0010
1000
0100
0000
0010
0002
0000
,
0000
0000
0000
2000
0000
0000
0000
3003
,
0001
0010
0001
0100
0000
0010
2200
0000
,
0000
0300
0000
0002
0000
0000
0000
3003
,
0022
0000
0033
2200
0000
0000
0000
0000
,
0000
0000
0000
0000
3300
0000
0000
0100
0010
0000
0000
0010
0100
0000
0000
0100
,
0020
0000
0000
0200
0330
0000
0000
0000
,
1000
0000
0000
0010
0000
0000
1001
0000
0000
0000
0100
0000
0010
0000
0000
0000
,
1100
0000
0100
0000
0001
0010
0100
0000
,
0110
0000
0001
2000
0000
3010
0200
0000
,
0320
0000
0000
1030
0000
0001
0010
0000
,
0001
0000
0000
1000
0000
0000
1010
0000
0000
0000
0001
0000
0100
0000
0000
0000
,
0002
0000
0103
0010
0000
0001
0020
0000
,
0030
0000
0000
0000
0000
1000
0001
0020
,
0000
0000
0000
0000
0032
0000
1003
0001
,
2000
3000
0020
0030
0200
0000
0300
0000
,
1000
0000
1100
0000
0001
0000
1000
0010
,
0200
0000
0000
0302
0000
0000
0013
0001
,
1000
0000
0010
0200
0300
0001
0000
0010
,
0000
0001
0020
0000
0000
0000
0130
0000
,
0010
0100
1000
0002
0000
0203
0000
0320
,
0000
1030
0010
0000
0001
0000
1000
0010
,
0000
0000
1001
0000
0100
0000
0001
1000
,
1010
0000
1010
0000
0220
0330
0000
0000
,
0101
0110
1010
0110
,
0202
0000
0303
0010
0000
1000
0010
0000
,
0100
0001
0010
0100
0000
0010
0001
2000
,
0000
0010
0020
0000
0000
3030
0000
0000
,
0200
0000
0001
0000
0310
0200
0000
0302
,
0000
0003
0000
0000
0000
0000
0000
0000
0000
0000
0000
0000
0000
0000
0000
0000
,
0002
0000
1003
0200
0000
2300
0000
3000
,
2020
0000
0030
3000
0000
0000
2002
0000
0000
0000
0000
0000
3003
0000
0000
0000
,
0200
0000
1300
0000
0001
0100
0010
0000
,
0001
0000
0010
0100
0010
0100
0001
1000
,
0020
0000
0130
0002
0000
2003
0000
3000
,
0110
0000
0000
0110
0000
0000
1001
0000
0000
0000
0001
0000
0100
0000
0010
0000
,
2000
0000
0000
3002
0000
0000
0023
0000
0000
0000
0000
0000
0130
0000
0010
0000
,
0001
0000
0100
0010
0100
0000
0010
0100
,
0001
0100
0010
2000
0000
3010
0200
0000
,
0000
0000
0020
0000
0000
0030
0310
0100
,
0001
0010
0100
2000
0000
3200
0020
0000
,
0000
0030
0300
0000
0100
0010
0100
0000
,
2002
0000
0000
3003
0000
0000
0022
0000
0033
0000
0000
0000
2200
0000
0000
0000
,
0000
3300
0000
0000
0000
0000
0000
0000
0000
0000
0000
0000
1000
0000
0000
0000
0000
0000
0000
0000
0000
0000
0000
0000
0100
0000
0000
0000
0000
0000
0000
0000
0000
0000
0000
0000
0020
0000
0000
0000
0000
0000
0000
0000
0000
0000
0000
0000
0000
0000
0000
0000
0000
0000
0000
0000
0000
0000
0000
0000
0030
0000
0000
0000
0000
0000
0000
0000
0000
0000
0000
0000
0000
0000
0000
0000
0000
0000
0000
0000
0000
0000
0000
0000
2000
0000
0000
0000
0000
0000
0000
0000
0000
0000
0000
0000
,
0000
3200
1300
0000
2200
3300
2020
0000
,
3030
1000
0010
0200
0000
0301
0100
0000
,
2002
0000
3003
0202
0003
0301
0100
0010
,
0000
0000
0001
0000
1000
0000
0100
0000
0010
0100
0000
0000
1000
0000
0010
0000
,
0000
0220
0000
0000
,
0000
0000
0000
0000
0000
0000
0000
0000
0000
0000
0000
0000
0000
0000
0000
0330
;

//--------------- dance-single - Blood4Fame ----------------
#NOTES:
     dance-single:
     Blood4Fame:
     Hard:
     8:
     0,0,0,0,0:
0001
0010
0001
0100
0000
0010
2000
0000
,
0010
0000
0002
0000
0000
0000
0000
3003
,
1000
0010
1000
0100
0000
0010
0002
0000
,
0000
0000
0000
0000
0000
0000
0000
0003
,
0001
0100
0001
0010
0000
0100
2000
0200
,
0000
0300
0100
0002
0000
0000
0000
3003
,
1000
0100
1000
0010
0000
0100
0022
0000
,
0000
0030
0010
2000
0000
0000
0000
3003
,
2200
0000
3300
0022
0000
0000
0000
0000
,
0000
0000
0000
0000
0033
0000
0001
0010
0100
0000
1000
0100
0010
0000
0001
0010
,
0200
0000
0000
0000
0000
0000
0310
0000
0000
0000
0001
2000
0000
0000
0000
0000
,
3001
0000
0000
0101
0000
0000
1001
0000
0000
0000
0010
0000
0100
0000
0001
0000
,
0011
0000
0010
0000
1000
0100
0010
0000
,
0110
0000
1100
0002
0000
0103
0020
0000
,
0230
0000
0000
0301
0000
1000
0100
0000
,
1100
0000
0000
1001
0000
0000
0101
0000
0000
0000
1000
0100
0010
0000
0000
0000
,
0002
0000
0013
0100
0000
1000
0100
0010
,
0010
0001
0100
0010
1000
0001
1000
0200
,
0000
0000
0010
0000
2300
0000
3001
1000
,
0002
0100
0023
0030
,
0011
0000
0011
0000
1000
0000
0001
0100
,
0020
0000
0000
2030
0000
0000
3100
1000
,
0001
0010
0100
0020
0000
0001
0000
0130
,
0000
1000
0200
1000
0000
0000
0310
0000
,
0100
0010
0001
2000
0000
3020
0000
0230
,
0000
0000
0301
0000
0100
0000
0000
0000
1000
0001
0000
0010
0001
0000
0100
0000
,
0010
0000
1001
0000
0010
0100
1000
0001
,
0101
0000
1100
0000
0110
0001
1000
0010
,
1010
0110
0101
1100
,
0110
0001
0010
0100
0010
0001
0100
0000
,
1010
1000
0100
0011
0000
0100
1001
0002
,
0000
0100
0200
0000
0000
0303
0001
1000
,
0020
0000
1000
0000
0130
0020
0000
1030
,
2020
0000
0000
0000
0000
0000
0000
3000
,
2030
0000
3001
0020
0000
0032
0000
0003
,
0202
0300
0000
0103
0000
0000
2002
0000
0000
0000
3000
0000
1003
0000
0001
0000
,
0020
0000
0000
0000
0031
0100
0000
0000
1000
0000
0010
0000
0100
0000
0000
0010
,
1000
0000
0000
1000
0100
0000
0010
0000
0100
0000
0010
0000
1000
0000
0001
0000
,
0200
0000
0310
2000
0000
3002
0000
0013
,
0110
0000
0000
0110
0000
0000
1001
0000
0000
0000
1000
0000
0010
0000
0100
0000
,
0002
0000
0000
2003
0000
0000
3200
0000
0000
0000
0000
0000
0310
0000
0100
0000
,
1000
0000
0000
1000
0010
0000
0100
0000
0010
0000
1000
0000
0100
0000
0010
0000
,
0001
0010
0100
2000
0000
3100
0020
0000
,
0001
0000
0200
0000
0000
0300
0130
0010
,
0001
0100
0010
2000
0000
3020
0200
0000
,
0000
0000
0300
0000
1030
0000
0000
1000
0010
0000
0100
0000
0010
0000
1000
0000
,
1001
0010
0100
2200
3300
0010
0012
0020
,
0003
0031
0010
0200
0300
0100
1000
0002
,
0000
0023
0031
0010
0022
0033
0202
0000
,
0303
0000
0001
0000
0100
0000
2020
0000
0000
0000
0031
3000
0010
1000
0000
0000
,
2002
0000
3003
2020
3000
1030
0010
0100
,
0010
0000
1000
0000
0001
0000
0010
0000
0100
0010
0000
0000
0001
0000
0100
0000
,
0000
0220
0000
0000
,
0000
0000
0000
0000
0000
0000
0000
0000
0000
0000
0000
0000
0000
0000
0000
0330
;
