#TITLE:Black Swan;
#SUBTITLE:;
#ARTIST:TAK;
#TITLETRANSLIT:;
#SUBTITLETRANSLIT:;
#ARTISTTRANSLIT:;
#GENRE:Classical Remix;
#CREDIT:Blood4Fame;
#MUSIC:DJMAX TECHNIKA 3 - Black Swan - TAK.mp3;
#BANNER:Banner.png;
#BACKGROUND:BG.png;
#CDTITLE:;
#SAMPLESTART:80.886;
#SAMPLELENGTH:16.552;
#SELECTABLE:YES;
#OFFSET:-0.542;
#BPMS:0.000=174.000;
#STOPS:;
#BGCHANGES:;
#FGCHANGES:;

//--------------- dance-single - Blood4Fame ----------------
#NOTES:
     dance-single:
     Blood4Fame:
     Beginner:
     2:
     0,0,0,0,0:
0000
0000
0000
0000
,
0000
0000
0000
0000
,
0000
0000
0000
0000
,
0000
0000
0000
0000
,
0000
0000
0000
0000
,
0000
0000
0000
0000
,
1000
0000
0000
0100
,
0000
0000
0100
0000
,
0000
0010
0000
0000
,
0000
0001
0000
0000
0000
0000
0000
0001
,
0000
0000
0000
1000
,
0000
1000
0000
0100
,
0000
0000
0000
0000
,
0000
0000
0010
0000
,
0000
0100
0100
0000
,
0000
0010
0000
0000
,
0010
0000
0010
0000
,
0100
0100
0000
0000
,
0100
0000
0000
1000
,
0000
1000
1000
0000
,
0001
0001
0000
0000
,
1000
0000
0001
0000
,
0000
0010
0000
0000
,
0110
0000
0010
0000
,
0000
0010
0000
0000
,
0100
0000
0200
0300
,
0000
0000
0010
0010
,
0010
0000
0020
0030
,
0000
0000
0010
0010
,
0020
0000
0000
0000
0030
0000
0000
0100
,
0000
0100
0000
0000
0000
0010
0000
0000
,
0000
0000
0001
0000
,
0000
0100
0000
0000
0000
0010
0000
0000
,
0000
0000
1000
0000
2000
0000
0000
3000
,
1000
0000
0001
0001
,
0002
0000
0000
0003
0000
0000
0000
0000
,
0010
0010
0020
0000
,
0030
0000
0001
0001
,
0002
0003
0000
0200
,
0300
0000
2000
3000
,
0000
0200
0300
0000
,
0020
0030
0000
0200
,
0300
0000
0020
0030
,
0000
0010
0010
0000
,
0022
0000
0033
0000
,
0000
0220
0000
0330
,
0000
0000
0022
0000
,
0033
0000
0000
0220
,
0000
0330
0000
0000
0000
0000
0000
0000
,
0000
0200
0000
0000
,
0300
0100
0000
0020
,
0030
0000
0002
0000
,
0000
0003
0002
0000
0000
0000
0003
0000
,
1000
0000
0001
0002
,
0000
0000
0000
0003
0002
0000
0003
0000
,
0000
0000
0020
0000
0000
0000
0000
0030
,
1000
0000
0010
0000
,
0100
0000
2000
0000
,
0000
3001
0000
0000
,
0001
0000
0100
0000
,
0001
0000
1000
0000
,
0000
0001
0000
0100
,
0000
0000
0001
0000
,
0001
0000
0200
0300
,
0000
0000
0100
0000
,
1000
0000
0010
0000
,
1000
0000
0001
0000
,
0000
1000
0000
0001
,
0000
0000
1000
0000
,
0000
0010
0020
0000
,
0000
0032
0000
0000
,
0013
0000
0010
0020
,
0000
0000
0000
0030
0200
0000
0000
0000
,
0300
0020
0030
0000
,
0011
0000
0000
2200
,
0000
0000
3300
0000
;

//--------------- dance-single - Blood4Fame ----------------
#NOTES:
     dance-single:
     Blood4Fame:
     Easy:
     4:
     0,0,0,0,0:
0000
0000
0000
0000
,
0000
0000
0000
0000
,
0000
0000
0000
0000
,
0000
0000
0000
0000
,
0000
0000
0000
0000
,
0000
0000
0000
0001
,
1000
0000
0000
1100
,
0000
0000
0101
0000
,
0000
1010
0000
0000
,
0000
0001
0000
0000
0001
0000
0000
0001
,
0000
0001
0000
1000
,
0001
1000
0000
0100
,
0000
0000
0000
0000
,
0000
0000
0000
0000
0010
0000
0000
0100
,
0000
0000
0100
0000
0001
0000
0000
1000
,
0000
0000
0010
0000
0000
0100
0000
0000
,
0010
0000
0010
0010
,
0100
0000
0100
0000
0000
0010
0000
0000
,
0100
0000
0000
1000
0000
0000
1000
0000
,
0000
1000
1000
0000
,
0001
0001
0010
0000
,
1000
0000
0010
0000
0001
0000
0000
1000
,
0000
0010
0001
0000
,
0110
0000
0000
0000
0010
0000
0000
1000
,
0000
0010
0001
0000
,
0100
0000
0200
0300
,
0000
0000
0010
0010
,
0010
0100
0020
0030
,
0000
0100
0010
0010
,
0020
0000
0000
0000
0030
0000
0000
0100
,
0000
0100
0000
0000
0000
0010
0000
0000
,
0100
0000
0000
0000
0001
0000
0000
0010
,
0000
0100
0000
1000
0000
0010
0000
0000
,
0100
0000
1000
0000
2000
0000
0000
3000
,
1000
0100
0001
0001
,
0020
0000
1030
0100
,
0010
0001
0020
0000
,
1030
0010
0100
0001
,
0002
0003
0000
0200
,
0000
0300
2000
0000
,
3000
0200
0000
0300
,
0020
0000
0030
0200
,
0000
0300
0020
0000
,
0030
0010
0001
0000
,
0011
0000
0000
2020
,
3030
0110
0000
0000
,
0202
0303
0011
0000
,
0000
2020
3030
0110
,
0000
0000
0000
0000
0202
0000
0000
0303
,
0000
0200
0000
0000
,
1300
0100
0010
0020
,
0000
0000
0002
0000
,
0000
0033
0002
0000
0000
0000
0003
0000
,
1000
0100
0001
0002
,
0000
0000
0200
0303
,
0000
0000
0020
0000
0000
0000
0000
0030
,
1000
0100
0010
0001
,
0100
1000
2000
0000
,
0000
3001
0010
0000
,
0001
1000
0100
0000
,
0001
0000
1000
0001
,
0000
0001
0000
0100
,
0010
0000
0001
0010
,
0001
0100
0200
0300
,
0000
0000
0100
0000
,
1000
0001
0010
0000
,
1000
0000
0001
1000
,
0000
1000
0000
0001
,
0000
0000
1000
0100
,
0000
0010
0020
0000
,
0000
0032
0000
0000
,
0013
0000
0100
0020
,
0000
0000
0000
0030
0200
0000
0000
0000
,
0300
0020
0030
0010
,
0011
0000
1100
0002
,
0000
0000
0000
0000
,
0000
0003
0000
0000
;

//--------------- dance-single - Blood4Fame ----------------
#NOTES:
     dance-single:
     Blood4Fame:
     Medium:
     8:
     0,0,0,0,0:
0000
0000
0000
0000
,
0000
0000
0000
0000
,
0000
0000
0000
0000
,
0000
0000
0000
0000
,
0000
0000
0000
0000
,
0000
0000
0000
0000
0000
0010
0001
0000
,
1010
0010
0010
1100
,
0100
0100
0101
0001
,
0001
1010
1000
1000
,
1000
0001
0000
0100
0001
0000
0010
0001
,
0000
0100
0001
0000
0010
0000
1000
0000
,
0001
0000
1000
0000
0000
0001
1000
0000
,
0000
0000
0000
0000
,
0000
0000
0000
0000
0011
0000
0000
0100
,
0000
0000
0100
0000
0001
0000
0000
1000
,
0000
0000
0010
0000
0000
0100
1000
0000
,
0010
0000
1010
0000
0010
1000
0010
1000
,
0100
1000
0001
0000
0000
0010
0000
0010
,
0100
0000
0000
1000
0010
0000
1000
0000
,
0100
0000
1000
0100
1000
0000
0000
0010
,
0001
0000
0001
0010
0020
0000
0030
0000
,
1000
0100
0010
0001
0001
0000
0000
1000
,
0000
0100
0010
0001
0001
0000
0110
0000
,
0110
0000
1000
0100
0010
0000
0000
1000
,
0000
0100
0010
0001
0001
0000
0110
0000
,
0101
0000
1010
0000
2200
0000
0300
3100
,
0000
0010
0001
0100
0010
0000
1010
0000
,
0110
0000
0100
1000
0020
0000
0030
0100
,
0000
1000
0100
0000
0010
0000
0010
0000
,
0010
1000
0010
0000
0010
0000
0000
0110
,
0000
1100
0000
0000
0000
0010
0000
0000
,
0100
0001
0000
0000
0011
0000
0000
0010
,
0000
1100
0000
1000
0100
0010
0000
0000
,
0100
0000
1000
0000
2200
0000
0000
3300
,
1100
0110
0001
0011
,
0120
0000
2030
3100
,
1010
0011
0120
0000
,
2030
3010
0110
0101
,
0002
0000
0003
0010
0000
0000
0100
0000
,
0001
0000
0010
0100
2000
0000
3000
0001
,
0000
1000
0100
0000
0001
0000
0100
1000
,
0010
0000
0001
0010
0000
1000
0100
0000
,
0010
0000
1000
0001
0010
0000
0001
1000
,
0000
0100
0020
0000
0001
0000
0001
0030
,
0011
1100
0101
2020
,
3030
0110
1100
1010
,
0202
0303
0011
1100
,
0101
2020
3030
0110
,
1100
0000
1010
0000
0202
0303
0001
0010
,
0100
1000
0200
0000
0000
0000
0000
0000
,
1300
0100
0010
0020
,
0000
0000
0002
0000
,
0000
0033
0022
0000
0000
0000
0000
0033
,
1100
0110
0101
0022
,
0000
0000
0000
0030
0200
0000
0000
0000
,
0000
0303
0220
0000
0000
0000
0000
0330
,
1000
0100
0010
0001
,
0100
1000
2000
0000
,
0000
0000
3001
0000
0010
0100
0000
0010
,
0001
1000
0100
1000
,
0001
1000
0000
0001
1000
0000
0001
1000
,
0000
0010
0001
0000
0000
1000
0100
0000
,
0010
0001
0000
0100
0001
1000
0010
0000
,
0001
0100
0200
0310
,
0010
0000
0000
0000
0100
0010
0000
0100
,
1000
0001
0010
0001
,
1000
0001
0000
1000
0001
0000
1000
0001
,
0000
0010
1000
0001
0000
0000
0001
0000
,
0000
0001
0000
0010
1000
0001
0100
0000
,
1000
0010
0020
0001
,
0001
0032
0000
0000
,
0013
0000
0100
0000
0100
1000
0020
0000
,
0000
0100
0000
0030
0200
0000
0000
0000
,
0300
0020
0030
0010
,
0011
0110
1100
0002
,
0003
0200
0000
0000
0000
0000
0000
0000
,
0300
0000
0000
0000
;

//--------------- dance-single - Blood4Fame ----------------
#NOTES:
     dance-single:
     Blood4Fame:
     Hard:
     8:
     0,0,0,0,0:
0000
0000
0000
0000
,
0000
0000
0000
0000
,
0000
0000
0000
0000
,
0000
0000
0000
0000
,
0000
0000
0000
0000
,
0000
0000
0000
0000
0000
0010
0001
0100
,
1010
0010
0010
1100
,
0100
0100
0101
0001
,
0001
1010
1000
1000
,
1000
0001
0000
0100
0001
0000
0010
0001
,
0000
0100
0001
1000
0010
0000
2000
0000
,
3002
0000
2003
0000
3000
0001
2000
0000
,
3000
0000
0000
0000
,
0000
0000
0000
0000
0011
0000
0100
0100
,
0000
1000
0100
0010
0001
0001
0010
1000
,
0000
0100
0010
0001
0000
0100
1000
0010
,
0010
0000
1010
0000
0010
1000
0010
1000
,
0100
1000
0001
1000
0001
0010
0000
0010
,
0100
0001
0000
1000
0010
0000
1000
0000
,
0100
0000
1000
0100
1000
0010
0000
0010
,
0001
0100
0001
0010
0020
0001
0030
0000
,
1000
0100
0010
0001
0001
0000
0000
1000
,
0000
0100
0010
0001
0001
0000
0110
0000
,
0110
0000
1000
0100
0010
0000
0000
1000
,
0000
0100
0010
0001
0011
0000
0110
0000
,
0101
0000
1010
0000
2200
0000
0300
3100
,
0000
0010
0001
0100
0010
0000
1010
0000
,
0110
0000
0100
1000
0020
0000
0030
0100
,
0000
1000
0100
0001
0010
0100
0010
0001
,
0010
1000
0010
0100
0010
0000
0000
0110
,
0000
1100
0000
1000
0100
0010
0000
0000
,
0010
0010
0000
0000
0011
0000
0000
0010
,
0000
1100
0000
1000
0100
0010
0000
0000
,
0100
0000
1000
0000
2200
0000
0000
3300
,
1100
0110
0001
0011
,
0120
0000
1000
0000
1030
0100
0100
0000
,
1010
0011
0120
1000
,
1030
1010
0110
0101
,
0012
0000
0000
0010
0000
0000
0103
0000
,
0001
0000
0010
0100
2000
0000
3000
0001
,
0000
1000
0100
0000
0001
0000
0100
1000
,
0010
0000
0001
0010
0000
1000
0100
0000
,
0010
0000
1000
0001
0010
0000
0001
1000
,
0000
0100
0020
0000
0001
0000
0001
0030
,
0011
1100
0101
2020
,
3030
0110
1100
1010
,
0202
0303
0011
1100
,
0101
2020
3030
0110
,
1100
0000
1010
0000
0202
0303
0001
0010
,
0100
1000
0200
0000
0000
0000
0000
0000
,
1300
0100
0010
0020
,
0000
0000
0002
0000
,
0000
0033
0022
0000
0000
0000
0000
0033
,
1100
0110
0101
0022
,
0000
0000
0000
0030
0200
0000
0000
0000
,
0000
0303
0220
0000
0000
0000
0000
0330
,
1000
0001
0100
0000
0010
1000
0001
0000
,
0100
1000
2000
0000
,
0000
0000
3001
0100
0010
0100
0000
0010
,
0001
0000
1000
0000
0100
0000
1000
0100
,
0001
1000
0000
0001
1000
0000
0001
1000
,
0000
0010
0001
1000
0000
1000
0100
0000
,
0010
0001
0010
0100
0001
1000
0010
0000
,
0001
0100
0200
0010
,
0010
0000
0300
0000
0100
0010
0000
0100
,
1000
0000
0001
0000
0010
0100
0001
0010
,
1000
0001
0000
1000
0001
0000
1000
0001
,
0000
0010
1000
0001
0000
0001
0010
0000
,
0100
1000
0100
0010
1000
0001
0100
0000
,
1000
0010
0020
0001
,
0001
0032
0000
0000
,
0013
0000
0100
0000
0100
1000
0020
0000
,
0000
0100
0000
0030
0200
0000
0000
0000
,
0300
0000
0022
0033
0000
0100
0010
0000
,
0011
0110
1100
2002
,
0003
0020
0000
0000
0000
0000
0000
0000
,
3030
0000
0000
0000
;

//--------------- dance-single - Blood4Fame ----------------
#NOTES:
     dance-single:
     Blood4Fame:
     Challenge:
     9:
     0,0,0,0,0:
0000
0000
0000
0000
,
0000
0000
0000
0000
,
0000
0000
0000
0000
,
0000
0000
0000
0000
,
0000
0000
0000
0000
,
0000
0000
0000
0000
0000
0010
0001
0100
,
0011
0010
0010
1100
,
0100
0100
0101
0001
,
0001
1010
1000
1000
,
1000
0001
0100
0010
1000
0001
0010
0001
,
1000
0100
0001
0100
0020
0000
1000
0000
,
0001
0000
1000
0000
0000
0031
2000
0000
,
3000
0000
0000
0000
,
0000
0000
0000
0000
0011
0000
0100
0101
,
0000
1000
0100
0010
0011
0001
0010
0001
,
0000
0100
0010
1000
0000
1100
1000
0010
,
0110
0000
1001
0000
1010
1000
0010
1000
,
0100
1000
0010
0000
1001
0010
0000
0010
,
0100
0000
0000
1000
0000
0000
0000
0000
0000
1000
0000
0000
0110
0000
0000
0000
0010
0000
0001
0000
0000
0000
0001
0000
,
0100
0000
0000
0000
0100
0000
0010
0000
0000
1000
0000
0000
0100
0000
0000
0010
0000
0000
0000
0000
0000
0010
0000
0000
,
0001
0100
0001
0010
0220
0000
0000
0300
,
0031
0100
0010
1000
1010
0000
1010
1000
,
0000
0100
0010
0001
0011
0000
0110
0000
,
0110
0000
0001
0100
0010
0000
0110
1000
,
0000
0100
0010
0001
0011
0000
0110
0000
,
0101
0000
1010
0000
0220
0000
0330
1000
,
0000
0010
1000
0100
0010
0000
0011
0000
,
0110
0000
0100
1000
0020
0000
0030
0100
,
0000
1000
0100
1000
0010
1000
0001
0010
,
0100
1000
0010
0100
1010
0000
0000
0110
,
0000
1100
0000
1000
0100
0110
0000
0000
,
0010
0011
0000
0000
0110
0000
0000
0010
,
0000
0000
0000
1100
0000
0000
0000
0000
0000
1000
0000
0000
0100
0000
0000
0010
0000
0000
0000
0000
0000
0000
0001
0000
,
0100
0000
1000
0000
2200
0000
0000
3300
,
1100
0110
0001
0011
,
0120
0000
1000
0000
1030
0100
1100
0000
,
1010
1010
0120
1000
,
1030
1010
0110
0101
,
0012
0000
0000
0010
0000
0000
0103
0000
,
1000
0000
0010
0100
1000
0100
0010
1000
,
0000
1000
0100
0010
0001
0010
0100
1000
,
0010
0100
0001
0100
0000
1000
0100
0000
,
0010
0000
1000
0001
0010
0100
0001
1000
,
0010
0100
0020
0000
1000
0000
0100
0030
,
1010
1100
0101
2020
,
3030
0110
1100
1010
,
0022
0033
0011
1100
,
0101
2020
3030
0110
,
1100
0000
1010
0000
0022
0033
0001
0010
,
0100
1000
0200
0000
0000
0000
0000
0000
,
1300
0100
0010
0020
,
0000
0000
0002
0000
,
0000
0033
2002
0000
0000
0000
0000
3003
,
1010
0110
0110
0022
,
0000
0000
0000
0030
0200
0000
0000
0000
,
0000
0303
0220
0000
0000
0000
0000
0000
,
1330
0000
1000
0100
0000
0100
0010
0000
0100
1000
0000
0010
,
0100
0000
0100
0001
0000
0001
2000
0000
0000
0000
0000
0000
,
0000
0000
3001
0100
0010
0100
0000
0010
,
1000
0000
1000
0000
0100
0010
0001
0100
,
0001
1000
0100
0001
0100
1000
0001
0100
,
0001
0010
0100
0010
0000
0001
0100
0000
,
0010
1000
0010
0100
0001
1000
0020
0000
,
1000
0100
0230
0010
,
0001
0000
0301
0010
0100
0010
0000
0100
,
1000
0000
0001
0000
0010
0100
0001
0100
,
1000
0001
0010
0001
0100
0010
1000
0010
,
0100
0001
1000
0001
0000
0001
0010
0000
,
0100
1000
0100
0010
1000
0001
0200
0000
,
1000
0010
0320
0100
,
0001
0032
0000
0000
,
0013
0000
0100
0000
0100
1000
0020
0000
,
0100
0100
0000
0130
0220
0000
0000
0000
,
0330
1000
0001
0010
0000
0100
0010
0010
,
0011
0110
1100
2002
,
0003
0020
0000
0000
0000
0000
0000
0000
,
3030
0000
0000
0000
;
