#TITLE:always;
#SUBTITLE:;
#ARTIST:南さやか;
#TITLETRANSLIT:;
#SUBTITLETRANSLIT:;
#ARTISTTRANSLIT:Sayaka Minami;
#CREDIT:;
#BANNER:always bn.png;
#BACKGROUND:always bg.png;
#LYRICSPATH:;
#CDTITLE:;
#MUSIC:always.mp3;
#OFFSET:-0.060;
#SAMPLESTART:61.480;
#SAMPLELENGTH:13.820;
#SELECTABLE:YES;
#BPMS:0.000=100.010;
#STOPS:;
#BGCHANGES:;

//---------------dance-single - ----------------
#NOTES:
     dance-single:
     :
     Hard:
     6:
     0.395,0.389,0.021,0.425,0.159: // measure 1
0000
0000
0000
0000
,  // measure 2
0000
0000
0000
0000
,  // measure 3
0000
0000
0000
0000
,  // measure 4
0000
0000
0000
0000
,  // measure 5
2000
0000
0100
0000
3100
0000
1000
0100
,  // measure 6
0010
0000
0001
0200
0000
0000
0320
0000
,  // measure 7
2030
0001
0010
3001
,  // measure 8
1000
0010
0100
0001
0010
0100
1000
0000
,  // measure 9
0001
0000
1000
0010
0000
0010
2000
0000
0000
0000
0001
0000
3001
0000
1000
0000
,  // measure 10
0010
0000
0100
0002
0000
0000
0000
0000
0010
0000
0010
0000
0013
0000
0100
0000
,  // measure 11
1000
0000
0001
0020
0000
0000
0000
0000
0001
0000
0031
0000
0010
0000
0100
0000
,  // measure 12
1000
0000
0001
2000
0000
0000
0010
0000
0010
0000
3010
0000
1000
0000
0010
0000
,  // measure 13
0100
0000
0001
1000
0000
0001
0020
0000
0000
0000
0031
0000
0010
0000
0100
0000
,  // measure 14
0001
0000
0100
0020
0000
0000
0100
0000
0100
0000
0100
0000
0130
0000
0010
0000
,  // measure 15
0001
0000
1000
0200
0000
0000
1300
0000
0100
0000
0010
0000
0001
0000
1000
0000
,  // measure 16
0100
0000
1000
0002
0000
0000
0103
0000
0001
0000
0100
0000
0010
0000
1000
0000
,  // measure 17
0200
0000
0310
0001
2000
0000
3020
0000
,  // measure 18
0130
0001
0100
0000
0000
0000
0010
0000
1000
0000
0001
0000
0010
0000
0001
0000
,  // measure 19
2000
0000
0000
3020
0000
0000
0230
0000
,  // measure 20
0302
0000
0013
0100
1000
0001
0010
1000
,  // measure 21
0020
0000
0000
0032
0000
0000
0203
0000
,  // measure 22
0310
1000
0010
0000
0000
0000
1000
0000
0100
0000
0001
0000
0100
0000
1000
0000
,  // measure 23
0020
0000
0000
0230
0000
0000
0302
0000
,  // measure 24
0013
0000
0000
0000
0100
0000
1000
0000
0001
0000
0000
0010
0000
0000
1000
0000
,  // measure 25
0010
0001
0100
0010
1000
0100
0001
0100
,  // measure 26
1000
0010
0100
0002
0000
1003
0010
1000
,  // measure 27
0001
0000
0000
0010
0000
0100
0000
1000
0000
0000
0100
0000
0010
0000
0001
0000
,  // measure 28
0100
0000
0000
0010
0000
1000
0000
0020
0000
0000
0100
0000
0130
0000
0000
0000
,  // measure 29
0010
0000
0000
0100
0000
0001
0000
0010
0000
0000
1000
0000
0010
0000
0001
0000
,  // measure 30
0100
0000
0000
0010
0000
0000
2000
0000
0000
0000
0001
0000
3001
0000
1000
0000
,  // measure 31
0010
0000
0100
0020
0000
0000
0000
0000
1000
0000
1030
0000
0010
0000
1000
0000
,  // measure 32
0001
0000
0010
0002
0000
0000
0000
0000
0100
0000
0103
0000
0001
0000
0100
0000
,  // measure 33
0010
0000
1000
0001
0000
0010
0002
0000
0000
0000
1003
0000
0020
0000
0000
0000
,  // measure 34
0230
0000
0301
0010
0000
0100
1000
0001
,  // measure 35
0010
0000
0000
1000
0000
0010
0000
0001
0000
0000
0100
0000
0010
0000
1000
0000
,  // measure 36
0001
0000
0000
0010
0000
0001
0000
0200
0000
0000
0010
0000
0310
0000
0000
0000
,  // measure 37
0100
0000
0000
0010
0000
1000
0000
0001
0000
0000
0010
0000
0001
0000
1000
0000
,  // measure 38
0100
0000
0000
0001
0000
0000
0200
0000
0000
0000
1000
0000
1300
0000
0100
0000
,  // measure 39
1000
0000
0010
2000
0000
0000
0000
0000
0001
0000
3001
0000
1000
0000
0010
0000
,  // measure 40
0100
0000
0001
0020
0000
0000
0000
0000
0001
0000
0031
0000
0010
0000
0100
0000
,  // measure 41
1000
0000
0001
0100
0000
0010
2000
0000
0000
0000
3010
0000
0200
0000
0000
0000
,  // measure 42
0302
0000
0000
0000
1003
0000
0100
1000
0100
0000
0010
0000
0001
0000
1000
0000
,  // measure 43
0020
0000
1000
0000
0130
0010
1000
0001
,  // measure 44
0010
0000
0000
0100
0000
0000
1000
0000
0002
0000
0000
0000
2003
0000
0000
0000
,  // measure 45
3020
0000
0100
0000
1030
0010
1000
0100
,  // measure 46
0010
0000
0000
0001
0000
0000
0100
0000
0020
0000
0000
0000
2030
0000
0000
0000
,  // measure 47
3001
0000
0100
0002
0000
0000
0103
0000
0010
0000
1000
0000
0001
0000
0010
0000
,  // measure 48
0002
0000
1003
0000
0100
0010
0001
1000
,  // measure 49
2010
0100
0010
0001
,  // measure 50
3010
0200
2300
3002
,  // measure 51
0023
0000
0031
0100
0002
0000
1003
0000
,  // measure 52
0010
1000
0100
0001
0100
1000
0010
0100
,  // measure 53
0102
0100
0010
0100
,  // measure 54
1000
0000
0103
0001
0200
0000
0320
0000
,  // measure 55
2030
0001
0010
3001
,  // measure 56
1000
0010
0100
0001
1000
0100
0010
0001
,  // measure 57
2002
0000
0000
0000
,  // measure 58
0000
0000
0000
0000
0000
0000
0000
3003
;

//---------------dance-single - ----------------
#NOTES:
     dance-single:
     :
     Beginner:
     1:
     0.069,0.099,0.007,0.000,0.000: // measure 1
0000
0000
0000
0000
,  // measure 2
0000
0000
0000
0000
,  // measure 3
0000
0000
0000
0000
,  // measure 4
0000
0000
0000
0000
,  // measure 5
1000
0000
0000
0000
,  // measure 6
0001
0000
0001
0000
,  // measure 7
0001
0000
0000
0000
,  // measure 8
0010
0000
0000
0000
,  // measure 9
0100
0000
0000
0000
,  // measure 10
1000
0000
0000
0000
,  // measure 11
0010
0000
0000
0000
,  // measure 12
0100
0000
0100
0000
,  // measure 13
0100
0000
0000
0000
,  // measure 14
0001
0000
0000
0000
,  // measure 15
0010
0000
0000
0000
,  // measure 16
0001
0000
0001
0000
,  // measure 17
0001
0000
0000
0000
,  // measure 18
1000
0000
0000
0000
,  // measure 19
0010
0000
0000
0000
,  // measure 20
0100
0000
0100
0000
,  // measure 21
0100
0000
0000
0000
,  // measure 22
0001
0000
0000
0000
,  // measure 23
0010
0000
0000
0000
,  // measure 24
0001
0000
0000
0000
,  // measure 25
1000
0000
0000
0000
,  // measure 26
0100
0000
0100
0000
,  // measure 27
0100
0000
0000
0000
,  // measure 28
0010
0000
0000
0000
,  // measure 29
0001
0000
0000
0000
,  // measure 30
1000
0000
1000
0000
,  // measure 31
1000
0000
0000
0000
,  // measure 32
0010
0000
0000
0000
,  // measure 33
0100
0000
0000
0000
,  // measure 34
0001
0000
0001
0000
,  // measure 35
0001
0000
0000
0000
,  // measure 36
1000
0000
0000
0000
,  // measure 37
0100
0000
0000
0000
,  // measure 38
0010
0000
0010
0000
,  // measure 39
0010
0000
0000
0000
,  // measure 40
0001
0000
0000
0000
,  // measure 41
1000
0000
0000
0000
,  // measure 42
0010
0000
0010
0000
,  // measure 43
0010
0000
0000
0000
,  // measure 44
0100
0000
0100
0000
,  // measure 45
0100
0000
0000
0000
,  // measure 46
0001
0000
0001
0000
,  // measure 47
0001
0000
0000
0000
,  // measure 48
1000
0000
1000
0000
,  // measure 49
1000
0000
0000
0000
,  // measure 50
0010
0000
0000
0000
,  // measure 51
0100
0000
0000
0000
,  // measure 52
0001
0000
0001
0000
,  // measure 53
0001
0000
0000
0000
,  // measure 54
1000
0000
0000
0000
,  // measure 55
0100
0000
0000
0000
,  // measure 56
0010
0000
0010
0000
,  // measure 57
0110
0000
0000
0000
;

//---------------dance-single - ----------------
#NOTES:
     dance-single:
     :
     Easy:
     2:
     0.172,0.184,0.007,0.106,0.000: // measure 1
0000
0000
0000
0000
,  // measure 2
0000
0000
0000
0000
,  // measure 3
0000
0000
0000
0000
,  // measure 4
0000
0000
0000
0000
,  // measure 5
2000
0000
0000
0000
,  // measure 6
3001
0000
0100
0001
,  // measure 7
0200
0000
0000
0000
,  // measure 8
0310
0000
1000
0000
,  // measure 9
0001
0100
0001
0000
,  // measure 10
1000
0100
1000
0000
,  // measure 11
0001
0010
0001
0000
,  // measure 12
1000
0010
1000
0000
,  // measure 13
0001
0100
0010
0000
,  // measure 14
1000
0100
0010
0000
,  // measure 15
0001
1000
0010
0000
,  // measure 16
1000
0001
0010
0000
,  // measure 17
0002
0000
0100
0103
,  // measure 18
0001
0100
0010
1000
,  // measure 19
0200
0000
1000
1300
,  // measure 20
0100
0010
0001
1000
,  // measure 21
0020
0000
0100
0130
,  // measure 22
0001
0000
0100
0010
,  // measure 23
2000
0000
0001
3001
,  // measure 24
1000
0010
0100
0001
,  // measure 25
1000
0100
0001
0100
,  // measure 26
1000
0010
0000
0001
,  // measure 27
0010
1000
0100
0010
,  // measure 28
0001
0100
0010
0000
,  // measure 29
1000
0001
0010
0001
,  // measure 30
1000
0100
1000
0000
,  // measure 31
0001
0010
0100
0000
,  // measure 32
1000
0010
0100
0000
,  // measure 33
0001
1000
0010
0000
,  // measure 34
1000
0001
0010
0000
,  // measure 35
0001
0100
0010
1000
,  // measure 36
0100
0001
0100
0000
,  // measure 37
1000
0010
0100
0001
,  // measure 38
1000
0100
0010
0000
,  // measure 39
0001
0010
0100
0000
,  // measure 40
1000
0010
0100
0000
,  // measure 41
0001
1000
0010
1000
,  // measure 42
0001
0000
1000
0000
,  // measure 43
0010
0000
0100
0000
,  // measure 44
0001
0010
0100
1000
,  // measure 45
0100
0000
0010
0000
,  // measure 46
0001
0100
0010
1000
,  // measure 47
0010
0000
0100
0000
,  // measure 48
0001
0000
0010
0100
,  // measure 49
2000
0000
0000
3000
,  // measure 50
0001
0100
0001
0010
,  // measure 51
0200
0000
2300
0000
,  // measure 52
3010
1000
0001
0100
,  // measure 53
0002
0000
0000
0003
,  // measure 54
0020
0000
0230
0000
,  // measure 55
2300
0000
0000
0000
,  // measure 56
3001
0010
0100
1000
,  // measure 57
2002
0000
0000
0000
,  // measure 58
0000
0000
0000
0000
0000
0000
0000
3003
;

//---------------dance-single - ----------------
#NOTES:
     dance-single:
     :
     Medium:
     4:
     0.267,0.266,0.035,0.163,0.000: // measure 1
0000
0000
0000
0000
,  // measure 2
0000
0000
0000
0000
,  // measure 3
0000
0000
0000
0000
,  // measure 4
0000
0000
0000
0000
,  // measure 5
2000
0100
0100
3100
,  // measure 6
1000
0100
0020
0031
,  // measure 7
0200
0010
0010
0310
,  // measure 8
1000
0010
0100
0001
,  // measure 9
0100
0000
0010
1000
0010
0000
1000
0000
,  // measure 10
0001
1000
0001
0000
1000
0000
0100
0000
,  // measure 11
0001
0100
0001
0000
0100
0000
1000
0000
,  // measure 12
0010
0100
0010
0000
0100
0000
0001
0000
,  // measure 13
0010
0000
0001
0100
0001
0000
0100
0000
,  // measure 14
0010
1000
0010
0000
1000
0000
0100
0000
,  // measure 15
0010
0001
0010
0000
0001
0000
1000
0000
,  // measure 16
0100
1000
0100
0000
0010
0000
0001
0000
,  // measure 17
0200
0000
0010
0310
,  // measure 18
0100
0010
0100
0000
0010
0000
1000
0010
,  // measure 19
2000
0000
3001
0100
,  // measure 20
0002
0000
0000
0000
1003
0000
0001
1000
,  // measure 21
0020
0000
0000
0230
0000
0000
2300
0000
,  // measure 22
3001
0100
0010
0000
1000
0000
0001
1000
,  // measure 23
0002
0000
0000
2003
0000
0000
3200
0000
,  // measure 24
0310
0000
0001
0000
1000
0000
0100
1000
,  // measure 25
0100
0010
0001
1000
,  // measure 26
0010
0100
0010
0100
0000
0000
0110
0000
,  // measure 27
0100
0000
0001
0000
0010
0001
0010
0000
,  // measure 28
0001
0000
1000
0010
1000
0000
0000
0000
,  // measure 29
0001
0000
0010
0000
0100
1000
0100
0000
,  // measure 30
0010
0000
0001
0100
0001
0000
0100
0000
,  // measure 31
0010
1000
0010
0000
1000
0000
0100
0000
,  // measure 32
0010
0100
0010
0000
0001
0000
1000
0000
,  // measure 33
0010
1000
0010
0000
0100
0000
0001
0000
,  // measure 34
2000
0000
0000
3001
0000
1000
0001
0000
,  // measure 35
1000
0000
0010
0100
0010
0000
0100
0000
,  // measure 36
0001
0010
0001
0000
1000
0000
0000
0000
,  // measure 37
0010
0000
0100
0000
0001
0100
0001
0000
,  // measure 38
1000
0000
0100
1000
0100
0000
0010
0000
,  // measure 39
0001
1000
0001
0000
0100
0000
0010
0000
,  // measure 40
1000
0100
1000
0000
0100
0000
0010
0000
,  // measure 41
0001
0010
0001
0000
0100
0000
0010
0000
,  // measure 42
2000
0000
0000
3001
0000
1000
0001
0000
,  // measure 43
1001
0000
1000
0000
0010
0000
0100
0001
,  // measure 44
0100
0010
1000
0001
,  // measure 45
0010
0000
0001
0000
1000
0000
0100
1000
,  // measure 46
0100
0010
0001
1000
,  // measure 47
1010
0010
0100
0001
,  // measure 48
0101
0000
0100
0000
0010
1000
0100
0000
,  // measure 49
2000
0010
0010
3010
,  // measure 50
1000
0010
0100
0001
,  // measure 51
0020
0000
0000
0230
0000
0000
1300
0000
,  // measure 52
0001
0000
1000
0000
0010
0000
0100
0001
,  // measure 53
0200
0010
0010
0310
,  // measure 54
1000
0000
0010
0200
0000
0000
0302
0000
,  // measure 55
0023
0100
0100
0130
,  // measure 56
0100
1000
0001
0000
0010
0001
1000
0000
,  // measure 57
2002
0000
0000
0000
,  // measure 58
0000
0000
0000
0000
0000
0000
0000
3003
;
