#TITLE:airflow;
#SUBTITLE:;
#ARTIST:Mr. T;
#TITLETRANSLIT:;
#SUBTITLETRANSLIT:;
#ARTISTTRANSLIT:;
#CREDIT:;
#BANNER:airflow BN.png;
#BACKGROUND:airflow BG.png;
#LYRICSPATH:;
#CDTITLE:;
#MUSIC:airflow.ogg;
#OFFSET:-0.740;
#SAMPLESTART:39.620;
#SAMPLELENGTH:12.000;
#SELECTABLE:YES;
#BPMS:0.000=148.000,243.500=142.000,247.500=137.001,251.500=131.001,253.500=118.001,254.500=105.001,255.000=124.001;
#STOPS:;
#BGCHANGES:;

//---------------dance-single - ----------------
#NOTES:
     dance-single:
     :
     Beginner:
     1:
     0.108,0.145,0.009,0.018,0.000:
0000
0000
0000
0000
,
0000
0000
0000
0000
,
0000
0000
0000
0000
,
0000
0000
0000
0000
,
1000
0000
0000
0000
,
0000
0000
0000
0000
,
0001
0000
0000
0000
,
0000
0000
0000
0000
,
0010
0000
0000
0000
,
0100
0000
0000
0000
,
1000
0000
0000
0000
,
0001
0000
0001
0000
,
0001
0000
0000
0000
,
1000
0000
1000
0000
,
1000
0000
0000
0000
,
0100
0000
0100
0000
,
0100
0000
0000
0000
,
0010
0000
0000
0000
,
0001
0000
0000
0000
,
1000
0000
1000
0000
,
1000
0000
0000
0000
,
0010
0000
0000
0000
,
0100
0000
0000
0000
,
0001
0000
0001
0000
,
0001
0000
0000
0000
,
0010
0000
0010
0000
,
0010
0000
0010
0000
,
0010
0000
0000
0000
,
0100
0000
0000
0000
,
1000
0000
1000
0000
,
1000
0000
1000
0000
,
1000
0000
0000
0000
,
0010
0000
0010
0000
,
0100
0000
0100
0000
,
0001
0000
0001
0000
,
1000
0000
1000
0000
,
0010
0000
0010
0000
,
0100
0000
0100
0000
,
0001
0000
0010
0000
,
0010
0000
0100
0000
,
0100
0000
1000
0000
,
0001
0000
0000
0000
,
0010
0000
0000
0000
,
0100
0000
0000
0000
,
1000
0000
0000
0000
,
0001
0000
0001
0000
,
0001
0000
0000
0000
,
1000
0000
1000
0000
,
1000
0000
0000
0000
,
0100
0000
0100
0000
,
0100
0000
0000
0000
,
0010
0000
0000
0000
,
0001
0000
0000
0000
,
1000
0000
1000
0000
,
1000
0000
0000
0000
,
0010
0000
0000
0000
,
0100
0000
0000
0000
,
1000
0000
0000
0000
,
0001
0000
0001
0000
,
0001
0000
0000
0000
,
1000
0000
0000
0000
,
0100
0000
0000
0000
,
0010
0000
0000
0000
,
0001
0000
0000
0000
,
2002
0000
0000
0000
,
0000
3003
0000
0000
;

//---------------dance-single - ----------------
#NOTES:
     dance-single:
     :
     Easy:
     3:
     0.203,0.261,0.027,0.035,0.000:
0000
0000
0000
0000
,
0000
0000
0000
0000
,
0000
0000
0000
0000
,
0000
0000
0000
0000
,
1000
0000
0000
0000
,
0000
0000
0000
0000
,
0001
0000
0000
0000
,
0000
0000
0000
0000
,
0010
0000
0000
0100
,
1000
0000
0000
0010
,
0100
0000
0000
0001
,
0010
0000
0100
0000
,
1000
0000
0000
0001
,
0010
0000
0100
1000
,
0010
0000
0000
0100
,
0001
0010
0001
0100
,
0010
0000
0000
1000
,
0100
0000
0000
0010
,
0001
0000
0000
0100
,
0010
0000
1000
0001
,
1000
0000
0010
1000
,
0100
1000
0000
0010
,
0100
0000
0000
0000
,
0001
0010
0100
1000
,
0001
0000
1000
0001
,
1000
0000
0010
1000
,
0100
1000
0010
0100
,
0001
0000
0000
0010
,
0100
0000
1000
0001
,
0010
0000
0001
0100
,
0010
0000
1000
0000
,
0100
0000
0000
0000
,
0010
0001
0100
0001
,
0010
0100
1000
0000
,
0010
1000
0001
0100
,
0001
0010
0100
0000
,
1000
0001
0100
1000
,
0100
0001
0010
0100
,
1000
0000
0010
1000
,
0001
0000
0010
0000
,
0001
0000
0100
0000
,
2002
0000
0000
3003
,
0010
0000
0000
0100
,
1000
0000
0000
0010
,
0100
0000
0000
0001
,
0010
0000
0100
0000
,
1000
0000
0000
0001
,
0010
0000
0100
1000
,
0010
0000
0000
0100
,
0001
0010
0001
0100
,
0010
0000
0000
1000
,
0100
0000
0000
0010
,
0001
0000
0000
0100
,
0010
0000
1000
0001
,
1000
0000
0010
1000
,
0100
1000
0000
0010
,
0100
0001
0010
0001
,
0100
0010
1000
0010
,
0100
0001
1000
0010
,
1001
0000
0000
1000
,
0100
0010
0001
0100
,
0010
1000
0100
0000
,
1000
0000
0010
0100
,
0001
0000
0010
0000
,
2002
0000
0000
0000
,
0000
3003
0000
0000
;

//---------------dance-single - ----------------
#NOTES:
     dance-single:
     :
     Medium:
     5:
     0.327,0.347,0.027,0.027,0.000:
0000
0000
0000
0000
,
0000
0000
0000
0000
,
0000
0000
0000
0000
,
0000
0000
0000
0000
,
1000
0000
0000
0000
,
0000
0000
0000
0000
0000
0000
0000
0001
,
0001
0000
0000
0000
,
0000
0000
0000
0000
,
1000
0100
0001
0100
,
1000
0010
0001
0010
,
1000
0000
0010
0000
0100
0000
0001
0010
,
0100
1000
0010
1000
,
0100
0000
0010
0000
0001
0100
0010
1000
,
0010
0100
0001
0010
,
0100
0000
1000
0000
0001
0000
1000
0010
,
0100
0000
0001
0000
0010
0100
1000
0001
,
1000
0100
0010
0001
,
0010
0100
1000
0100
,
0010
0000
0001
0000
0100
0000
0010
1000
,
0001
0010
0001
0100
,
0010
1000
0100
1000
,
0001
0000
0010
0000
0001
0000
0100
0010
,
1000
0000
0100
1000
0100
0000
0010
0000
,
0001
0000
1000
0000
1001
0000
0001
0010
,
0100
1000
0010
1000
,
0100
0000
0010
0001
0100
0000
0010
0000
,
1000
0010
0100
0001
,
0010
0000
0100
0000
1000
0000
0001
1000
,
0010
1000
0100
0001
,
0100
0000
0010
1000
0100
0000
0010
0000
,
0001
0000
0100
0001
0010
0000
0100
1000
,
0010
0000
0100
0000
0001
0000
0010
0100
,
1000
0010
0001
0010
,
1000
0000
0100
0000
0001
0000
0000
0001
,
0100
0010
1000
0100
,
1000
0000
0010
0000
0100
0000
0000
0001
,
0010
0100
1000
0001
,
0010
0000
0100
0000
1000
0000
0001
0010
,
0001
0000
0000
1000
0001
0000
0010
0000
,
0100
0000
0000
0100
1000
0000
0000
1000
,
0010
0000
0000
0010
0100
0000
0001
0000
,
2002
0000
0000
3003
,
1000
0100
0001
0100
,
1000
0010
0001
0010
,
1000
0000
0010
0000
0100
0000
0001
0010
,
0100
1000
0010
1000
,
0100
0000
0010
0000
0001
0100
0010
1000
,
0010
0100
0001
0010
,
0100
0000
1000
0000
0001
0000
1000
0010
,
0100
0000
0001
0000
0010
0100
1000
0001
,
1000
0100
0010
0001
,
0010
0100
1000
0100
,
0010
0000
0001
0000
0100
0000
0010
1000
,
0001
0010
0001
0100
,
0010
1000
0100
1000
,
0001
0000
0010
0000
0001
0000
0100
0010
,
1000
0000
0100
1000
0100
0000
0010
0000
,
0001
0000
0100
0001
0100
0000
0010
0000
,
1000
0000
0100
0010
0100
0000
0010
0000
,
1001
0000
0000
0000
0000
0000
1000
0100
,
1000
0000
0010
0000
0100
0000
0001
0010
,
0001
0000
0100
0000
0010
0000
0000
1000
,
0100
0000
0000
0000
0010
0000
0001
0100
,
0001
0000
0000
0000
0010
0000
0000
0100
,
0200
0000
0000
0000
,
0000
0300
0000
0000
;

//---------------dance-single - ----------------
#NOTES:
     dance-single:
     :
     Hard:
     7:
     0.529,0.579,0.062,0.940,0.084: // measure 1
0000
0000
0000
0000
,  // measure 2
0000
0000
0000
0000
,  // measure 3
0000
0000
0000
0000
,  // measure 4
0000
0000
0000
0000
,  // measure 5
1002
0000
0000
0000
,  // measure 6
0023
0000
0000
0000
0000
0000
0000
0100
,  // measure 7
0230
0000
0000
0000
,  // measure 8
2300
0000
0000
0000
0000
0000
0000
0000
3001
0010
0000
0000
0100
0000
1000
0000
,  // measure 9
0002
0010
0103
0010
,  // measure 10
0200
1000
0310
0001
,  // measure 11
0200
0000
0010
0000
1300
0000
0010
1000
,  // measure 12
0002
0013
2000
3010
,  // measure 13
0002
0000
0103
0000
0010
1000
0100
0001
,  // measure 14
0200
1300
0020
0230
,  // measure 15
0302
0000
0013
0000
0001
0100
0010
1000
,  // measure 16
0100
0000
0000
0000
0101
0000
0000
0100
1000
0000
0010
0000
0100
0000
0001
0000
,  // measure 17
0020
0100
1030
0010
,  // measure 18
0002
0100
0013
0001
,  // measure 19
2000
0000
0001
0000
3010
0000
0001
0100
,  // measure 20
0020
1030
0200
0302
,  // measure 21
0203
1300
0020
0230
,  // measure 22
0302
0000
0023
0000
0130
0000
1000
0010
,  // measure 23
1000
0100
0001
0100
1000
0010
0001
0010
,  // measure 24
1000
0010
0000
0000
0100
0000
0001
0000
0011
0000
0000
0000
0110
0000
0100
0000
,  // measure 25
2000
3010
0200
0302
,  // measure 26
0023
0000
0000
0000
0031
0000
0100
0010
0200
0000
0000
0000
0320
0000
0000
0000
,  // measure 27
2030
3002
0023
0032
,  // measure 28
0103
0010
1000
0100
0001
0100
1000
0010
,  // measure 29
0200
0301
0020
0032
,  // measure 30
0203
0000
0000
0000
0310
0000
1000
0100
2000
0000
0000
0000
3200
0000
0000
0000
,  // measure 31
0320
0000
0000
0000
0031
0000
0100
0001
0200
0000
0000
0000
0310
0000
1000
0001
,  // measure 32
1000
0010
1000
0100
0001
0100
1000
0010
,  // measure 33
0200
0302
0023
0032
,  // measure 34
0203
0000
0000
0000
0320
0000
0000
0000
2030
0000
0000
0000
3100
0000
0001
0100
,  // measure 35
0002
0203
0320
2030
,  // measure 36
3002
0000
0000
0000
0023
0000
0000
0000
0032
0000
0000
0000
1003
0000
0010
1000
,  // measure 37
0020
0230
0302
0023
,  // measure 38
2030
0000
0000
0000
3020
0000
0000
0000
0032
0000
0000
0000
0103
0000
0010
1000
,  // measure 39
0020
0000
0000
0000
0130
0000
0001
1000
0002
0000
0000
0000
0023
0000
0000
0000
,  // measure 40
0230
0000
0000
0000
1300
0000
0010
1000
0020
0000
0000
0000
0130
0000
0001
0100
,  // measure 41
0002
0000
0000
0000
0013
0000
0100
1000
0100
0010
0000
0000
0001
0000
1000
0000
,  // measure 42
2002
0000
0000
3003
,  // measure 43
2000
0100
3010
0100
,  // measure 44
0020
0001
0130
1000
,  // measure 45
0020
0000
0100
0000
0031
0000
0100
0001
,  // measure 46
2000
3100
0002
0103
,  // measure 47
2000
0000
3010
0000
0100
0001
0010
1000
,  // measure 48
0020
0031
0200
0320
,  // measure 49
2030
0000
3100
0000
1000
0010
0100
0001
,  // measure 50
0010
0000
0000
0000
1010
0000
0000
0010
0001
0000
0100
0000
0010
0000
1000
0000
,  // measure 51
0200
0010
0301
0100
,  // measure 52
2000
0010
3100
1000
,  // measure 53
0002
0000
1000
0000
0103
0000
1000
0010
,  // measure 54
0200
0301
0020
2030
,  // measure 55
3020
0031
0200
0320
,  // measure 56
2030
0000
3200
0000
0310
0000
0001
0100
,  // measure 57
0001
0010
1000
0010
0001
0100
1000
0100
,  // measure 58
0001
0010
0100
1000
0010
0100
0001
0010
,  // measure 59
0001
1000
0010
0100
0001
0100
0010
0100
,  // measure 60
2002
0000
0000
0000
3003
0000
1000
0100
,  // measure 61
0002
0000
0000
0000
0203
0000
0000
0000
2300
0000
0000
0000
3010
0000
0100
0001
,  // measure 62
0200
0000
0000
0000
0320
0000
0000
0000
2030
0000
0000
0000
3000
0000
0001
0010
,  // measure 63
0002
0000
0000
0000
0000
0000
0000
0000
1003
0000
0000
0000
0100
0000
0010
0001
,  // measure 64
0020
0000
0000
0000
0230
0000
0000
2300
,  // measure 65
0002
0000
0000
0000
,  // measure 66
0000
3003
0000
0000
;
