#TITLE:Under the Sky;
#SUBTITLE:(Ryu☆ Remix);
#ARTIST:Sayaka Minami(BeForU) with platoniX;
#TITLETRANSLIT:;
#SUBTITLETRANSLIT:;
#ARTISTTRANSLIT:;
#CREDIT:;
#BANNER:Under the Sky BN.png;
#BACKGROUND:Under the Sky BG.png;
#LYRICSPATH:;
#CDTITLE:;
#MUSIC:Under the Sky (Ryu Remix).mp3;
#OFFSET:-1.500;
#SAMPLESTART:91.600;
#SAMPLELENGTH:14.820;
#SELECTABLE:YES;
#BPMS:0.000=92.510,8.000=185.031,168.000=92.510,216.000=185.031,280.000=92.510;
#STOPS:7.750=0.649
,214.750=0.654
,215.875=0.655
;
#BGCHANGES:;

//---------------dance-single - ----------------
#NOTES:
     dance-single:
     :
     Hard:
     8:
     0.631,0.761,0.387,0.767,0.142:
0000
0000
0000
0000
,
0000
0000
0000
0000
0000
0000
0000
0000
2000
0000
0000
0000
3200
0000
0000
0000
0320
0000
0000
0000
0032
0000
0000
0000
1003
0000
0000
1000
0000
0000
1000
0000
,
0001
0000
0000
0100
0000
0000
0010
0000
1000
0000
0000
0100
0000
0000
0001
0000
,
0100
0000
0000
1000
0000
0000
0010
0000
0100
0000
0000
0001
0000
0000
0010
0000
,
0001
0000
0000
1000
0000
0000
0100
0000
0001
0000
0000
0100
0000
0000
1000
0000
,
0010
0000
0000
0100
0000
0000
0001
0000
0010
0000
0000
1000
0000
0000
0010
0000
,
0001
0100
0010
1000
0100
0001
0100
0000
,
1000
0010
0100
0001
0010
0001
1000
0000
,
1001
0001
0010
0000
0110
0100
1000
0000
,
1010
0000
0000
0110
0000
0000
0100
0000
0101
0000
0000
0011
0000
0000
0010
0000
,
0200
1000
0010
1300
,
0002
0100
0010
0103
,
0020
0100
1000
0130
,
0002
0000
0100
0000
1000
0000
0103
0100
,
0020
0001
0100
0031
,
2000
0010
0100
3010
,
0200
0001
0010
0301
,
0110
0000
0100
0000
0010
0000
0000
0000
1000
0000
0000
0001
0000
0000
0010
0000
,
0011
0000
0001
0100
0010
0000
1000
0100
,
0002
0000
0103
0000
1000
0010
0100
0001
,
0010
0000
0001
1000
0010
0000
1000
0100
,
0002
0000
0103
0000
1000
0010
0100
0001
,
1001
0000
1000
0010
0100
0000
0001
0000
,
0011
0000
0010
0100
1000
0000
0001
0000
,
0011
0001
0100
0000
0110
0010
1000
0000
,
0001
1000
0001
0000
0100
0000
0010
1000
0010
0000
0100
0000
0001
0000
1000
0100
,
1000
0000
0100
0010
0001
0000
1000
0010
,
0200
0000
0301
0000
0010
0001
0100
0010
,
1000
0000
0100
0001
0100
0000
1000
0010
,
0200
0000
0301
0000
0010
0000
0001
1000
,
1001
1000
0200
0302
,
0203
0000
1300
0010
0200
0000
0301
0000
,
0010
0001
0200
0320
,
2030
0000
3001
0010
0002
0000
1003
0000
,
1010
0000
0010
0200
0000
0302
0000
0013
,
0011
0000
0000
0000
0002
0000
0000
0000
0203
0000
0000
0000
0320
0000
0000
0030
,
1010
0000
1000
0100
0110
0000
0010
0000
,
0011
0000
0001
0100
0110
0000
0010
0000
,
1000
0010
0100
0000
0001
0010
0100
0000
,
1100
1000
0001
0000
0010
0001
0100
0000
,
0010
1000
0100
0001
0100
1000
0010
0001
,
0010
0000
0000
1000
0000
0000
0100
0000
0010
0000
0000
0001
0000
0000
1000
0000
,
0020
2030
3002
0203
0000
0320
0000
2030
,
3002
0000
0023
0000
0032
0000
1003
0100
2000
0000
0000
0000
3001
0000
0010
0000
,
0001
0000
0200
0302
0203
0320
2030
3200
,
0302
0000
0000
0103
2000
0000
0000
0000
3100
0000
0010
0000
0001
0000
1000
0000
,
0001
0000
0011
0000
0010
0000
0110
0000
0100
0000
1100
0000
1000
0000
0010
1000
,
0010
1010
0010
0110
0100
0101
0001
1001
,
1000
0000
1100
0000
0100
0000
0110
0000
0010
0000
0011
0000
0001
0000
0100
0001
,
0100
0000
0000
0000
0110
0000
0000
0000
0010
0000
0000
0000
1010
0000
0000
0000
1000
0000
0000
0000
1100
0000
0000
0000
0100
0000
0000
0100
0010
0000
0000
0010
,
0002
0000
0000
0203
0320
0000
0000
2030
,
3002
0000
0000
0023
0000
0000
0230
0000
2300
0000
0000
0000
0000
0000
3000
0000
,
0001
0010
1000
0010
0001
0100
1000
0100
,
0001
0000
0000
0000
0100
0000
0000
0000
0010
0000
0000
0000
1000
0000
0000
0000
1001
0000
0000
1001
0000
0000
1001
0000
0110
0000
0000
0110
0000
0000
0110
0000
,
0020
2030
3200
0302
,
0103
2000
3010
0200
,
0320
0000
2030
0000
3002
0000
0013
0001
,
0200
0000
0320
0000
2030
0000
3100
0001
,
0101
0001
0200
0320
,
0032
0023
0032
2003
,
3200
0000
1300
0010
2000
0000
3100
0010
,
0011
0000
0000
0110
0000
0000
0100
0000
1100
0000
0000
1010
0000
0000
0010
0000
,
0210
0302
2003
3200
,
0310
0002
0103
0002
,
0023
0000
1030
0020
0000
0032
0000
0103
,
0010
0000
1000
0000
0100
0000
1000
0001
,
1002
0000
0023
0000
2030
0000
3010
0001
,
0201
0000
0320
0000
2030
0000
3100
1000
,
1010
0010
0100
0000
0101
0001
0010
0000
,
0100
0000
1000
0000
0001
1000
0001
0000
0100
0000
0000
0010
0000
0000
1000
0000
,
0200
0000
0000
0000
0000
0000
0320
0000
0032
0000
0000
2003
0000
0000
3200
0000
,
2300
0000
0000
0000
0000
0000
0000
0000
0000
0000
3001
0000
0010
0000
0100
1000
,
0100
0000
1000
0002
0000
0000
0000
0000
0000
0000
0000
0000
0000
0000
0000
0000
,
2000
0000
0000
0000
,
3003
0000
0000
0000
;

//---------------dance-single - ----------------
#NOTES:
     dance-single:
     :
     Easy:
     4:
     0.288,0.410,0.063,0.103,0.000:
0000
0000
0000
0000
,
0000
0000
1000
0000
0100
0000
0010
0010
,
0001
0000
0100
0000
,
0010
0000
1000
1000
,
1000
0000
0001
0000
,
0010
0000
0001
0001
,
0001
0000
1000
0000
,
0100
0000
0001
0001
,
0001
0000
0100
0000
,
1000
0000
0010
0010
,
0010
0000
0100
0000
,
0001
0000
0010
0000
,
0001
0000
1000
0000
,
0100
1000
0010
1000
,
0100
0000
0010
0000
,
0001
0000
0100
0010
,
0100
0000
0010
0000
,
1000
0000
0001
0000
,
0010
0001
0100
0001
,
0010
0000
0100
0000
,
1000
0010
1000
0100
,
1000
0000
0001
0000
,
0010
0001
0100
0000
,
0010
1000
0100
0000
,
0010
0001
1000
0100
,
1000
0001
0010
0001
,
1000
0000
0100
0000
,
0010
0001
0100
0001
,
0010
0000
0100
0000
,
1000
0010
1000
0001
,
0010
0000
0001
0000
,
1000
0000
0100
1000
,
0100
0000
0010
0000
,
0001
0000
1000
0001
,
1000
0000
0001
0000
,
0100
0001
0100
0000
,
0010
0000
1000
0100
,
1000
0000
0100
0000
,
0010
0001
0100
0001
,
0010
0100
1000
0100
,
0010
0001
0100
0010
,
1000
0001
1000
0010
,
0100
0001
0010
0100
,
1000
0010
1000
0100
,
0001
0100
1000
0010
,
0100
0001
0010
0100
,
1000
1000
1000
0000
0001
0001
0001
0000
,
0010
0010
0010
0000
0100
0100
0100
0000
,
1000
1000
1000
0000
0010
0010
0010
0000
,
0100
0100
0100
0000
0001
0001
0001
0000
,
2000
0000
3002
0000
,
0023
0230
2300
0000
,
3010
0010
0010
0000
0100
0100
0100
0000
,
0001
1000
0001
0000
1000
1000
0001
0001
,
1000
0100
0001
0100
,
0000
1000
0000
0010
,
0100
0001
0010
0001
,
1000
0000
0100
0010
,
0011
0000
0001
0100
,
0010
1000
0001
0010
,
0001
0000
1000
0100
,
1000
1000
0001
0001
,
1001
1000
0010
0100
,
0000
0001
0000
0010
,
0100
1000
0100
0010
,
0001
1000
0010
0100
,
0101
0000
0001
0010
,
0110
0000
0100
1000
,
0010
0100
0001
1000
,
0100
0010
0001
1000
,
2002
0000
0000
3003
,
0220
0000
0000
0330
,
2002
0000
0000
3003
,
0220
0000
0000
0000
,
0330
0000
0000
0000
;

//---------------dance-single - ----------------
#NOTES:
     dance-single:
     :
     Beginner:
     2:
     0.110,0.176,0.000,0.047,0.000:
0000
0000
0000
0000
,
0000
1000
0000
1000
,
0001
0000
0000
0000
,
1000
0000
0000
0000
,
0010
0000
0000
0000
,
0100
0000
0000
0000
,
0001
0000
0000
0000
,
0010
0000
0000
0000
,
0001
0000
0000
0000
,
1000
0000
0000
0000
,
0100
0000
0000
0000
,
1000
0000
0000
0000
,
0010
0000
0000
0000
,
0100
0000
0000
0000
,
0001
0000
0000
0000
,
0010
0000
0000
0000
,
0001
0000
0000
0000
,
1000
0000
0000
0000
,
0100
0000
0100
0000
,
0100
0000
0000
0000
,
0010
0000
0010
0000
,
0010
0000
0000
0000
,
0001
0000
0000
0000
,
1000
0000
0000
0000
,
0010
0000
0000
0000
,
0100
0000
0100
0000
,
0100
0000
0000
0000
,
0001
0000
0000
0000
,
1000
0000
0000
0000
,
0100
0000
0000
0000
,
0010
0000
0000
0000
,
0001
0000
0000
0000
,
0100
0000
0000
0000
,
0001
0000
0000
0000
,
0010
0000
0000
0000
,
0100
0000
0000
0000
,
1000
0000
1000
0000
,
0000
0000
0000
0000
,
0001
0000
0000
0000
,
0010
0000
0000
0000
,
0001
0000
0000
0000
,
0100
0000
0100
0000
,
0100
0000
0010
0000
,
1000
0000
0001
0000
,
0010
0000
0001
0000
,
0100
0000
0010
0000
,
1000
0000
0100
0000
,
0001
0000
0100
0000
,
1000
0000
0010
0000
,
0001
0000
0010
0000
,
2000
0000
0000
3000
,
0002
0000
0000
0003
,
0100
0000
0100
0000
,
0010
0000
0010
0100
,
0010
0000
0000
0000
,
1000
0000
0000
0000
,
0001
0000
0000
0000
,
0010
0000
0000
0000
,
0001
0000
0000
0000
,
0100
0000
0000
0000
,
0010
0000
0000
0000
,
1000
0000
1000
0000
,
1000
0000
0000
0000
,
0001
0000
0000
0000
,
0100
0000
0000
0000
,
0010
0000
0000
0000
,
1000
0000
0000
0000
,
0100
0000
0000
0000
,
0001
0000
0000
0000
,
0100
0000
0100
0000
,
0200
0000
0000
0300
,
2000
0000
0000
3000
,
0002
0000
0000
0003
,
0020
0000
0000
0000
,
0030
0000
0000
0000
;

//---------------dance-single - ----------------
#NOTES:
     dance-single:
     :
     Medium:
     6:
     0.420,0.644,0.261,0.087,0.000: // measure 1
0000
0000
0000
0000
,  // measure 2
0000
0000
1000
0100
0010
0001
1000
1000
,  // measure 3
0001
0100
0010
1000
,  // measure 4
0100
0000
0001
0000
0100
0000
1000
0100
,  // measure 5
1000
0100
0010
0001
,  // measure 6
1000
0000
0010
0000
0100
0000
0001
0100
,  // measure 7
0001
0100
0010
1000
,  // measure 8
0001
0000
0010
0000
0001
0000
1000
0001
,  // measure 9
1000
0010
0100
0001
,  // measure 10
1000
1100
0001
0101
,  // measure 11
1000
0010
0100
0001
,  // measure 12
1000
0100
0010
0001
,  // measure 13
1000
0010
0001
0010
,  // measure 14
1000
0000
0100
0000
0001
0000
0100
0001
,  // measure 15
0100
1000
0010
0100
,  // measure 16
0001
0010
0001
1000
,  // measure 17
0001
1000
0100
1000
,  // measure 18
1100
1100
0100
0010
,  // measure 19
0011
0001
0100
0010
,  // measure 20
1000
0000
0001
0000
0010
0000
0001
1000
,  // measure 21
0001
0100
0010
1000
,  // measure 22
0100
0000
0001
0000
0100
0000
1000
0010
,  // measure 23
2000
0010
0100
3001
,  // measure 24
0002
0010
0100
1003
,  // measure 25
1100
0001
0101
1000
,  // measure 26
0010
0000
0100
0010
0000
1000
0001
0000
,  // measure 27
1001
0000
1000
0000
0100
0000
0001
0100
,  // measure 28
0001
0100
1000
0010
,  // measure 29
0100
0000
0001
0000
0010
0000
0001
0010
,  // measure 30
0001
0100
0010
1000
,  // measure 31
1001
1000
0100
0001
,  // measure 32
0100
1000
0010
0001
,  // measure 33
0010
1000
0100
0010
,  // measure 34
0001
0100
0010
1000
,  // measure 35
1001
0001
0010
0001
,  // measure 36
1001
1000
0100
1000
,  // measure 37
1001
0001
0010
1000
,  // measure 38
0010
0001
0100
0010
,  // measure 39
1000
0000
0100
1000
0100
0000
0010
0000
,  // measure 40
0001
0000
1000
0001
1000
0000
0001
0000
,  // measure 41
0100
0001
0100
0000
0010
1000
0010
0000
,  // measure 42
1000
0000
0100
0010
0001
0000
0100
0010
,  // measure 43
1000
0001
0010
0001
1000
0100
1000
0001
,  // measure 44
0010
0001
0100
0010
1000
0100
0001
0100
,  // measure 45
1000
0010
0100
0001
0010
0001
0100
0010
,  // measure 46
1000
0100
0010
0001
1000
0010
0100
0001
,  // measure 47
0101
0000
1010
0000
1100
0000
0011
0011
,  // measure 48
0011
0000
0101
0000
0110
0000
1010
1010
,  // measure 49
1010
0000
1100
0000
0110
0000
0011
0011
,  // measure 50
0011
0000
0101
0000
0110
0000
1010
1010
,  // measure 51
2001
0000
3020
0000
,  // measure 52
0230
0302
0023
0000
,  // measure 53
0130
1000
0001
0010
1000
0010
0001
0100
,  // measure 54
0010
1000
0001
0010
0001
0001
1000
1000
,  // measure 55
0001
0010
1000
0010
,  // measure 56
0001
0100
0010
1000
,  // measure 57
0100
0010
0001
1000
,  // measure 58
0100
0000
1000
0000
0001
0000
0010
0001
,  // measure 59
0010
0001
0100
0010
,  // measure 60
1000
0100
0001
0100
,  // measure 61
1000
0010
0100
0001
,  // measure 62
1000
0000
0010
1000
0100
0000
0010
0001
,  // measure 63
0100
0010
1000
0001
,  // measure 64
0010
0001
1000
0100
,  // measure 65
1000
0001
0010
1000
,  // measure 66
0010
0000
0001
0000
0100
0000
0010
1000
,  // measure 67
0010
0100
0001
0010
,  // measure 68
0001
1000
0100
1000
,  // measure 69
0001
0010
0100
1000
,  // measure 70
0010
0000
0100
0000
0001
1000
0100
0010
,  // measure 71
0002
0000
0000
0000
,  // measure 72
0203
0000
0000
0000
,  // measure 73
0320
0000
0000
0000
,  // measure 74
2030
0000
0000
0000
,  // measure 75
3000
0000
0000
0000
;
