#TITLE:THANK YOU FOR PLAYING;
#SUBTITLE:;
#ARTIST:Super Star -Mitsuru-;
#TITLETRANSLIT:;
#SUBTITLETRANSLIT:;
#ARTISTTRANSLIT:;
#CREDIT:;
#BANNER:THANK YOU FOR PLAYING bn.png;
#BACKGROUND:THANK YOU FOR PLAYING bg.png;
#LYRICSPATH:;
#CDTITLE:;
#MUSIC:Thank You For Playing.ogg;
#OFFSET:-0.640;
#SAMPLESTART:14.720;
#SAMPLELENGTH:16.420;
#SELECTABLE:YES;
#BPMS:0.000=170.001,264.000=160.001,266.000=138.001,268.000=130.001,270.000=60.001,272.000=170.001;
#STOPS:;
#BGCHANGES:;

//---------------dance-single - ----------------
#NOTES:
     dance-single:
     :
     Beginner:
     3:
     0.154,0.292,0.010,0.000,0.000:
0000
0000
0000
0000
,
0000
0000
0000
0000
,
0000
0000
0000
0000
,
0000
0000
0000
0000
,
0000
0000
0000
0000
,
0000
0000
0000
0000
,
1000
0000
1000
0000
,
0001
0000
0001
0000
,
1000
0000
0000
0000
,
0000
0000
0000
0000
,
0001
0000
0001
0000
,
0001
0000
0000
0000
,
1000
0000
1000
0000
,
1000
0000
0000
0000
,
0010
0000
0010
0000
,
0010
0000
0000
0000
,
0100
0000
0000
0000
,
0100
0000
0100
0000
,
0100
0000
0000
0000
,
0010
0000
0010
0000
,
0010
0000
0000
0000
,
1000
0000
1000
0000
,
1000
0000
0000
0000
,
0001
0000
0001
0000
,
0010
0000
0010
0000
,
0100
0000
0100
0000
,
1000
0000
0000
0000
,
0001
0000
0000
0000
,
0010
0000
0000
0000
,
0100
0000
0000
0000
,
1000
0000
0000
0000
,
0010
0000
0000
0000
,
0100
0000
0000
0000
,
0001
0000
0001
0001
,
0001
0000
0000
0000
,
1000
0000
1000
0000
,
0010
0000
0010
0000
,
0100
0000
0000
0000
,
0001
0000
0000
0000
,
0010
0000
0010
0000
,
1000
1000
1000
1000
,
1000
1000
1000
1000
,
0001
0001
0001
0001
,
0000
0000
0000
0000
,
0001
0000
0001
0000
,
0001
0000
0000
0000
,
1000
0000
1000
0000
,
1000
0000
0000
0000
,
0010
0000
0010
0000
,
0010
0000
0000
0000
,
0100
0000
0000
0000
,
0100
0000
0100
0000
,
0100
0000
0000
0000
,
0010
0010
0010
0010
,
0010
0000
0010
0000
,
0001
0000
0001
0000
,
1000
1000
1000
1000
,
0100
0100
0100
0100
,
0010
0010
0010
0010
,
0001
0001
0001
0001
,
1000
0000
0000
0000
,
0001
0000
0001
0000
,
0010
0000
0000
0000
,
0100
0000
0100
0000
,
1000
0000
0000
0000
,
0010
0000
0010
0000
,
0100
0000
0001
0000
,
0010
0000
0100
0000
,
1001
0000
0000
0000
;

//---------------dance-single - ----------------
#NOTES:
     dance-single:
     :
     Easy:
     5:
     0.281,0.357,0.038,0.000,0.014:
0000
0000
0000
0000
,
0000
0000
0000
0000
,
0000
0000
0000
0000
,
0000
0000
0000
0000
,
0000
0000
0000
0000
,
0000
0000
0000
0000
,
1000
0000
0000
0100
0000
0000
0001
0000
,
0100
0000
0010
0000
,
1001
0000
0000
0000
,
0000
0000
0000
0000
,
1000
0100
0010
0001
,
0100
0010
1000
0000
,
0001
0010
0100
1000
,
0010
0100
0001
0000
,
1000
0100
0001
0100
,
1000
0010
0001
0000
,
1000
0000
0000
0010
0000
0000
0100
0000
,
0001
0010
0100
0000
,
1000
0100
1000
0010
,
0100
0001
0010
0000
,
0100
1000
0001
0100
,
0001
0010
0100
0000
,
1000
0010
1000
0001
,
0010
0100
1000
0000
,
0001
0100
0010
1000
,
0001
0000
1000
0000
,
0100
1000
0000
1000
,
0010
0100
0001
0010
,
0100
1000
0000
1000
,
0001
0010
0100
1000
,
0001
0100
0000
0100
,
0010
1000
0100
1000
,
0010
0000
0000
0100
0000
0000
0000
0000
,
0010
0000
0100
0001
,
0010
0100
0000
0100
,
1000
0000
1000
0010
,
0100
0001
0010
0000
,
1001
0000
0000
0000
,
1000
0000
0000
0000
,
0010
0000
0100
0000
,
0001
0010
1000
0010
,
0001
0010
1000
0010
,
0001
0100
1000
0100
,
0000
0100
0000
0000
0100
0000
0000
0100
0000
0000
0100
0000
0000
0000
0000
0000
,
1000
0100
0010
0001
,
0100
0010
1000
0000
,
0001
0010
0100
1000
,
0010
0100
0001
0000
,
1000
0100
0001
0100
,
1000
0010
0001
0000
,
1000
0000
0000
0010
0000
0000
0100
0000
,
0001
0010
0100
0000
,
1000
0010
0100
0000
,
0001
0010
0100
1000
,
0100
0010
0001
0000
,
0010
0100
1000
0010
,
0100
0100
0001
0001
,
0010
0010
0100
0100
,
1000
0000
0010
1000
0000
0010
1000
0000
,
0010
0100
0001
1000
,
1001
0000
0000
1000
0000
0000
0010
0000
,
0100
0001
0010
0100
,
1000
0000
0000
0010
0000
0000
0100
0000
,
0001
0010
0100
1000
,
0001
0000
0000
1000
0000
0000
0010
0000
,
0100
0001
0010
0100
,
1000
0000
0000
0010
0000
0000
0100
0000
,
0001
0000
0000
1000
0000
0000
0100
0000
0010
0000
0000
0000
,
1001
0000
0000
0000
;

//---------------dance-single - ----------------
#NOTES:
     dance-single:
     :
     Medium:
     7:
     0.467,0.552,0.105,0.000,0.038:
0000
0000
0000
0000
,
0000
0000
0000
0000
,
0000
0000
0000
0000
,
0000
0000
0000
0000
,
0000
0000
0000
0000
,
0000
0000
0000
0000
,
1000
0000
0000
0100
0000
0000
0010
0000
,
0001
0000
0100
0010
1000
0000
0001
1000
,
0000
0000
0000
0000
,
0000
0000
0000
0000
,
1000
0100
1000
0001
0000
0010
0001
0000
,
0100
0010
1000
0100
,
0010
0001
0100
0010
0000
1000
0100
0000
,
0010
0001
0100
0010
,
1000
0100
1000
0001
0000
0100
0001
0000
,
0010
0100
1000
0001
,
0010
0001
0100
0010
1000
0100
1000
0010
,
0100
0000
0001
0010
0100
0000
1000
0000
,
0001
0010
0001
1000
0000
0100
1000
0000
,
0010
0100
0001
0010
,
0100
1000
0010
0100
0000
0001
0010
0000
,
0100
1000
0010
0100
,
0001
0010
0001
1000
0000
0010
1000
0000
,
0100
0010
0001
1000
,
0100
1000
0010
0100
0001
0010
0001
0100
,
0010
0000
1000
0100
0010
0000
0001
0000
,
1000
0100
1000
0000
0001
0000
0100
0001
,
0100
0000
0010
0000
1000
0100
1000
0000
,
0010
0001
0010
0000
0100
0000
1000
0001
,
1000
0000
0010
0000
0100
0001
0100
0000
,
0010
1000
0010
0000
1000
0000
0100
1000
,
0100
0000
0010
0000
0001
0010
0001
0000
,
0101
0000
0000
1010
0000
0000
1000
0000
,
1100
0000
0000
0000
0010
0000
0000
0000
1000
0000
0000
0001
0000
0000
0100
0000
,
0010
0000
1010
0000
1000
0000
0010
0100
,
0001
0000
0010
0000
0100
1000
0001
1000
,
0010
0000
0000
0100
0000
0000
0010
0000
0100
0000
0000
0000
0100
0000
0001
0000
,
0010
0100
1000
0001
,
1001
0000
0001
0000
0010
0000
0100
1000
,
1000
0000
0100
0001
0001
0000
0000
0000
,
1000
0100
0010
0001
0010
0100
1000
0100
,
0010
0001
0010
0100
1000
0100
0010
0001
,
0100
0010
1000
0010
0100
0001
0100
0010
,
0000
1000
0000
0000
1000
0000
0000
0001
0000
0000
0001
0000
1001
0000
0000
0000
,
1000
0100
1000
0001
0000
0010
0001
0000
,
0100
0010
1000
0100
,
0010
0001
0100
0010
0000
1000
0100
0000
,
0010
0001
0100
0010
,
1000
0100
1000
0001
0000
0100
0001
0000
,
0010
0100
1000
0001
,
0010
0001
0100
0010
1000
0100
1000
0010
,
0100
0000
0001
0010
0100
0000
1000
0000
,
0001
0000
0000
0100
0000
0000
0001
0000
0000
0000
0010
0000
0100
0000
0000
0000
,
1010
0101
0011
1100
,
0010
0000
0000
0100
0000
0000
0001
0000
0010
0000
0000
0000
0100
0000
0000
0000
,
1000
0010
1000
0001
0000
0010
0000
0100
,
1000
0010
1000
0010
0001
0010
0001
0010
,
1000
0100
1000
0100
0001
0100
0001
0100
,
1000
0010
1000
0001
0100
0001
1000
0010
,
1000
0001
0010
0100
1000
0100
0010
0001
,
1000
0000
0001
0010
0000
0010
0100
0000
,
1000
0010
0100
0001
,
1000
0000
0100
1000
0000
0001
0100
0000
,
0010
1000
0100
0010
,
0001
0000
0100
0010
0000
1000
0100
0000
,
1000
0010
0100
0001
,
0010
0000
0100
1000
0000
0010
0100
0000
,
0001
0000
0000
0010
0000
0000
0100
0000
0000
1000
0000
0000
0100
0000
0010
0000
0001
0000
1000
0000
0000
0000
0000
0000
,
1001
0000
0000
0000
;

//---------------dance-single - ----------------
#NOTES:
     dance-single:
     :
     Challenge:
     10:
     0.912,1.000,0.411,0.086,0.807: // measure 1
0000
0000
0000
0000
,  // measure 2
0000
0000
0000
0000
,  // measure 3
0000
0000
0000
0000
,  // measure 4
0000
0000
0000
0000
,  // measure 5
0000
0000
0000
0000
,  // measure 6
0000
0000
0000
0000
,  // measure 7
1000
0010
1000
0001
0000
0010
0001
0100
,  // measure 8
0010
1000
0010
0100
0001
1000
0010
0100
,  // measure 9
0001
1000
0001
2000
0000
0000
0000
0000
0000
0000
0000
0000
0000
0000
0000
0000
,  // measure 10
0000
0000
3000
0000
,  // measure 11
1001
0000
1000
0000
0100
1000
0100
0000
0010
0000
0001
0000
0100
0001
0100
0000
,  // measure 12
0010
0000
0100
0000
0010
1000
0010
0000
1010
0000
0010
0000
0100
0000
0001
0000
,  // measure 13
0101
0000
0001
0000
0010
0001
0010
0000
0001
0000
0100
0000
0010
1000
0010
0000
,  // measure 14
1000
0000
0100
0000
1000
0001
1000
0000
1001
0000
0010
0100
0010
0000
1000
0000
,  // measure 15
0110
0000
0010
0000
1000
0100
1000
0000
0010
0000
0100
0000
0001
0100
0001
0000
,  // measure 16
0010
0000
0001
0000
0100
0010
0100
0000
0110
0000
0010
0000
1000
0000
0001
0000
,  // measure 17
1000
0010
1000
0010
1000
0001
1000
0001
0010
0001
0010
0001
0100
0001
0100
0001
,  // measure 18
0100
0000
0010
0000
1000
0000
0001
0010
0001
0000
0100
0000
0010
0000
1000
0000
,  // measure 19
1001
0000
0001
0000
0010
0100
1000
0000
0010
0000
0100
0000
0001
1000
0010
0000
,  // measure 20
1000
0000
0001
0000
0010
0001
0100
0000
0101
0000
0100
0000
0010
0000
1000
0000
,  // measure 21
1100
0000
0100
0000
1000
0010
0100
0000
0001
0000
1000
0000
0010
1000
0001
0000
,  // measure 22
0010
0000
0001
0000
0100
0010
1000
0000
1010
0000
0010
0100
0001
0000
0010
0000
,  // measure 23
0011
0000
0001
0000
0010
0100
1000
0000
0010
0000
1000
0000
0001
0010
0100
0000
,  // measure 24
1000
0000
0010
0000
0100
0001
1000
0000
1001
0000
1000
0000
0010
0000
0100
0000
,  // measure 25
0001
0010
0100
1000
0001
0100
0010
1000
0100
0010
0001
1000
0010
1000
0001
0100
,  // measure 26
0001
1000
0100
0010
0001
1000
0010
0100
,  // measure 27
0101
0000
0100
0000
0010
1000
0010
1000
0000
0010
1000
0000
0100
1000
0100
1000
,  // measure 28
0000
0100
1000
0000
0001
1000
0001
1000
0001
0000
0010
0000
0100
0000
1000
0000
,  // measure 29
0010
0000
0100
0000
0001
0010
0001
0010
0000
0001
0010
0000
0001
0100
0001
0100
,  // measure 30
0000
0001
0100
0000
0010
1000
0010
1000
0010
0000
0100
0000
0001
0000
1000
0000
,  // measure 31
0010
0000
1000
0000
0100
1000
0100
1000
0000
0010
1000
0000
0001
0010
0001
0010
,  // measure 32
0000
0001
0100
0000
0010
1000
0100
1000
0010
0000
1000
0000
0100
0000
0010
0000
,  // measure 33
0001
0100
0001
0000
1000
0100
1000
0000
0001
0010
0001
0000
1000
0010
1000
0000
,  // measure 34
0001
1000
0001
1000
0010
0100
0010
0100
0001
0000
0000
1001
0000
0000
0001
0000
,  // measure 35
1001
0000
1000
0000
0001
0010
0001
0000
0100
0000
0010
0000
1000
0010
1000
0000
,  // measure 36
0010
0000
0100
0000
0001
1000
0001
0000
0010
0000
0100
0000
1000
0000
0010
0000
,  // measure 37
1010
0000
0000
1100
0000
0000
1001
0000
0000
0000
0001
0000
0010
0000
0100
1000
,  // measure 38
0100
0000
0010
0000
0001
0000
0100
0000
0010
1000
0010
0000
0100
0001
0100
0000
,  // measure 39
2001
0001
0000
0001
0000
3001
0000
1000
,  // measure 40
2000
0000
0000
3001
0002
0000
0000
0003
,  // measure 41
1000
0100
1000
0100
0001
0100
0001
0100
1000
0010
1000
0010
0001
0010
0001
0010
,  // measure 42
1000
0100
1000
0100
0001
0100
0001
0100
1000
0010
1000
0010
0001
0010
0001
0010
,  // measure 43
1000
0100
0010
0001
0100
0010
1000
0001
0100
0010
1000
0100
1000
0010
0100
0001
,  // measure 44
0000
1000
0000
0001
0100
0000
0010
1000
0000
0100
1000
0000
1010
0000
0000
0000
,  // measure 45
1001
0000
0001
0000
0010
0100
1000
0000
0010
0000
0100
0000
0001
1000
0010
0000
,  // measure 46
1000
0000
0001
0000
0010
0001
0100
0000
0101
0000
0100
0000
0010
0000
1000
0000
,  // measure 47
1100
0000
0100
0000
1000
0010
0100
0000
0001
0000
1000
0000
0010
1000
0001
0000
,  // measure 48
0010
0000
0001
0000
0100
0010
1000
0000
1010
0000
0010
0100
0001
0000
0010
0000
,  // measure 49
0011
0000
0001
0000
0010
0100
1000
0000
0010
0000
1000
0000
0001
0010
0100
0000
,  // measure 50
1000
0000
0010
0000
0100
0001
1000
0000
1001
0000
1000
0000
0010
0000
0100
0000
,  // measure 51
0001
0010
0100
1000
0001
0100
0010
1000
0100
0010
0001
1000
0010
1000
0001
0100
,  // measure 52
0001
0000
1000
0000
0100
0000
1000
0010
1000
0000
0010
0000
0100
0000
0001
0000
,  // measure 53
1001
0000
0000
1010
0000
0000
2001
0000
0000
0000
0001
0000
3001
0000
1000
0010
,  // measure 54
1000
0000
0001
0100
0001
0000
1000
0100
1000
0000
0001
0010
0001
0000
0100
0000
,  // measure 55
0110
0000
0000
1010
0000
0000
1100
0000
2001
0000
0000
0000
3001
0000
1000
0100
,  // measure 56
0010
0001
0100
0010
2000
0010
0000
3010
,  // measure 57
1000
0100
1000
0100
0001
0100
0001
0100
1000
0010
1000
0010
0001
0010
0001
0010
,  // measure 58
1000
0100
1000
0100
0001
0100
0001
0100
1000
0010
0100
0001
1000
0100
0010
0001
,  // measure 59
1000
0010
1000
0010
1000
0001
1000
0010
1000
0010
1000
0100
1000
0001
1000
0001
,  // measure 60
1000
0010
0100
0001
1000
0100
0010
0001
1000
0010
0001
0010
1000
0100
0001
0100
,  // measure 61
1000
0001
0100
0010
0000
0010
1000
0100
,  // measure 62
1000
0001
0010
0001
0101
0100
0010
1000
,  // measure 63
1010
1000
0100
0010
0000
0010
0001
0100
,  // measure 64
0010
1000
0010
0100
0101
0001
0010
0100
,  // measure 65
1100
1000
0010
0100
0000
0100
0001
1000
,  // measure 66
0010
1000
0001
0010
0011
0001
0100
0010
,  // measure 67
0110
0010
1000
1100
0000
1000
1001
0001
,  // measure 68
0011
0000
0000
0010
0000
0000
0100
0000
0000
1000
0000
0000
1100
0000
0010
0000
0001
0000
0200
0000
0000
0000
0300
0000
,  // measure 69
0010
0100
0010
0200
0000
0000
0000
0000
0000
0000
0000
0000
0000
0000
0000
0000
,  // measure 70
0000
0000
0000
0000
,  // measure 71
0000
0300
0000
0000
;

//---------------dance-single - Copied from ----------------
#NOTES:
     dance-single:
     Copied from:
     Hard:
     8:
     0.610,0.639,0.325,0.210,0.115: // measure 1
0000
0000
0000
0000
,  // measure 2
0000
0000
0000
0000
,  // measure 3
0000
0000
0000
0000
,  // measure 4
0000
0000
0000
0000
,  // measure 5
0000
0000
0000
0000
,  // measure 6
0000
0000
0000
0000
,  // measure 7
1000
0100
0001
0100
0000
1000
0010
0000
,  // measure 8
0100
0001
0010
0001
0100
0010
1000
0001
,  // measure 9
0020
0000
0000
0000
,  // measure 10
0000
0000
0000
0000
0000
0030
0000
0000
,  // measure 11
0100
1000
0001
0010
0000
0001
0100
0000
,  // measure 12
0010
1000
0100
0000
0210
0000
0310
0000
,  // measure 13
0011
0001
0100
0010
0000
1000
0100
0000
,  // measure 14
0001
0000
0100
0000
1000
0000
0000
0000
1010
0000
0000
0010
0100
0000
0001
0000
,  // measure 15
0011
0010
0100
1000
0000
0001
0010
1000
,  // measure 16
0010
0001
0100
0000
0210
0000
0310
0000
,  // measure 17
1010
0000
1000
0100
0000
0100
0001
0000
,  // measure 18
0101
0000
0001
0100
1000
0010
0100
0000
,  // measure 19
0101
0001
0010
0100
0000
1000
0010
0000
,  // measure 20
1000
0010
0001
0000
0012
0000
0013
0000
,  // measure 21
1010
1000
0100
0001
0000
0100
1000
0000
,  // measure 22
0010
0000
0100
0000
0001
0000
0000
0000
0011
0000
0000
0010
0100
0000
1000
0000
,  // measure 23
1001
0001
0010
1000
0000
0010
0001
0100
,  // measure 24
0010
1000
0001
0000
0021
0000
0031
0000
,  // measure 25
0101
0000
0100
0010
0000
0010
1000
0000
,  // measure 26
0001
0010
1000
0010
0001
0100
0010
1000
,  // measure 27
0100
0000
0010
0000
0001
0000
0000
0100
0000
0000
0010
0000
1000
0000
0000
0001
,  // measure 28
0000
0010
0001
0100
0010
1000
0100
0001
,  // measure 29
0100
0000
1000
0000
0010
0000
0000
0100
0000
0000
0001
0000
0010
0000
0000
1000
,  // measure 30
0000
0010
0001
0100
0010
1000
0100
0001
,  // measure 31
0100
0000
1000
0000
0010
0000
0000
0100
0000
0000
0001
0000
0010
0000
0000
0001
,  // measure 32
0000
0100
0010
1000
0100
0001
0100
1000
,  // measure 33
0010
0100
0001
0010
0001
0100
0010
1000
,  // measure 34
1100
0000
0000
0000
0110
0000
0000
0000
0011
0000
0000
0101
0000
0000
0100
0000
,  // measure 35
0120
0000
1000
0000
0130
0000
0001
0100
,  // measure 36
0020
0000
1030
0001
0010
0001
1000
0100
,  // measure 37
0001
0000
0000
0100
0000
0000
2000
0000
0000
0000
0010
0000
3010
0000
0100
0001
,  // measure 38
0200
0000
0310
0000
1000
0001
0010
0001
,  // measure 39
2000
0010
0000
0010
0000
3010
0100
0001
,  // measure 40
0002
0000
0013
0100
0200
0000
0300
0000
,  // measure 41
1000
0100
0001
0100
1000
0010
0001
0010
,  // measure 42
1000
0100
0010
0001
0100
0010
1000
0001
,  // measure 43
0010
0001
1000
0100
0001
0100
1000
0010
,  // measure 44
0000
0100
0000
0100
0001
0000
0001
0010
0000
0010
0100
0000
1100
0000
0000
0000
,  // measure 45
1010
1000
0100
0010
0000
0001
0100
0000
,  // measure 46
0001
0100
1000
0000
2100
0000
3100
0000
,  // measure 47
0101
0001
0010
1000
0000
0010
0001
0000
,  // measure 48
0100
0000
0010
0000
1000
0000
0000
0000
1100
0000
0000
0100
0010
0000
0001
0000
,  // measure 49
1001
1000
0100
0001
0000
0100
1000
0010
,  // measure 50
0100
0001
1000
0000
1200
0000
1300
0000
,  // measure 51
1010
0000
0010
0100
0000
0100
0001
0000
,  // measure 52
1000
0100
0001
0100
1000
0010
0100
0001
,  // measure 53
0010
0000
0000
0100
0000
0000
2000
0000
0000
0000
0010
0000
3010
0000
0000
0010
,  // measure 54
0100
0000
0000
0100
0001
0000
0000
0001
0010
0000
0000
0010
0100
0000
1000
0000
,  // measure 55
0010
0000
0000
1000
0000
0000
0001
0000
0020
0000
0000
0000
0031
0000
0100
0000
,  // measure 56
0010
1000
0100
0001
0200
1000
0000
1300
,  // measure 57
0100
0010
0001
0010
1000
0010
0001
0100
,  // measure 58
0010
1000
0100
0001
0100
1000
0010
0100
,  // measure 59
0001
0010
0001
1000
0010
1000
0001
0010
,  // measure 60
0001
0100
0010
1000
0100
0010
0001
1000
,  // measure 61
1010
0010
0100
0001
0000
0010
0100
0000
,  // measure 62
1000
0001
1000
0000
2010
0000
3010
0000
,  // measure 63
1001
0001
0010
0100
0000
1000
0010
0000
,  // measure 64
0100
0001
0010
0000
0012
0000
0103
0000
,  // measure 65
0110
0010
1000
0100
0000
0001
0100
1000
,  // measure 66
0010
0100
0001
0000
1002
0000
1003
0000
,  // measure 67
1010
1000
0100
0001
0000
0100
1000
0010
,  // measure 68
0100
0000
0000
0001
0000
0000
0010
0000
0000
0100
0000
0000
1000
0000
0010
0000
0100
0000
0002
0000
0000
0000
0000
0000
,  // measure 69
2000
0000
0000
0000
,  // measure 70
0000
0000
0000
0000
,  // measure 71
0000
0000
0000
3003
0000
0000
0000
0000
;
