#TITLE:Smug Face;
#SUBTITLE:;
#ARTIST:Super Star -Mitsuru-;
#TITLETRANSLIT:;
#SUBTITLETRANSLIT:;
#ARTISTTRANSLIT:;
#CREDIT:;
#BANNER:Smug Face BN.png;
#BACKGROUND:Smug Face BG.png;
#LYRICSPATH:;
#CDTITLE:;
#MUSIC:Smug Face.mp3;
#OFFSET:-0.380;
#SAMPLESTART:78.140;
#SAMPLELENGTH:15.620;
#SELECTABLE:YES;
#BPMS:0.000=148.000;
#STOPS:;
#BGCHANGES:;

//---------------dance-single - ----------------
#NOTES:
     dance-single:
     :
     Hard:
     8:
     0.557,0.623,0.125,0.179,0.406: // measure 1
0000
0000
0000
0000
,  // measure 2
0000
0000
0000
0000
,  // measure 3
0000
0000
0000
0000
,  // measure 4
0000
0000
0000
0000
,  // measure 5
1000
1001
0001
1001
,  // measure 6
1000
0000
1010
0000
0010
0000
1010
1000
,  // measure 7
0100
0000
0000
0000
0110
0000
0000
0010
0001
0000
1000
0000
0001
1000
0001
0000
,  // measure 8
2000
0010
0000
3010
0100
0001
0010
0001
,  // measure 9
0100
0010
0000
1000
0010
0100
0001
0010
,  // measure 10
0001
0100
0000
0010
1000
0100
0001
0100
,  // measure 11
1000
0010
0000
0001
0010
1000
0100
0010
,  // measure 12
0001
0100
0000
0010
1000
0100
0010
0001
,  // measure 13
0011
0010
0100
1000
0010
0100
0001
0000
,  // measure 14
0101
0001
0100
0010
1000
0100
0010
0000
,  // measure 15
0011
0001
0100
0000
0110
0010
1000
0000
,  // measure 16
1001
0000
0001
0000
0010
0000
0000
0001
0000
0000
0010
0000
0000
0100
0000
0000
,  // measure 17
2000
0010
0000
3010
,  // measure 18
0200
0301
0020
0031
,  // measure 19
0200
0010
0000
0310
,  // measure 20
2000
3001
0020
0031
,  // measure 21
0200
0310
2000
3100
,  // measure 22
0002
0103
2000
3010
,  // measure 23
0002
0010
0000
0013
,  // measure 24
1000
0000
0010
0000
0100
0000
0001
0000
1000
0001
0000
1000
0001
0000
1000
0000
,  // measure 25
0001
0000
0011
0000
0010
0100
1000
0010
,  // measure 26
1000
0001
0010
0000
0001
1000
0010
0000
,  // measure 27
1010
0000
0000
0000
0010
0000
0100
0000
0001
0000
0010
0000
0001
0000
0100
0001
,  // measure 28
0100
0010
1000
0000
0100
0010
0001
1000
,  // measure 29
0010
1000
0010
1000
0001
0100
0001
0100
,  // measure 30
0001
0010
0001
0010
0100
1000
0100
1000
,  // measure 31
0100
0010
0001
1000
0010
0100
0001
0010
,  // measure 32
0001
0100
0010
1000
0100
0001
0100
1000
,  // measure 33
0010
0000
0000
0100
0000
0010
0000
0100
0000
0000
0010
0000
1000
0000
0001
0000
,  // measure 34
0010
0000
0000
0001
0000
0010
0000
0001
0000
0000
0010
0000
0100
0000
1000
0000
,  // measure 35
0010
0000
0000
0100
0000
0001
0000
0100
0000
0000
0010
0000
1000
0000
0001
0000
,  // measure 36
0010
0000
0000
0001
0000
1000
0000
0001
0000
0000
1000
0000
0010
0000
1000
0000
,  // measure 37
0100
0000
0000
0010
0000
0001
0000
0010
0000
0000
0001
0000
0100
0000
0010
0000
,  // measure 38
1000
0000
0000
0010
0000
1000
0000
0010
0000
0000
0100
0000
0001
0000
1000
0000
,  // measure 39
0100
0000
0000
0010
0000
0001
0000
0010
0000
0000
0001
0000
0100
0000
0010
0000
,  // measure 40
1000
0000
0000
0001
0000
0010
0000
0001
0000
0000
0100
0000
0010
0000
1000
0000
,  // measure 41
1002
0000
1000
0000
0010
0000
1003
0010
,  // measure 42
0200
0000
0010
0000
0001
0000
0310
1000
,  // measure 43
0002
0000
0010
0000
1000
0000
0013
0100
,  // measure 44
2000
0000
0001
0000
0010
0000
3001
0010
,  // measure 45
0100
1000
0010
1000
0100
0001
0100
0010
,  // measure 46
0100
1000
0010
1000
0100
0010
0001
0100
,  // measure 47
0001
0010
0100
1000
0010
0100
0001
1000
,  // measure 48
0010
1000
0100
0010
0001
0100
0010
1000
,  // measure 49
0001
0000
0000
0010
0000
0001
0000
0100
0000
0000
0010
0000
1000
0000
0001
0000
,  // measure 50
0010
0000
0000
0001
0000
1000
0000
0010
0000
0000
1000
0000
0100
0000
0001
0000
,  // measure 51
0100
0000
0000
1000
0000
0010
0000
0100
0000
0000
0001
0000
0010
0000
0100
0000
,  // measure 52
1000
0000
0000
0010
0000
1000
0000
0001
0000
0000
0010
0000
0001
0000
0100
0000
,  // measure 53
0010
0000
0000
1000
0000
0100
0000
0001
0000
0000
0100
0000
1000
0000
0010
0000
,  // measure 54
0100
0000
0000
0001
0000
0010
0000
0100
0000
0000
1000
0000
0010
0000
1000
0000
,  // measure 55
0001
0000
0000
0010
0000
0001
0000
0100
0000
0000
0010
0000
1000
0000
0100
0000
,  // measure 56
0010
0000
0000
0001
0000
0100
0000
0010
0000
0000
1000
0000
0100
0000
0010
0000
,  // measure 57
0001
0010
0000
0001
0000
0010
0000
0001
0000
0000
0010
0000
0100
0000
1000
0000
,  // measure 58
0010
1000
0000
0010
0000
1000
0000
0010
0000
0000
0100
0000
0001
0000
0010
0000
,  // measure 59
0001
1000
0000
0001
0000
1000
0000
0001
0000
0000
1000
0000
0010
0000
0100
0000
,  // measure 60
0001
0100
0000
0001
0000
0100
0000
0001
0000
0000
0100
0000
0001
0000
0100
0000
,  // measure 61
0010
1000
0000
0100
0000
1000
0000
0020
0000
0000
1000
0000
1000
0000
1030
0000
,  // measure 62
0010
0100
0000
0001
0000
0010
0000
0002
0000
0000
0100
0000
0100
0000
0103
0000
,  // measure 63
0010
1000
0000
0001
0000
0100
0000
0001
1000
0100
0000
1000
0000
0010
0000
0100
,  // measure 64
0001
0010
0000
0100
0000
1000
0000
0001
0100
0000
0001
0000
1000
0000
0001
0000
,  // measure 65
2002
0000
0000
0000
,  // measure 66
0000
0000
0000
0000
,  // measure 67
0000
0000
3003
0000
;

//---------------dance-single - ----------------
#NOTES:
     dance-single:
     :
     Beginner:
     2:
     0.162,0.257,0.009,0.179,0.000:
0000
0000
0000
0000
,
0000
0000
0000
0000
,
0000
0000
0000
0000
,
0000
0000
0000
0000
,
1000
0000
1000
0000
,
0001
0000
0001
0000
,
0010
0000
0010
0000
,
0100
0000
0000
0000
,
1000
0000
1000
0000
,
0010
0000
0010
0000
,
0100
0000
0100
0000
,
0001
0000
0001
0000
,
0010
0000
0010
0000
,
0001
0000
0001
0000
,
0100
0000
0100
0000
,
0010
0000
0010
0000
,
2000
0000
0000
3000
,
0002
0000
0023
0000
,
0230
0000
2300
0000
,
3020
0000
2030
0000
,
3002
0000
0023
0000
,
0032
0000
0203
0000
,
0320
0000
0000
0030
,
1000
0000
1000
0000
,
0001
0000
0000
0000
,
0010
0000
0010
0000
,
0100
0000
0000
0000
,
1000
0000
1000
0000
,
0001
0000
0010
0000
,
0001
0000
0100
0000
,
0010
0000
1000
0000
,
0001
0000
0010
0000
,
0002
0000
0000
0003
,
2000
0000
0000
3000
,
0020
0000
0000
0030
,
0200
0000
0000
0300
,
0002
0000
0000
0003
,
0020
0000
0000
0030
,
2000
0000
0000
3000
,
0020
0000
0000
0030
,
0001
0000
0001
0000
,
0001
0000
0000
0000
,
1000
0000
1000
0000
,
1000
0000
0000
0000
,
0010
0000
0010
0000
,
0010
0000
0000
0000
,
0100
0000
0100
0000
,
0100
0000
0100
0100
,
0100
0000
0001
0000
,
0010
0000
0001
0000
,
1000
0000
0100
0000
,
0001
0000
0100
0000
,
1000
0000
0010
0000
,
0100
0000
0001
0000
,
0010
0000
0001
0000
,
1000
0000
0100
0000
,
0010
0000
0010
0000
,
0001
0000
0001
0000
,
1000
0000
1000
0000
,
0100
0000
0100
0000
,
0010
0000
0010
0000
,
0001
0000
0001
0000
,
0100
0000
0100
0000
,
0010
0000
0010
0000
,
1001
0000
0000
0000
;

//---------------dance-single - ----------------
#NOTES:
     dance-single:
     :
     Easy:
     4:
     0.286,0.286,0.027,0.205,0.000:
0000
0000
0000
0000
,
0000
0000
0000
0000
,
0000
0000
0000
0000
,
0000
0000
0000
0000
,
1000
0001
1000
0001
,
0010
0100
0010
0100
,
1000
0010
1000
0010
,
2000
0000
0001
3001
,
1000
0010
0100
0001
,
0010
0001
0100
0010
,
1000
0100
0001
0100
,
1000
0010
0100
0001
,
0010
0010
0010
0010
,
0100
0100
0100
0100
,
1000
1000
1000
1000
,
0001
0001
1000
0001
,
0020
0000
0032
0000
,
0203
0000
0320
0000
,
2030
0000
3200
0000
,
0302
0000
0203
0000
,
2300
0000
3020
0000
,
0230
0000
0302
0000
,
0023
0000
0032
0000
,
0103
0010
1000
0001
,
1000
0000
1001
0000
,
1000
0010
0100
0001
,
1000
0000
1001
0000
,
0001
0010
0100
1000
,
0010
1000
0100
0001
,
0100
1000
0010
0001
,
0010
1000
0100
0010
,
0001
0100
0010
1000
,
0001
0000
0001
0000
,
1000
0000
1000
0000
,
0010
0000
0010
0000
,
0100
0000
0100
0000
,
0001
0000
0001
0000
,
0010
0000
0010
0000
,
1000
0000
1000
0000
,
0010
0000
0010
0000
,
0001
0100
0001
0100
,
0010
1000
0010
1000
,
0100
1000
0100
1000
,
0001
0010
0001
0010
,
0001
0100
0010
1000
,
0100
0010
0001
1000
,
0010
1000
0001
0010
,
0001
0100
0010
1000
,
0002
0000
0010
0013
,
0200
0000
1000
1300
,
0020
0000
0100
0130
,
0002
0000
0010
0013
,
0200
0000
0010
0310
,
0002
0000
1000
1003
,
0020
0000
1000
1030
,
0002
0000
0100
0103
,
0010
1000
0100
1000
,
0001
0010
0001
0100
,
0010
1000
0100
0001
,
0100
1000
0010
0100
,
0001
0010
1000
0010
,
0001
0100
0010
1000
,
0100
0010
0001
1000
,
0010
0100
0001
1000
,
1001
0000
0000
0000
;

//---------------dance-single - ----------------
#NOTES:
     dance-single:
     :
     Medium:
     6:
     0.427,0.514,0.205,0.161,0.009:
0000
0000
0000
0000
,
0000
0000
0000
0000
,
0000
0000
0000
0000
,
0000
0000
0000
0000
,
1000
1001
0001
0011
,
0010
0110
0100
1100
,
1000
0000
0010
0000
0100
0001
0010
0000
,
0001
2000
0000
3002
0000
1003
0010
0000
,
0100
0001
0000
0010
0000
0001
0000
0100
,
0010
1000
0000
0100
0000
1000
0000
0001
,
0010
1000
0000
0010
0000
0001
0000
0100
,
0010
1000
0000
0100
0000
0001
0000
0100
,
1000
0000
0010
0000
0100
0001
0100
0000
,
0001
0000
0010
0000
0100
1000
0100
0000
,
0010
0001
0100
0000
0010
1000
0100
0000
,
0010
0000
0001
0000
1000
0000
0000
0010
0000
0000
1000
0000
0000
0001
0000
0000
,
2000
0010
0010
3010
,
0200
0301
0020
0031
,
2000
3100
0002
0103
,
2000
3010
0200
0301
,
0020
0031
2000
3100
,
2000
3010
0200
0301
,
0020
0001
0000
0031
,
0010
0000
0100
0000
1000
0000
0001
1000
,
0001
1001
1000
0010
,
0100
0001
0100
0000
0001
0010
0001
0000
,
1000
1001
1000
0010
,
0100
0001
0100
0000
0001
0010
0001
0000
,
1000
0010
0100
0001
,
1000
0100
0010
0001
,
1000
0010
1000
0000
0001
0010
0001
0000
,
1000
0100
0010
0001
1000
0010
0100
0001
,
1000
0000
0001
0100
0001
0000
1000
0000
,
0010
0000
1000
0100
1000
0000
0100
0000
,
0010
0000
0001
1000
0001
0000
0100
0000
,
0010
0000
1000
0100
1000
0000
0010
0000
,
0100
0000
0001
1000
0001
0000
0010
0000
,
0001
0000
0100
0010
0100
0000
0010
0000
,
1000
0000
0100
0001
0100
0000
1000
0000
,
0010
0000
0100
0001
0100
0000
0001
0000
,
0020
0100
0100
0130
,
2000
0001
0001
3001
,
0020
0001
0001
0031
,
0200
0010
0010
0310
,
1000
0010
0100
0001
,
1000
0100
0010
0001
,
1000
0010
1000
0000
0001
0010
0001
0000
,
1000
0010
0100
0001
1000
0100
0010
0001
,
1000
0000
0010
1000
0010
0000
0100
0000
,
0001
0000
0010
0001
0010
0000
0001
0000
,
1000
0000
0100
1000
0100
0000
0010
0000
,
0001
0000
0100
0001
0100
0000
0010
0000
,
1000
0000
0001
0010
0001
0000
1000
0000
,
0100
0000
1000
0001
1000
0000
0010
0000
,
0100
0000
0001
0010
0001
0000
0100
0000
,
0010
0000
1000
0001
1000
0000
0001
0000
,
1100
1100
1100
1100
,
0011
0011
0011
0011
,
0101
0101
0101
0101
,
1010
1010
1010
1010
,
1000
0010
0100
0000
0001
0010
0100
0000
,
1000
0001
0010
0000
0001
1000
0010
0000
,
1000
0010
0100
0000
0001
0010
0100
0000
,
1000
0001
0010
0001
1000
0100
1000
0000
,
1001
0000
0000
0000
;
