#TITLE:侍戦隊シンケンジャー;
#SUBTITLE:;
#ARTIST:PSYCHIC LOVER;
#TITLETRANSLIT:Samurai Sentai Shinkenger;
#SUBTITLETRANSLIT:;
#ARTISTTRANSLIT:;
#CREDIT:;
#BANNER:Samurai Sentai Shinkenger bn.png;
#BACKGROUND:Samurai Sentai Shinkenger bg.png;
#LYRICSPATH:;
#CDTITLE:;
#MUSIC:Samurai Sentai Shinkenger.mp3;
#OFFSET:-0.660;
#SAMPLESTART:53.020;
#SAMPLELENGTH:16.420;
#SELECTABLE:YES;
#BPMS:0.000=174.000;
#STOPS:;
#BGCHANGES:;

//---------------dance-single - ----------------
#NOTES:
     dance-single:
     :
     Hard:
     9:
     0.692,0.636,0.678,0.230,0.069:
0000
0000
0000
0000
,
0000
0000
0000
0000
,
0000
0000
0000
0000
,
0000
0000
0000
0000
0000
0000
0000
0000
1001
0000
0000
1000
0000
0000
0100
0000
,
0110
0000
0011
0000
0001
0100
0000
0010
,
1000
0000
0001
0010
0001
1000
0100
0000
,
1100
0000
0100
0010
0001
1000
0000
0010
,
0100
0000
0001
0010
1000
0010
0001
0000
,
0100
0010
1000
0000
0100
0010
0001
0000
,
1001
0000
1010
0000
0010
0100
0000
0210
,
0000
0010
0010
0001
0301
0000
0100
0000
,
0110
0000
0220
0000
0000
0330
0010
0000
1000
0000
0001
0000
0010
0000
1000
0000
,
0010
0001
0100
0020
0000
1030
0100
0002
,
0000
0103
1000
0010
0000
0220
0000
0330
,
0100
0001
0010
1000
0000
1010
0000
0011
,
0000
0000
0001
0100
0001
0000
1000
0000
0010
0000
0010
0000
1000
0000
1000
0000
,
0100
0010
0001
1000
0000
1010
0000
0101
,
0000
0000
0100
0001
0100
0000
0010
0000
1000
0000
1000
0000
0001
0000
0001
0000
,
1000
0000
1000
0010
0100
0001
0000
0010
,
1000
0010
0000
0001
0000
0100
0010
0000
,
1010
0000
1100
0000
1000
0100
0010
0002
,
0000
0000
0013
0000
0100
0000
2000
0000
0000
0000
3010
0000
0100
0001
0100
0000
,
0010
1000
0100
0010
0000
0011
0000
0101
,
0000
0100
0010
1000
1010
0000
0010
1000
,
0100
0001
0100
1000
0000
1100
0000
1010
,
0000
0010
0100
0001
0011
0000
0010
0100
,
1000
0000
0001
0010
1000
0010
0000
0001
,
0100
0000
0010
1000
0001
0010
0001
0000
,
1001
0000
1010
0000
0010
0100
0001
0020
,
0000
1030
0010
0002
0000
0103
0010
0000
,
2010
0000
0010
0000
0100
0100
3001
0000
,
0102
0000
0100
0000
0010
0010
1003
0000
,
1001
0000
1010
0000
0110
0000
0100
0001
,
0101
0000
0011
0000
0110
0000
0100
2000
,
0000
3010
0100
0001
0010
1000
0000
0010
,
0001
0000
0100
0010
0000
1000
0001
0000
,
1001
0000
1000
1100
0000
0110
0000
0011
,
0000
0000
0001
0000
0100
0000
0010
0000
0200
0000
0000
0000
0302
0000
0000
0003
,
1001
0000
1100
0000
0100
0010
0000
0011
,
0000
0001
0100
0010
1000
0100
1000
0000
,
1100
0000
0110
0000
0010
0001
0000
0101
,
0000
0100
0010
1000
0100
0001
0100
0000
,
1100
0000
0100
0000
0010
0001
0000
0100
,
0010
0000
1000
0100
0001
0100
1000
0000
,
1001
0000
0101
0000
0100
0010
0000
0110
,
0010
1000
0100
0001
0100
1000
0001
0000
,
1001
0000
0101
0000
0100
0010
0000
1000
,
0100
0000
0001
0100
1000
0010
0100
0000
,
0101
0000
0110
0000
0010
1000
0000
1010
,
0000
1000
0100
0001
0100
1000
0010
0100
,
0001
0000
1000
0100
0001
0100
0000
1000
,
0010
0000
0100
0001
0000
0010
0001
1000
,
1100
0000
0011
0000
0001
0100
0000
0110
,
0010
1000
0001
0010
0001
1000
0100
1000
,
0001
0000
0000
0001
0010
0000
0000
0010
0100
0000
1000
0000
0010
0000
0100
0000
,
0001
0000
0000
0001
1000
0000
0000
1000
0100
0000
0001
0000
0100
0000
1000
0000
,
0010
0000
0000
0010
0100
0000
0000
0100
0001
0000
0010
0000
1000
0000
0010
0000
,
0001
0000
0000
0001
0100
0000
0000
0100
0010
0000
1000
0000
0001
0000
0010
0000
,
0001
0100
1000
0000
0001
0010
1000
0000
,
1001
0000
1010
0000
1000
0010
0000
0220
,
0000
0330
0100
0000
0001
0000
0010
0000
1000
0000
0000
0000
0010
0000
0000
0000
,
0011
0202
0000
0000
0303
0000
0000
0000
;

//---------------dance-single - ----------------
#NOTES:
     dance-single:
     :
     Beginner:
     1:
     0.126,0.175,0.000,0.000,0.000: // measure 1
0000
0000
0000
0000
,  // measure 2
0000
0000
0000
0000
,  // measure 3
0000
0000
0000
0000
,  // measure 4
0000
0000
0000
0000
,  // measure 5
1000
0000
0000
0000
,  // measure 6
0001
0000
0001
0000
,  // measure 7
0001
0000
0000
0000
,  // measure 8
0010
0000
0010
0000
,  // measure 9
0010
0000
0000
0000
,  // measure 10
0100
0100
0000
0000
,  // measure 11
1000
0000
0000
0010
,  // measure 12
0010
0000
0010
0000
,  // measure 13
0100
0000
0000
0000
,  // measure 14
1000
0000
0000
0000
,  // measure 15
0001
0000
0001
0000
,  // measure 16
0001
0000
0000
0000
,  // measure 17
0010
0000
0010
0000
,  // measure 18
0010
0000
0000
0000
,  // measure 19
0100
0000
0000
0000
,  // measure 20
1000
0000
0000
0000
,  // measure 21
0010
0000
0010
0000
,  // measure 22
0010
0000
0000
0000
,  // measure 23
0100
0000
0100
0000
,  // measure 24
0100
0000
0000
0000
,  // measure 25
0001
0000
0001
0000
,  // measure 26
0001
0000
0000
0000
,  // measure 27
1000
0000
0000
0000
,  // measure 28
0100
0000
0000
0000
,  // measure 29
0010
0000
0010
0000
,  // measure 30
0010
0000
0000
0000
,  // measure 31
0001
0000
0000
0000
,  // measure 32
1000
0000
0000
0000
,  // measure 33
0100
0000
0100
0000
,  // measure 34
0100
0000
0000
0000
,  // measure 35
0010
0000
0000
0000
,  // measure 36
0001
0000
0000
0000
,  // measure 37
1000
0000
1000
0000
,  // measure 38
1000
0000
0000
0000
,  // measure 39
0010
0000
0000
0000
,  // measure 40
0100
0000
0000
0000
,  // measure 41
0001
0000
0000
0000
,  // measure 42
0010
0000
0010
0000
,  // measure 43
0010
0000
0000
0000
,  // measure 44
0100
0000
0000
0000
,  // measure 45
1000
0000
1000
0000
,  // measure 46
1000
0000
0000
0000
,  // measure 47
0001
0000
0000
0000
,  // measure 48
0010
0000
0000
0000
,  // measure 49
0100
0000
0000
0000
,  // measure 50
1000
0000
1000
0000
,  // measure 51
1000
0000
0000
0000
,  // measure 52
0010
0000
0000
0000
,  // measure 53
0100
0000
0100
0000
,  // measure 54
0100
0000
0000
0000
,  // measure 55
0001
0000
0000
0000
,  // measure 56
0010
0000
0000
0000
,  // measure 57
0100
0000
0000
0000
,  // measure 58
1000
0000
0000
0000
,  // measure 59
0010
0000
0000
0000
,  // measure 60
0100
0000
0100
0000
,  // measure 61
0100
0000
0000
0010
,  // measure 62
0010
0000
0000
0000
;

//---------------dance-single - ----------------
#NOTES:
     dance-single:
     :
     Easy:
     5:
     0.346,0.386,0.034,0.103,0.000: // measure 1
0000
0000
0000
0000
,  // measure 2
0000
0000
0000
0000
,  // measure 3
0000
0000
0000
0000
,  // measure 4
0000
0000
0000
0000
,  // measure 5
1000
0001
0010
0001
,  // measure 6
1000
0100
1000
0000
,  // measure 7
0001
0100
0001
0010
,  // measure 8
0001
1000
0100
0000
,  // measure 9
1000
0010
0100
0001
,  // measure 10
1000
0100
0010
0001
,  // measure 11
1000
0000
0010
0100
,  // measure 12
1001
0000
1000
0100
,  // measure 13
0010
0001
0100
0001
,  // measure 14
0010
0000
0100
0000
0000
2002
0000
3003
,  // measure 15
1000
0100
0010
0001
,  // measure 16
0020
0000
0130
0000
,  // measure 17
1000
0010
0100
0001
,  // measure 18
0200
0000
0310
0000
,  // measure 19
1000
0100
0010
0001
,  // measure 20
0010
0100
1000
0000
,  // measure 21
0100
0010
0001
0100
,  // measure 22
0010
1000
0001
0000
,  // measure 23
0010
0001
1000
0010
,  // measure 24
2000
0000
3010
0000
,  // measure 25
0100
0001
0010
0100
,  // measure 26
2000
0000
3010
0000
,  // measure 27
1000
0100
0010
0001
,  // measure 28
1000
0010
0100
0000
,  // measure 29
0001
0010
0100
1000
,  // measure 30
0001
0001
1000
1000
,  // measure 31
0020
0000
0130
0000
,  // measure 32
0002
0000
0013
0000
,  // measure 33
0100
1000
0010
1000
,  // measure 34
0100
0010
0001
0100
,  // measure 35
0010
0000
1000
0000
,  // measure 36
0001
0010
0100
0000
,  // measure 37
1000
0010
0100
0001
,  // measure 38
1000
0100
0010
0000
,  // measure 39
0001
0100
0010
1000
,  // measure 40
0100
0001
0100
0000
,  // measure 41
1000
0010
0001
0010
,  // measure 42
1000
0100
0010
0000
,  // measure 43
0001
0100
0010
1000
,  // measure 44
0001
0010
0001
0000
,  // measure 45
1000
0010
0100
0001
,  // measure 46
0010
0010
0001
0001
,  // measure 47
0100
0010
1000
0100
,  // measure 48
1000
0001
0010
0000
,  // measure 49
0001
0100
0010
1000
,  // measure 50
0100
0001
0100
0000
,  // measure 51
1000
0010
0100
0001
,  // measure 52
0010
0001
0100
0010
,  // measure 53
1000
0100
0001
0100
,  // measure 54
1000
0010
0100
0001
,  // measure 55
0010
0010
0010
0010
,  // measure 56
0100
0100
0100
0100
,  // measure 57
1000
1000
1000
1000
,  // measure 58
0001
0001
0001
0001
,  // measure 59
1000
0010
0100
0001
,  // measure 60
1000
0100
0010
0001
,  // measure 61
2000
0000
3000
1001
,  // measure 62
1000
0001
0000
0000
0000
0000
0000
0000
;

//---------------dance-single - ----------------
#NOTES:
     dance-single:
     :
     Medium:
     6:
     0.482,0.562,0.264,0.115,0.000: // measure 1
0000
0000
0000
0000
,  // measure 2
0000
0000
0000
0000
,  // measure 3
0000
0000
0000
0000
,  // measure 4
0000
0000
0000
0000
,  // measure 5
1000
0000
0001
0000
0010
0001
0000
1000
,  // measure 6
0010
0100
0001
0000
,  // measure 7
1000
0000
0100
0000
0010
0001
0000
0010
,  // measure 8
0100
1000
0010
0000
,  // measure 9
0100
0001
0100
0000
0010
0000
1000
0000
,  // measure 10
1001
0000
1001
0000
1000
0001
0000
0010
,  // measure 11
0000
0001
0100
0000
0010
0000
1000
0000
,  // measure 12
0001
1000
0000
0000
0100
0000
1000
0000
,  // measure 13
1100
0000
0100
0010
0000
0001
0000
0100
,  // measure 14
0000
0010
0000
1000
0000
2002
0000
3003
,  // measure 15
1000
0000
0100
0010
0000
0001
0000
0010
,  // measure 16
0000
0100
1000
0000
0010
0000
0110
0000
,  // measure 17
0100
0000
0001
0010
0000
0001
0000
1000
,  // measure 18
0000
0010
1000
0000
0100
0000
1100
0000
,  // measure 19
0100
0010
0001
0010
,  // measure 20
0100
1000
0000
0010
0000
0100
0001
0000
,  // measure 21
0100
0000
0010
0000
1000
0000
0001
0010
,  // measure 22
0000
0001
0000
1000
0000
0100
1000
0000
,  // measure 23
0001
0000
0010
1000
0000
0010
0000
0001
,  // measure 24
0000
1000
0010
0000
0110
0000
0100
0000
,  // measure 25
0001
0000
0010
1000
0000
0010
0000
0001
,  // measure 26
0000
1000
0010
0000
1010
0000
0010
0000
,  // measure 27
0100
0001
0010
1000
,  // measure 28
0010
0000
0001
1000
0000
0001
1000
0000
,  // measure 29
0100
0000
0010
0000
0001
0000
0100
0010
,  // measure 30
0000
1000
0000
0010
0000
0100
0001
0000
,  // measure 31
0200
0000
0010
0310
,  // measure 32
1000
0010
0100
0001
,  // measure 33
1000
0000
0100
0000
0010
0000
0001
0100
,  // measure 34
0001
0000
0010
0000
0100
0000
1000
0100
,  // measure 35
0000
0000
0010
0000
0001
1000
0000
0010
,  // measure 36
0000
0000
1000
0001
0000
0000
0010
0000
,  // measure 37
0001
0000
1000
0100
0000
1000
0000
0010
,  // measure 38
0000
0100
0001
0000
0010
0000
0100
0000
,  // measure 39
1001
0000
1001
0000
1000
0100
1000
0000
,  // measure 40
0001
0000
0100
0001
0100
0000
0010
0000
,  // measure 41
1010
0000
1010
0000
0010
1000
0010
0000
,  // measure 42
0100
0000
0001
0100
0001
0000
1000
0000
,  // measure 43
0001
0000
1000
0000
0100
0010
0000
0100
,  // measure 44
0010
0000
0001
1000
0000
0001
1000
0000
,  // measure 45
0001
0000
1000
0000
0100
1000
0000
0001
,  // measure 46
0020
0032
0203
0310
,  // measure 47
1010
0000
1010
0000
0010
0100
0010
0000
,  // measure 48
0100
0000
0001
0100
0001
0000
1000
0000
,  // measure 49
1100
0000
1100
0000
0100
0010
0100
0000
,  // measure 50
0010
0000
0001
1000
0001
0000
1000
0000
,  // measure 51
1100
0000
0100
0000
0010
0001
0000
0010
,  // measure 52
0001
0000
1000
0100
0000
1000
0100
0000
,  // measure 53
1001
0000
1001
0000
1000
0010
0000
0100
,  // measure 54
0002
0023
0230
2300
,  // measure 55
3010
0000
0100
0001
0100
0000
0010
0000
,  // measure 56
1000
0000
0100
1000
0100
0000
0010
0000
,  // measure 57
0001
0000
1000
0010
1000
0000
0010
0000
,  // measure 58
0100
0000
0001
0100
0001
0000
1000
0000
,  // measure 59
0100
0010
0100
0000
0010
0000
0001
0000
,  // measure 60
1001
0000
1001
0000
1000
0010
0000
1010
,  // measure 61
0000
0010
0100
0000
0001
0000
0010
0000
,  // measure 62
0100
1001
0000
0000
0000
0000
0000
0000
;
