#TITLE:Ristaccia;
#SUBTITLE:;
#ARTIST:Zektbach;
#TITLETRANSLIT:;
#SUBTITLETRANSLIT:;
#ARTISTTRANSLIT:;
#CREDIT:;
#BANNER:Ristaccia BN.png;
#BACKGROUND:Ristaccia BG.png;
#LYRICSPATH:;
#CDTITLE:;
#MUSIC:Ristaccia.mp3;
#OFFSET:-12.920;
#SAMPLESTART:15.860;
#SAMPLELENGTH:14.820;
#SELECTABLE:YES;
#BPMS:0.000=160.000,72.000=80.000,80.000=160.000;
#STOPS:;
#BGCHANGES:;

//---------------dance-single - ----------------
#NOTES:
     dance-single:
     :
     Hard:
     8:
     0.546,0.520,0.389,0.501,0.191:
2000
0010
0100
3001
,
0002
0010
0100
1003
,
1001
1010
0110
0101
,
0001
0000
0010
0100
1000
0000
0010
0100
,
0001
1000
0010
1000
0100
0000
0101
0000
,
0100
0000
1000
0010
0100
0000
0001
0010
,
0200
0000
1000
0000
0310
0000
0001
0100
,
0020
1030
0002
0203
,
0320
2030
3100
0001
,
0100
1000
0010
0100
0002
0000
0023
0000
,
0230
0000
2300
0000
3010
0000
0100
0001
,
2000
0010
3100
0001
,
0012
0103
1020
0130
,
1001
0101
0011
0101
,
0110
0000
0010
1000
0100
0000
0010
0001
,
0100
0000
0010
1000
0001
0100
0001
0000
,
0011
0000
0010
0100
1000
0000
0010
1000
,
0100
0001
0100
1000
0010
0001
0010
1000
,
0200
0000
0310
0000
0001
0100
0010
0000
,
1000
0000
0001
0000
0010
0000
0001
0000
2000
0000
0000
3010
0100
0000
0101
0000
,
0200
0310
2000
3200
,
0301
0100
1000
0010
0100
0000
0110
0000
,
0200
0302
0023
0032
,
2003
0000
3010
0100
0002
0000
0013
0000
,
1100
0000
0100
0010
0001
0000
1000
0000
,
0020
2030
3200
0302
,
0203
1300
0020
2030
,
3200
0302
0203
1300
,
2100
3100
0012
0103
,
1010
0101
0011
1100
,
1001
0000
0001
0010
0000
0010
0100
0000
,
0100
1000
0000
1000
0010
0100
0001
0000
,
0101
0000
0001
0100
0000
0100
0010
0000
,
0010
1000
0000
1000
0100
0010
0001
0000
,
0011
0000
0001
0100
0010
1000
0010
0000
,
0100
0001
0010
0000
0100
1000
0010
1000
,
1001
0000
0001
0010
1000
0010
0001
0000
,
0100
0010
1000
0000
0100
0010
0001
1000
,
2001
0000
0000
0010
0020
0000
3030
0000
,
1000
0000
1001
0000
0000
0101
0000
0000
,
0012
0000
0000
1000
2000
0000
3003
0000
,
1000
0000
1010
0000
0000
0110
0000
0000
,
0102
0000
0000
0010
0020
0000
0033
0000
,
0010
0000
0110
0000
0000
1100
0000
0000
,
1020
0000
0000
0100
0100
0000
1030
0000
,
0010
0000
0110
0000
0000
0101
0000
0000
,
0011
0000
0010
0100
1000
0000
0010
1000
,
0002
0023
2030
3020
,
0031
0000
0100
0010
1000
0000
0100
1000
,
0001
0000
0010
0001
1000
0000
0010
0000
,
0110
0000
0010
0100
0001
0000
0010
0100
,
2000
3002
0023
0032
,
0103
0000
0010
1000
0100
0000
0001
0100
,
1000
0000
0010
0100
0001
0000
1000
0000
,
1002
0000
0000
0000
0203
0000
0000
0300
,
0120
0000
0000
0030
2010
0000
3000
1000
,
1200
0000
0000
0000
0000
0000
0000
0000
0320
0000
0000
0000
0030
0000
0001
0010
,
0002
0000
0000
0000
0000
0000
2003
0000
0000
3010
0000
0100
,
0001
0000
0000
1000
0100
1000
0100
0000
0000
0010
0000
0000
,
0011
0000
0000
0001
0000
0000
0100
0010
0100
0010
0000
0000
,
1010
0000
0000
1000
0001
1000
0001
0000
0000
1000
0000
0000
,
1010
0000
0000
0010
0000
0000
0100
0001
0010
0100
1000
0010
,
0100
0000
0000
0001
0010
0001
0200
0000
0000
0310
0000
0000
,
1000
0000
0000
0100
1000
0001
0020
0000
0000
0031
0000
0000
,
0100
0000
0000
0010
0000
0010
1000
0000
1000
0001
0000
0001
,
0010
0000
0010
0100
0000
0100
1000
0000
1000
0001
0000
0000
,
1001
0000
0000
1000
0010
0100
0002
0000
0000
0013
0000
0000
,
1100
0000
0000
0100
0010
0001
2000
0000
0000
3010
0000
0000
,
0101
0000
0000
0001
0000
0001
0010
0000
0010
0100
0000
0100
,
1000
0000
1000
0010
0000
0010
0100
0000
0100
0001
0000
0000
,
1001
0000
1000
0010
0000
0010
0100
0000
0100
0001
0000
0001
,
0010
0000
0010
1000
0000
1000
0010
0000
0010
0001
0000
0001
,
0100
0000
0100
0010
0000
0010
1000
0000
1000
0100
0000
0100
,
0001
0000
0001
0100
0000
0100
1000
0010
0100
0001
1000
0010
,
0000
1000
0001
0220
,
0000
0000
0000
0000
,
0000
0000
0000
0000
,
0000
0330
0000
0000
;

//---------------dance-single - ----------------
#NOTES:
     dance-single:
     :
     Easy:
     3:
     0.196,0.260,0.052,0.007,0.000:
1000
0001
1000
0000
,
0100
0010
0100
0000
,
1000
0001
1000
0001
,
0100
0000
0000
0000
,
0100
0010
1000
0001
,
1000
0000
0100
0000
,
1100
0000
0000
0000
,
1000
0000
0001
0000
,
1000
0100
1000
0000
,
1000
0100
0001
0000
,
0001
0010
1000
0000
,
0100
0000
1000
0000
,
0001
0010
1000
0000
,
1000
0000
0001
0000
,
1100
0000
0000
0000
,
1100
0000
0000
0000
,
0011
0000
0000
0000
,
1100
0000
0000
0000
,
1000
0100
0001
0100
,
1000
0010
0001
0010
,
1000
0000
0100
0001
,
0100
0000
1000
0000
,
1000
0100
0001
0000
,
0001
0000
0010
0000
,
1000
0000
0001
0000
,
1000
0000
0001
0000
,
1000
0100
0001
0000
,
1000
0000
0100
0000
,
1001
0000
0110
0000
,
0001
0001
1000
1000
,
0100
0000
0010
0000
,
1000
0000
0100
0010
,
0001
0000
1000
0000
,
0001
0000
0100
0010
,
0100
0000
1000
0000
,
0001
0000
0100
0010
,
0100
0000
0001
0000
,
1000
0000
0001
0010
,
1000
0000
0001
0000
,
1000
0000
0000
0000
,
1000
0000
0100
0000
,
0000
0000
0001
0000
,
1000
0000
0100
0000
,
0000
0000
0010
0000
,
0100
0000
1000
0000
,
0000
0000
0100
0000
,
1000
0000
0000
0000
,
0001
1000
0001
0000
,
1000
0100
0001
0000
,
0001
0010
1000
0000
,
1000
0000
0001
0000
,
0100
0000
1000
0000
,
0010
0000
0001
0000
,
0100
0000
1000
0000
,
1000
0100
0001
0000
,
0001
0000
1000
0000
,
0100
0000
0010
0000
,
0100
0000
1000
0000
,
0100
0000
0000
0000
,
1000
0000
0001
0000
,
1000
0000
0100
0000
,
1000
0000
0001
0000
,
1000
0100
0001
0000
,
0001
0010
1000
0000
,
1000
0100
0001
0000
,
1000
0010
0001
0000
,
0001
0010
1000
0010
,
0001
0000
0100
0000
,
1000
0100
0001
0000
,
0001
0010
1000
0000
,
0100
0000
1000
0000
,
0100
0000
1000
0000
,
0100
0001
0100
0000
,
1000
0100
1000
0001
,
0000
0000
0000
0200
,
0000
0000
0000
0000
,
0000
0000
0000
0000
,
0000
0300
0000
0000
;

//---------------dance-single - ----------------
#NOTES:
     dance-single:
     :
     Beginner:
     1:
     0.106,0.140,0.007,0.000,0.000:
1000
0000
0001
0000
,
1000
0000
0100
0000
,
1000
0000
0000
0000
,
0001
0000
0000
0000
,
1000
0000
0000
0000
,
0100
0000
0000
0000
,
0010
0000
0000
0000
,
0100
0000
0000
0000
,
1000
0000
0000
0000
,
0100
0000
0000
0000
,
1000
0000
0000
0000
,
0100
0000
0000
0000
,
0001
0000
0000
0000
,
0100
0000
0100
0000
,
0100
0000
0000
0000
,
0001
0000
0000
0000
,
0100
0000
0000
0000
,
0001
0000
0001
0000
,
0010
0000
1000
0000
,
0001
0000
0010
0000
,
0100
0000
0000
0000
,
0001
0000
0000
0000
,
0100
0000
0000
0000
,
1000
0000
0000
0000
,
0001
0000
0000
0000
,
0010
0000
0000
0000
,
0100
0000
0000
0000
,
1000
0000
0000
0000
,
0001
0000
0000
0000
,
0010
0000
0000
0000
,
0100
0000
0100
0000
,
0100
0000
0000
0000
,
0010
0000
0010
0000
,
0010
0000
0000
0000
,
0001
0000
0001
0000
,
0001
0000
0000
0000
,
1000
0000
1000
0000
,
1000
0000
0000
0000
,
0010
0000
0000
0000
,
1000
0000
1000
0000
,
1000
0000
0000
0000
,
0001
0000
0000
0000
,
0100
0000
0000
0000
,
0010
0000
0010
0000
,
0010
0000
0000
0000
,
1000
0000
0000
0000
,
0100
0000
0000
0000
,
0001
0000
0000
0000
,
1000
0000
0000
0000
,
0100
0000
0000
0000
,
0010
0000
0000
0000
,
0100
0000
0000
0000
,
1000
0000
0000
0000
,
0100
0000
0000
0000
,
0001
0000
0001
0000
,
0100
0000
0100
0000
,
0010
0000
0010
0000
,
1000
0000
1000
0000
,
1000
0000
0000
0000
,
0100
0000
0000
0000
,
0001
0000
0000
0000
,
0100
0000
0100
0000
,
0010
0000
0000
0000
,
0001
0000
0000
0000
,
0100
0000
0000
0000
,
0010
0000
0010
0000
,
1000
0000
0000
0000
,
0001
0000
0000
0000
,
0100
0000
0000
0000
,
0010
0000
1000
0000
,
0001
0000
0001
0000
,
1000
0000
1000
0000
,
0100
0000
0100
0000
,
0010
0000
0010
0000
,
0000
0000
0000
1001
;

//---------------dance-single - ----------------
#NOTES:
     dance-single:
     :
     Medium:
     5:
     0.367,0.491,0.202,0.217,0.011: // measure 1
1000
0100
0010
0001
,  // measure 2
1000
0010
0100
0001
,  // measure 3
1001
0110
1001
0110
,  // measure 4
0001
0100
0010
1000
,  // measure 5
0100
0010
0100
0010
0001
0000
0011
0000
,  // measure 6
0001
0000
0100
0000
0010
0000
1000
0010
,  // measure 7
1000
0000
0010
0000
0100
0000
0001
0010
,  // measure 8
0001
0100
0010
1000
,  // measure 9
0100
0001
0100
1000
,  // measure 10
0010
0001
0010
0000
1000
0000
0100
0000
,  // measure 11
0010
0000
0001
0000
1000
0000
0001
0100
,  // measure 12
0001
0100
0010
1000
,  // measure 13
1100
0000
0011
0000
,  // measure 14
0101
1010
0101
0011
,  // measure 15
0110
0100
1000
0010
,  // measure 16
1000
0000
0100
0000
0001
0000
0100
0001
,  // measure 17
0100
1000
0010
0100
,  // measure 18
0001
0010
0001
0000
1000
0100
1000
0000
,  // measure 19
0001
0000
0010
0000
1000
0010
1000
0000
,  // measure 20
0010
0100
0001
0010
0100
0000
1000
0000
,  // measure 21
0001
0010
0100
1000
,  // measure 22
0010
0100
0001
1001
,  // measure 23
0001
1000
0100
0001
,  // measure 24
0100
1000
0010
0100
,  // measure 25
0101
0000
0001
0010
0001
0000
0100
0000
,  // measure 26
0010
1000
0100
0001
,  // measure 27
0100
0000
1000
0010
1000
0000
0010
0000
,  // measure 28
0100
0001
1000
0100
,  // measure 29
0002
0103
2000
3100
,  // measure 30
0020
0032
2003
3020
,  // measure 31
0130
0000
0000
0001
0000
0000
0010
0000
,  // measure 32
0000
0100
0000
0000
1000
0000
0010
0000
,  // measure 33
0100
0000
0000
0001
0000
0000
0010
0000
,  // measure 34
0000
0001
0000
0000
0100
0000
0010
0000
,  // measure 35
1000
0000
0000
0100
0000
0000
0001
0000
,  // measure 36
0000
0100
0000
0000
1000
0000
0010
0000
,  // measure 37
0100
0000
0000
0001
0000
0000
0010
0000
,  // measure 38
0000
0100
0000
0000
1000
0000
0001
0000
,  // measure 39
0010
0000
0000
0010
0002
0000
0000
0000
,  // measure 40
0103
0000
0010
0000
0000
1000
0000
0000
,  // measure 41
0001
0000
0000
0001
0020
0000
0000
0000
,  // measure 42
0130
0000
1000
0000
0000
0001
0000
0000
,  // measure 43
0010
0000
0000
0010
0002
0000
0000
0000
,  // measure 44
0103
0000
0010
0000
0000
1000
0000
0000
,  // measure 45
0100
0000
0000
0100
0020
0000
0032
0000
,  // measure 46
0103
0000
0010
0000
0000
1000
0000
0000
,  // measure 47
0100
0001
0100
1000
,  // measure 48
0010
0001
0010
1000
,  // measure 49
0010
0100
0001
0010
,  // measure 50
0100
1000
0010
1000
,  // measure 51
0100
0001
0100
1000
,  // measure 52
0010
0001
0010
1000
,  // measure 53
0010
0100
0001
0010
,  // measure 54
0100
1000
0001
0010
,  // measure 55
0002
0000
0203
0000
,  // measure 56
0320
0000
2030
0000
,  // measure 57
3002
0000
0023
0000
,  // measure 58
0230
0000
2300
0000
,  // measure 59
3010
1000
0001
0010
,  // measure 60
0001
1000
0100
0001
,  // measure 61
0100
0010
1000
0001
,  // measure 62
0010
0001
1000
0100
,  // measure 63
1100
1100
0022
0033
,  // measure 64
0101
0101
2020
3030
,  // measure 65
0001
0010
1000
0010
,  // measure 66
0001
0100
0010
1000
,  // measure 67
1100
1100
0022
0033
,  // measure 68
0101
0101
2020
3030
,  // measure 69
0001
0010
1000
0010
,  // measure 70
0001
0100
0010
1000
,  // measure 71
0001
1000
0100
0001
,  // measure 72
0100
0000
0000
1000
0000
0000
0010
0000
0010
0100
0000
0000
,  // measure 73
0001
0010
1000
0010
,  // measure 74
0001
0000
0000
0100
0000
0000
0010
0000
0010
1000
0000
0001
,  // measure 75
0000
1000
0001
0220
,  // measure 76
0000
0000
0000
0000
,  // measure 77
0000
0000
0000
0000
,  // measure 78
0000
0330
0000
0000
;
