#TITLE:恋愛レボリューション21;
#SUBTITLE:-秋葉工房MIX-;
#ARTIST:Remixed By DJ Command;
#TITLETRANSLIT:Renai Revolution 21;
#SUBTITLETRANSLIT:-Akiba Koubou MIX-;
#ARTISTTRANSLIT:;
#CREDIT:;
#BANNER:Renai Revolution 21 bn Kanji.png;
#BACKGROUND:Renai Revolution 21 bg Kanji.png;
#LYRICSPATH:;
#CDTITLE:;
#MUSIC:Renai Revolution 21 -Akiba Koubou Mix-.mp3;
#OFFSET:-0.059;
#SAMPLESTART:56.200;
#SAMPLELENGTH:14.020;
#SELECTABLE:YES;
#BPMS:0.000=158.020;
#STOPS:;
#BGCHANGES:;

//---------------dance-single - ----------------
#NOTES:
     dance-single:
     :
     Hard:
     8:
     0.636,0.691,0.302,0.322,0.256:
0000
0000
0000
0000
,
0000
0000
0000
0000
,
0000
0000
0000
0000
,
0000
0000
0000
0000
,
1000
0000
0100
0000
0010
0000
0000
0002
0000
0000
0100
0000
0103
0000
0000
0000
,
0001
0000
1000
0000
0001
0000
0100
0010
0000
1000
0010
0000
0100
0000
0000
0000
,
0001
0000
0010
0000
0100
0000
1000
0000
0001
1000
0000
0001
1000
0000
0001
0000
,
1001
0000
0000
1010
0000
0000
0210
0000
0000
0000
0010
0000
0310
0000
2000
0000
,
0000
3001
0010
0001
1000
0100
0000
2000
,
0000
0000
3010
0000
0100
0000
0001
0000
0010
0000
1000
0000
0010
0000
0001
1000
,
0000
0100
0010
0000
0011
0000
0010
0200
,
0000
0000
1300
0000
0001
0000
0010
0000
0001
0000
1000
0000
0100
0000
0010
0001
,
0010
0100
1000
0001
0010
0002
1000
1003
,
0001
0000
0100
0000
0010
0000
1000
0000
0100
0000
0010
0000
0001
0000
1000
0001
,
0000
1000
0010
0000
1010
0000
0010
0200
,
0000
0000
0301
0000
0010
0000
0100
0000
1000
0000
0001
0000
1000
0100
1000
0100
,
1000
0100
0010
0001
1000
0000
0010
0100
,
0001
0011
0010
0110
,
0100
0000
1000
0000
0001
0000
0010
0000
0001
0000
0000
0001
1000
0000
0010
0000
,
0100
0101
0001
1001
,
1000
0000
0010
0000
0100
0000
0001
0000
0010
0000
0000
0010
0100
0000
1000
0000
,
0001
0101
1000
1100
,
0100
0000
0010
0000
0001
0000
1000
0000
0010
0000
0000
0010
0100
0000
0001
0000
,
2000
0000
3200
0000
0320
0000
0031
1000
,
1001
0000
1100
0000
1000
0001
1000
0000
,
1001
0001
0011
0010
0100
1000
0001
0000
,
0011
0001
0101
0000
0100
0010
1000
0000
,
1010
1000
1100
0100
0010
0001
1000
0000
,
1001
0001
0101
0000
0100
0010
1000
0000
,
1010
1000
1100
0100
0010
0001
1000
0000
,
1001
1000
1100
0000
1000
0010
0100
0000
,
0110
0000
0100
0000
0101
0000
0001
0000
0010
0000
0100
0000
1000
0001
1000
0001
,
2000
0010
0100
3001
,
0002
0000
0000
0000
1003
0000
0000
0000
0001
0000
0000
0100
0000
0000
0010
0000
,
1000
0100
0010
0000
0001
0000
1000
0010
,
1000
0000
0000
0001
0000
0000
0010
0000
1000
0000
0000
0010
0000
0000
0001
0000
,
0200
0000
0000
0000
0310
0000
0000
0000
1000
0000
0100
0000
0010
0001
0010
0001
,
0010
0000
0100
0000
1000
0010
0000
0100
0000
0000
0001
0000
0100
0000
0000
0000
,
0010
0000
1000
0000
0100
0001
0000
0100
0000
0000
1000
0000
0010
0000
0000
0000
,
0100
0001
0010
0001
0200
0000
0320
0000
,
2030
0000
0000
0000
3200
0000
0000
0000
0301
0000
0100
0000
1000
0100
1000
0100
,
1000
0000
0100
0000
0010
0001
0000
1000
0000
0000
0010
0000
1000
0000
0000
0000
,
0010
0000
0100
0000
0001
0010
0000
0001
0000
0000
0100
0000
0010
0000
0000
0000
,
1000
0100
0001
0100
2000
0000
3020
0000
,
0230
0000
0000
0000
0302
0000
0000
0000
0013
0000
0100
0000
1000
0001
1000
0001
,
2000
0100
0001
3100
,
0002
0000
0000
0000
0103
0000
0000
0000
0010
0000
0000
1000
0000
0000
0100
0000
,
0010
0001
0200
0000
0010
0000
1300
0000
,
0020
0000
0000
0000
0100
0000
0000
0000
1030
0000
0000
0100
0000
0000
0010
0000
,
0200
0010
0001
0310
,
0002
0000
0000
0000
0103
0000
0000
0000
0010
0000
0000
1000
0000
0000
0001
0000
,
0010
0100
1000
0000
0010
0000
1000
0001
,
0010
0000
0000
0001
0000
0000
0100
0000
0010
0000
0000
1000
0000
0000
0100
0000
,
0001
0000
0100
0000
1000
0000
0100
0000
0001
0000
0100
0000
1000
0010
1000
0010
,
1000
0000
0000
0000
0010
0000
0000
0200
0000
0000
0001
0000
0301
0000
0100
0000
,
0010
0000
1000
0000
0001
0000
1000
0100
0000
1000
0010
0000
0100
0000
0000
0000
,
0001
0010
0100
1000
0010
0100
0001
1000
,
0001
0000
0100
0010
0000
1000
0200
0000
0000
0000
0310
0000
0001
0000
0000
0000
,
1000
0000
0100
0000
0010
0000
0000
0002
0000
0000
0100
0000
0103
0000
0000
0000
,
0001
0000
1000
0000
0001
0000
0100
0010
0000
1000
0010
0000
0100
0000
0000
0000
,
0001
0000
0010
0000
0100
0000
1000
0000
0001
1000
0000
0001
1000
0000
0001
0000
,
1001
0000
0000
1010
0000
0000
0210
0000
0000
0000
0010
0000
0320
0000
0000
0000
,
0000
0000
0000
0000
,
0000
0000
0000
0000
,
0000
0000
0000
0000
,
0000
0000
0030
0000
;

//---------------dance-single - ----------------
#NOTES:
     dance-single:
     :
     Easy:
     4:
     0.333,0.435,0.171,0.000,0.000:
0000
0000
0000
0000
,
0000
0000
0000
0000
,
0000
0000
0000
0000
,
0000
0000
0000
0000
,
1000
0001
0010
0000
,
0001
1000
0010
0000
,
1000
0010
0100
0001
,
1000
0100
0010
0001
,
1000
0010
1000
0000
,
0001
0010
0001
0100
,
0010
1000
0100
0000
,
0001
0100
1000
0000
,
0010
0100
0001
0000
,
0010
0001
1000
0100
,
1000
0001
0010
0000
,
0001
0100
0010
1001
,
1000
0001
0010
0001
,
1000
1000
0001
0001
,
0010
0001
0100
0010
,
0100
0100
0010
0010
,
1000
0100
0001
0100
,
1000
1000
0001
0001
,
0010
0001
0100
0010
,
1000
0100
0010
0001
,
1001
1001
1000
0010
,
0110
0101
0001
0010
,
0110
0110
0100
1000
,
1010
0110
0100
0001
,
1001
1001
1000
0100
,
0110
0011
0001
0100
,
0101
0110
0010
1000
,
1010
1001
0001
0010
,
0100
1000
0010
1000
,
0100
0001
0100
1000
,
0010
0100
0001
0010
,
0001
0001
1000
1000
,
0010
0010
0010
0010
,
0100
0001
0010
0000
,
0100
1000
0001
0000
,
0010
0001
1000
0100
,
0001
0100
1000
0000
,
0010
0100
0001
0000
,
0010
0001
1000
0000
,
0100
1000
0001
0010
,
1000
0010
0001
0000
,
0100
0010
1000
0010
,
0100
0001
0010
0001
,
0100
0010
1000
0100
,
0001
0100
1000
0010
,
0100
0001
0010
1000
,
0010
0001
0100
0010
,
1000
0100
0001
0100
,
1000
0010
0100
0001
,
0010
0010
0010
0010
,
0100
1000
0010
0000
,
0100
0001
0010
0000
,
0100
1000
0001
0010
,
0001
1000
0100
1000
,
0001
0010
0001
0000
,
0100
0010
1000
0000
,
0010
0100
0001
0010
,
0100
1000
0001
0010
;

//---------------dance-single - ----------------
#NOTES:
     dance-single:
     :
     Medium:
     6:
     0.498,0.497,0.181,0.362,0.010:
0000
0000
0000
0000
,
0000
0000
0000
0000
,
0000
0000
0000
0000
,
0000
0000
0000
0000
,
1000
0100
1000
0000
0002
0000
1003
0000
,
0010
0000
0100
0000
0001
0010
0001
0000
,
0100
0010
1000
0000
0001
0010
0100
0000
,
1000
0000
0000
0001
0000
0000
0010
0000
0000
0000
0001
0000
1000
0000
0000
0000
,
0100
1000
0100
0000
0010
0000
0001
0000
,
1000
0010
1000
0000
0001
0100
0001
0100
,
0010
0000
1000
0000
1010
0000
1000
0100
,
0000
0010
0001
0000
1000
0001
1000
0000
,
0010
0000
0100
0000
0001
0010
0001
0000
,
0100
0000
0010
0000
1000
0001
1000
0001
,
1000
0000
0010
0000
0110
0000
0100
0001
,
0000
0010
0100
0000
1000
0001
1000
0000
,
0010
0000
0100
0000
0001
0000
0010
0100
,
0020
0230
2300
3020
,
0130
0000
0001
0010
0100
0000
1000
0001
,
0020
0032
0203
0320
,
1030
0000
0100
0001
0100
0000
1000
0010
,
0200
0302
0023
0032
,
1003
0000
0100
1000
0001
0000
0010
0001
,
2000
3020
0230
0301
,
1001
0000
1100
0000
1000
0001
1000
0000
,
0011
0000
0110
0000
0100
1000
0010
0000
,
1010
0000
0110
0000
0100
0001
0010
0000
,
0011
0000
0110
0000
0100
1000
0001
0000
,
1001
0000
1010
0000
0010
0100
0001
0000
,
0011
0000
0110
0000
0100
1000
0001
0000
,
1001
0000
0011
0000
0001
0100
0010
0000
,
0110
0000
1010
0000
0010
1000
0001
0100
,
0001
1000
0100
1000
,
0010
0000
0100
0000
0001
0000
0010
0001
,
0010
0001
0100
0010
,
1000
0000
0100
1000
0100
0000
0010
0001
,
0020
0230
2300
3002
,
0013
0001
0100
0001
0020
0000
0031
0000
,
0100
0010
1000
0010
0200
0000
0310
0000
,
1000
0100
0010
0001
1000
0000
0010
0000
,
0200
0302
0023
0130
,
1000
0001
0010
0001
2000
0000
3010
0000
,
0100
0001
0010
0001
0200
0000
0310
0000
,
1000
0100
0001
0100
1000
0000
0010
0000
,
0200
0302
0023
0130
,
1000
0100
0010
0001
,
1000
0000
0010
0000
0100
0000
0001
0010
,
0001
0100
0010
1000
,
0100
0001
0100
1000
,
0010
0100
0001
0010
,
1000
0000
0010
0000
0001
0000
0100
0010
,
0100
0010
1000
0100
,
0001
0000
0100
1000
0100
0000
1000
0010
,
2000
3020
0230
0302
,
1003
0000
0100
0010
0002
0000
1003
0000
,
0001
0000
0100
0000
0010
1000
0100
0000
,
0010
0001
1000
0000
0010
0100
0001
0000
,
1000
0000
0100
0000
0010
0001
1000
0000
,
0001
0010
0001
0000
2000
0000
3001
0000
,
0100
0000
0010
0000
1000
0100
1000
0000
,
0010
0100
0001
0000
1000
0100
0010
0000
,
0001
0000
0000
1000
0000
0000
0100
0000
0000
0000
1000
0000
0001
0000
0000
0000
;

//---------------dance-single - ----------------
#NOTES:
     dance-single:
     :
     Beginner:
     1:
     0.118,0.155,0.000,0.000,0.000: // measure 1
0000
0000
0000
0000
,  // measure 2
0000
0000
0000
0000
,  // measure 3
0000
0000
0000
0000
,  // measure 4
0000
0000
0000
0000
,  // measure 5
0100
0000
0000
0000
,  // measure 6
1000
0000
0000
0000
,  // measure 7
0001
0000
0001
0000
,  // measure 8
1000
0000
1000
0000
,  // measure 9
0001
0000
0000
0000
,  // measure 10
0010
0000
0000
0000
,  // measure 11
0100
0000
0000
0000
,  // measure 12
1000
0000
1000
0000
,  // measure 13
1000
0000
0000
0000
,  // measure 14
0010
0000
0000
0000
,  // measure 15
0100
0000
0000
0000
,  // measure 16
0001
0000
0001
0000
,  // measure 17
0001
0000
0000
0000
,  // measure 18
1000
0000
1000
0000
,  // measure 19
1000
0000
0000
0000
,  // measure 20
0010
0000
0010
0000
,  // measure 21
0010
0000
0000
0000
,  // measure 22
0100
0000
0100
0000
,  // measure 23
0100
0000
0000
0000
,  // measure 24
0001
0000
0001
0000
,  // measure 25
0001
0000
0000
0000
,  // measure 26
1000
0000
0000
0000
,  // measure 27
0010
0000
0000
0000
,  // measure 28
0100
0000
0100
0000
,  // measure 29
0100
0000
0000
0000
,  // measure 30
0001
0000
0000
0000
,  // measure 31
0010
0000
0000
0000
,  // measure 32
0100
0000
0100
0000
,  // measure 33
0100
0000
0000
0000
,  // measure 34
1000
0000
0000
0000
,  // measure 35
0010
0000
0000
0000
,  // measure 36
0100
0000
0100
0000
,  // measure 37
0100
0000
0000
0000
,  // measure 38
0001
0000
0001
0000
,  // measure 39
0010
0000
0010
0000
,  // measure 40
0100
0000
0100
0000
,  // measure 41
1000
0000
1000
0000
,  // measure 42
0010
0000
0010
0000
,  // measure 43
0100
0000
0100
0000
,  // measure 44
0001
0000
0001
0000
,  // measure 45
1000
0000
1000
0000
,  // measure 46
0100
0000
0000
0000
,  // measure 47
0010
0000
0000
0000
,  // measure 48
0001
0000
0000
0000
,  // measure 49
1000
0000
0000
0000
,  // measure 50
0010
0000
0000
0000
,  // measure 51
0100
0000
0000
0000
,  // measure 52
0001
0000
0000
0000
,  // measure 53
1000
0000
1000
0000
,  // measure 54
1000
0000
0000
0000
,  // measure 55
0010
0000
0000
0000
,  // measure 56
0100
0000
0000
0000
,  // measure 57
0001
0000
0001
0000
,  // measure 58
0001
0000
0000
0000
,  // measure 59
1000
0000
0000
0000
,  // measure 60
0100
0000
0000
0000
,  // measure 61
0010
0000
0010
0000
,  // measure 62
0010
0000
0010
0010
;
