#TITLE:NIGHT OF FIRE;
#SUBTITLE:;
#ARTIST:MIKO;
#TITLETRANSLIT:;
#SUBTITLETRANSLIT:;
#ARTISTTRANSLIT:;
#CREDIT:;
#BANNER:NIGHT OF FIRE bn.png;
#BACKGROUND:NIGHT OF FIRE bg.png;
#LYRICSPATH:;
#CDTITLE:;
#MUSIC:Night Of Fire.mp3;
#OFFSET:-0.240;
#SAMPLESTART:50.320;
#SAMPLELENGTH:13.620;
#SELECTABLE:YES;
#BPMS:0.000=155.120;
#STOPS:31.750=0.680
;
#BGCHANGES:;

//---------------dance-single - ----------------
#NOTES:
     dance-single:
     :
     Hard:
     9:
     0.695,0.698,0.416,0.197,0.481:
0000
0000
0000
0000
,
0000
0000
0000
0000
,
0000
0000
0000
0000
,
0000
0000
0000
0000
,
1000
0000
0010
0000
0100
0000
0001
0000
0010
0000
0000
0001
0000
0000
0100
0000
,
0010
0000
0000
1000
0000
0000
0001
0000
0000
0010
0000
0000
0001
0000
1000
0000
,
0100
0000
0001
0000
0100
0000
1000
0000
0010
0000
0000
0100
0000
0000
0001
0000
,
0011
0000
0000
0110
0000
0000
1100
0000
0000
1001
0000
0000
0100
0000
0010
0000
,
1000
0000
0100
0000
0010
0001
0010
0000
0001
0100
0000
0010
0000
1000
0100
0000
,
0010
0001
0000
0010
0001
0000
1000
0100
0000
1000
0100
0000
1000
0001
1000
0000
,
0001
0000
0010
0000
0001
0100
0001
0000
0100
0010
0000
1000
0000
0100
0010
0000
,
0001
1000
0000
0001
1000
0000
0010
0100
0000
0010
0100
0000
0001
0100
0001
0100
,
0001
0000
1000
0000
0100
1000
0100
0000
0010
0001
0000
0010
0000
0100
1000
0000
,
0010
0100
0000
0001
0100
0000
0010
1000
0000
0100
1000
0000
0010
1000
0010
0000
,
0100
0000
0001
0000
0010
0001
0010
0000
0001
0100
0000
0010
0000
1000
0001
0000
,
1001
0000
0000
0101
0000
0000
1001
0000
0000
1100
0000
0000
1000
0000
0010
0000
,
0100
0001
0010
0001
0100
0010
1000
0000
,
0100
1000
0001
0010
0001
0100
0010
1000
,
0100
0000
0010
0000
0001
1000
0001
0000
0100
0010
0000
1000
0000
0010
0100
0000
,
0001
0100
0000
0010
1000
0000
0100
1000
0000
0010
0100
0000
0001
0010
0001
0000
,
0100
0010
1000
0100
0001
0100
1000
0000
,
0010
0100
0001
0010
0001
1000
0010
0100
,
0001
0000
0010
0000
0100
1000
0100
0000
0010
0001
0000
0100
0000
0010
1000
0000
,
1001
0000
0000
0011
0000
0000
0110
0000
0000
1100
0000
0000
1000
0000
0010
0000
,
0110
0000
0100
0002
0000
0023
0000
0130
,
0000
1000
0010
0100
0101
0000
1010
0000
,
0100
1000
0011
0000
0100
1000
0011
0000
,
0100
1000
0010
0200
0000
0301
0010
0100
,
1100
0000
0100
0020
0000
0032
0000
1003
,
0000
0010
0100
0001
0011
0000
1001
0000
,
0202
0000
0000
0303
2200
0000
3300
0110
,
0000
0010
0001
1000
0001
2002
3003
0000
,
1100
0000
0101
0000
0100
0010
1000
0000
,
0010
0100
0001
0010
1000
0010
0001
0000
,
0100
0010
1000
0100
0001
0100
1000
0020
,
0000
0130
0001
0000
1002
0000
1003
0000
,
1100
0000
0011
0000
0001
0100
0010
0000
,
1000
0010
0001
0010
1000
0100
0001
0000
,
0100
1000
0010
0100
0001
0010
0001
0200
,
0000
0310
1000
0001
0020
0000
0130
0000
,
1100
0000
0110
0000
0010
0001
0100
0000
,
0010
1000
0001
0010
0001
0100
0010
0000
,
1000
0100
0001
0100
1000
0010
0100
0002
,
0000
0013
0110
0000
1200
0000
0310
0000
,
0110
0000
1001
0000
0001
0010
0100
0000
,
1000
0010
1000
0001
0100
0001
1000
0000
,
0100
1000
0010
0100
0001
0010
0100
1001
,
0000
0100
0010
0100
1001
0000
0110
0000
,
0010
0000
1000
0000
0001
0100
0001
0000
1000
0100
0000
0010
0000
0001
1000
0000
,
0010
0100
0000
0001
1000
0000
0010
1000
0000
0100
1000
0000
0010
0100
0010
0000
,
0100
0000
0001
0000
0010
0001
0010
0000
0001
0100
0000
0010
0000
1000
0100
0000
,
0010
0001
0000
0010
0100
0000
1000
0010
0000
0100
0001
0000
0100
0010
0100
0010
,
1000
0000
0010
0000
0100
0001
0100
0000
0001
0010
0000
0100
0000
1000
0010
0000
,
1000
0001
0000
0010
0001
0000
1000
0010
0000
1000
0100
0000
0010
0001
0010
0000
,
0001
0000
0100
0000
0010
1000
0010
0000
1000
0100
0000
0010
0000
0001
1000
0001
,
2000
0000
3001
0000
;

//---------------dance-single - ----------------
#NOTES:
     dance-single:
     :
     Medium:
     6:
     0.434,0.607,0.175,0.098,0.109:
0000
0000
0000
0000
,
0000
0000
0000
0000
,
0000
0000
0000
0000
,
0000
0000
0000
0000
,
1001
0001
0010
0100
,
1100
1000
0010
0100
,
0101
0001
0010
0100
,
1000
0000
0000
0001
0000
0000
0100
0000
0000
0010
0000
0000
1000
0000
0001
0000
,
0010
0100
0010
0000
0100
0000
1000
0000
,
0010
0000
0000
0010
0000
0000
0010
0000
0000
0010
0000
0000
0010
0000
0000
0000
,
0100
0001
0010
0000
0100
0000
1000
0000
,
0001
0000
0000
0001
0000
0000
0001
0000
0000
0001
0000
0000
0001
0000
0000
0000
,
1000
0010
0100
0000
0001
0000
0010
0000
,
0100
0000
0000
0100
0000
0000
0100
0000
0000
0100
0000
0000
0100
0000
0000
0000
,
1000
0010
0100
0000
0001
0000
0100
0000
,
1000
0000
0000
1000
0000
0000
1000
0000
0000
1000
0000
0000
1000
0000
0000
0000
,
0001
1000
0001
0000
0100
0000
0010
0000
,
1000
0100
1000
0000
0001
0000
0100
0001
,
0100
0000
0010
0000
1000
0001
1000
0000
,
0010
0000
0000
0010
0000
0000
0010
0000
0000
0010
0000
0000
0010
0000
0000
0000
,
1000
0001
1000
0000
0001
0000
0010
0000
,
0001
0100
0001
0000
0100
0000
0010
1000
,
0010
0000
1000
0000
0100
0010
0100
0000
,
0010
0000
0000
0010
0000
0000
0010
0000
0000
0010
0000
0000
0010
0000
0000
0000
,
0001
0000
0100
0010
0000
1000
0000
0010
,
0000
0100
0001
0000
0100
0000
0010
0000
,
1000
0002
0003
0000
1000
0002
0003
0000
,
1000
0010
1000
0010
0000
0100
0001
0000
,
0010
0000
0100
1000
0000
0001
0000
0010
,
0000
0001
0100
0000
0010
0000
1000
0000
,
2002
0000
3003
0000
0220
0000
0330
2002
,
3003
1000
0010
0100
0001
0200
0300
0000
,
0110
0000
1010
0000
1000
0001
0000
0000
,
0010
0000
0001
0000
0100
0001
0100
0000
,
0010
0000
1000
0000
0100
1000
0100
1000
,
0000
0100
0010
0000
0001
0000
1000
0000
,
1010
0000
0110
0000
0100
0001
0000
0000
,
0010
0000
0100
0000
1000
0001
1000
0000
,
0001
0000
0100
0000
0010
1000
0010
1000
,
0000
0100
1000
0100
1000
0000
0100
0000
,
0110
0000
0011
0000
0001
0100
0000
0000
,
0010
0000
1000
0000
0001
0010
0001
0000
,
1000
0000
0010
0000
0100
0001
0100
0001
,
0000
0100
0010
0000
0100
0000
0010
0000
,
1010
0000
1100
0000
0100
0010
0000
0000
,
0001
0000
1000
0000
0010
1000
0010
0000
,
0100
0000
0001
0000
0010
0100
0010
0100
,
0000
1000
0001
1000
0001
0000
1001
0000
,
0010
0100
0010
0000
0100
0000
1000
0000
,
0010
0000
0000
0010
0000
0000
0010
0000
0000
0010
0000
0000
0010
0000
0000
0000
,
0100
0001
0010
0000
0100
0000
1000
0000
,
0001
0000
0000
0001
0000
0000
0001
0000
0000
0001
0000
0000
0001
0000
0000
0000
,
1000
0010
0100
0000
0001
0000
0010
0000
,
0100
0000
0000
0100
0000
0000
0100
0000
0000
0100
0000
0000
0100
0000
0000
0000
,
1000
0010
0100
0000
0001
0000
0100
0000
,
0010
0010
0010
0000
1001
0000
0000
0000
;

//---------------dance-single - ----------------
#NOTES:
     dance-single:
     :
     Easy:
     4:
     0.275,0.273,0.011,0.000,0.000:
0000
0000
0000
0000
,
0000
0000
0000
0000
,
0000
0000
0000
0000
,
0000
0000
0000
0000
,
1000
0001
0100
0000
,
0001
0000
0010
0000
,
0100
1000
0100
0000
,
0010
0001
0100
0010
,
1000
0001
0010
0001
,
0100
0100
0100
0100
,
0010
1000
0100
0010
,
0001
0001
0001
0001
,
1000
0010
0100
0001
,
0100
0100
0100
0100
,
0010
1000
0001
0010
,
0001
0001
0001
0001
,
1000
0000
0001
0010
,
0001
0000
0100
0010
,
1000
0001
0010
0001
,
1000
1000
1000
1000
,
0010
0000
0100
0001
,
0010
0000
0100
1000
,
0001
0010
0001
0100
,
0010
0010
0010
0010
,
1000
0000
0001
0000
,
0010
0000
0001
0000
,
0100
0100
0010
0010
,
0100
0010
1000
0000
,
0100
0000
0010
0000
,
0001
1000
0001
0000
,
1000
0000
0010
0000
,
0100
0001
0010
0000
,
0001
0100
0001
0000
,
1000
0100
1000
0000
,
0001
0010
0001
0000
,
1000
0010
1000
0010
,
0100
0001
0100
0000
,
0010
1000
0010
0000
,
1000
0100
1000
0000
,
0001
0010
0001
0100
,
0010
1000
0100
0000
,
0010
0001
0100
0000
,
0010
1000
0001
0000
,
1000
0010
0100
0001
,
0010
0100
1000
0000
,
0001
0100
0010
0000
,
1000
0001
0010
0000
,
0001
0100
0010
1000
,
0100
0010
0001
0010
,
0100
0100
0100
0100
,
1000
0010
0100
0001
,
0100
0100
0100
0100
,
0010
1000
0001
0010
,
0001
0001
0001
0001
,
0010
0100
1000
0010
,
0100
0000
1001
0000
;

//---------------dance-single - ----------------
#NOTES:
     dance-single:
     :
     Beginner:
     1:
     0.108,0.121,0.011,0.000,0.000: // measure 1
0000
0000
0000
0000
,  // measure 2
0000
0000
0000
0000
,  // measure 3
0000
0000
0000
0000
,  // measure 4
0000
0000
0000
0000
,  // measure 5
1000
0000
0000
0000
,  // measure 6
0001
0000
0000
0000
,  // measure 7
0010
0000
0000
0000
,  // measure 8
0100
0000
0100
0000
,  // measure 9
1000
0000
0000
0000
,  // measure 10
0010
0000
0000
0000
,  // measure 11
0100
0000
0000
0000
,  // measure 12
0001
0000
0001
0000
,  // measure 13
0001
0000
0000
0000
,  // measure 14
0010
0000
0000
0000
,  // measure 15
0100
0000
0000
0000
,  // measure 16
1000
0000
1000
0000
,  // measure 17
1000
0000
0000
0000
,  // measure 18
0010
0000
0010
0000
,  // measure 19
0010
0000
0000
0000
,  // measure 20
0100
0000
0100
0000
,  // measure 21
0100
0000
0000
0000
,  // measure 22
0001
0000
0001
0000
,  // measure 23
0001
0000
0000
0000
,  // measure 24
1000
0000
1000
0000
,  // measure 25
1000
0000
0000
0000
,  // measure 26
0010
0000
0000
0000
,  // measure 27
0100
0000
0000
0000
,  // measure 28
0001
0000
0001
0000
,  // measure 29
0001
0000
0000
0000
,  // measure 30
0010
0000
0000
0000
,  // measure 31
0100
0000
0000
0000
,  // measure 32
1000
0000
1000
0000
,  // measure 33
1000
0000
0000
0000
,  // measure 34
0010
0000
0000
0000
,  // measure 35
0100
0000
0000
0000
,  // measure 36
0001
0000
0001
0000
,  // measure 37
0001
0000
0000
0000
,  // measure 38
0010
0000
0000
0000
,  // measure 39
0100
0000
0000
0000
,  // measure 40
1000
0000
1000
0000
,  // measure 41
1000
0000
0000
0000
,  // measure 42
0001
0000
0000
0000
,  // measure 43
1000
0000
0000
0000
,  // measure 44
0010
0000
0010
0000
,  // measure 45
0010
0000
0000
0000
,  // measure 46
0100
0000
0000
0000
,  // measure 47
0001
0000
0000
0000
,  // measure 48
0010
0000
0010
0000
,  // measure 49
0010
0000
0000
0000
,  // measure 50
0100
0000
0100
0000
,  // measure 51
0100
0000
0000
0000
,  // measure 52
1000
0000
1000
0000
,  // measure 53
1000
0000
0000
0000
,  // measure 54
0010
0000
0010
0000
,  // measure 55
0010
0000
0000
0000
,  // measure 56
0000
0000
1001
0000
;
