#TITLE:My Secret;
#SUBTITLE:;
#ARTIST:水野佐彩;
#TITLETRANSLIT:;
#SUBTITLETRANSLIT:;
#ARTISTTRANSLIT:Saaya Mizuno;
#CREDIT:;
#BANNER:My Secret bn.png;
#BACKGROUND:My Secret bg.png;
#LYRICSPATH:;
#CDTITLE:;
#MUSIC:My Secret.mp3;
#OFFSET:0.314;
#SAMPLESTART:50.180;
#SAMPLELENGTH:14.020;
#SELECTABLE:YES;
#BPMS:0.000=184.000;
#STOPS:;
#BGCHANGES:;

//---------------dance-single - ----------------
#NOTES:
     dance-single:
     :
     Hard:
     7:
     0.606,0.568,0.346,0.268,0.011:
0000
0000
0000
0000
,
0000
0000
0000
0000
,
0000
0000
0000
0000
,
0000
0000
0000
0000
,
1000
0000
0000
0100
0000
0000
0010
0000
0000
0001
0000
0000
1000
0000
0001
0000
,
1000
0000
1001
0000
0001
0100
0000
0010
,
0000
1000
0000
0100
0000
0001
0100
1000
,
0010
0000
0110
0000
0100
0001
0000
0010
,
0000
0100
1000
0001
0000
0010
0001
1000
,
0100
0000
0110
0000
0010
0001
0000
1000
,
0000
0010
0000
1000
0000
0001
0100
0000
,
0110
0000
0010
0000
1000
0000
0010
1000
,
0000
0100
0000
1000
0000
0001
0010
0000
,
0011
0000
0010
0000
0100
0000
1000
0010
,
0000
1000
0000
0001
1000
0100
0010
0000
,
0110
0000
0010
0000
0001
0010
0000
0100
,
0000
1000
0000
0010
0000
0100
0001
0100
,
0010
0110
0010
1000
,
0001
0000
0010
0000
0001
1000
0100
1000
,
0001
0000
0010
0100
1000
0000
0001
0100
,
0000
0010
1000
0001
,
1001
0000
0000
1010
0000
0000
0110
0000
,
0000
0100
0001
0100
0010
1000
0001
0000
,
1001
0000
1000
0000
0100
0010
0000
0011
,
0000
0001
0000
0010
0000
0100
1000
0010
,
0100
0000
0001
0000
0100
0010
0000
1010
,
0000
1000
0000
0100
0010
0001
0010
0100
,
1000
0000
0100
0010
0001
0000
1000
0010
,
0000
0100
0001
0000
1000
0000
0001
0000
,
1001
0001
0200
1300
,
0200
0000
0301
0000
0010
0100
1000
0000
,
2001
0001
0010
0100
,
3010
0000
1000
0000
0001
0000
0010
0001
,
0200
0010
1000
0310
,
0100
0001
0010
0100
,
2100
0000
0100
0000
3001
0000
1000
0001
,
1000
0010
0100
0001
,
0010
0100
0000
1000
0001
0000
0010
0001
,
0000
1000
0010
0000
1000
0001
0100
0000
,
0101
0000
0100
0020
0000
2030
0000
3002
,
0000
0013
0001
0000
0101
0000
0100
0010
,
1000
0000
0100
2000
0000
3002
0000
0023
,
0000
0031
1000
0000
1001
0000
1000
0010
,
0100
0000
0001
0020
0000
0230
0000
2300
,
0000
3010
0100
0000
0101
0000
0100
0010
,
2000
0000
0010
0000
3100
0000
1000
0001
,
0000
0001
0010
0100
1000
0001
1000
0000
,
1001
0000
1000
0020
0000
0230
0000
0302
,
0000
0013
0100
0000
1100
0000
1000
0100
,
0010
0000
0001
2000
0000
3020
0000
1030
,
0000
0001
0100
0001
0000
1000
0100
0010
,
0001
0000
0011
0000
0010
0100
0010
0000
,
0100
0000
1100
0000
1000
0010
1000
0000
,
0010
0000
0110
0000
0100
0001
0100
0000
,
0001
0100
0010
1000
0001
0010
0001
1000
,
0010
0000
1000
0001
0000
0010
0001
1000
,
0010
0100
0001
0000
0010
0000
0100
0000
,
1002
0203
0320
2030
,
3001
0010
0100
1000
0010
0100
0001
1000
,
0010
0000
1001
0000
0001
0100
0000
0010
,
0000
1000
0000
0100
0000
0001
0100
1000
,
0010
0000
0110
0000
0100
0001
0000
0010
,
0000
0100
1000
0001
0000
0010
0001
1000
,
0100
0000
0110
0000
0010
0001
0000
1000
,
0000
0010
0000
1000
0000
0001
0100
0000
,
0110
0000
0010
0000
1000
0001
0010
0001
,
1000
0000
0010
0000
0100
0001
0010
0000
,
0100
0000
1001
0000
1000
0010
0100
0001
;

//---------------dance-single - ----------------
#NOTES:
     dance-single:
     :
     Beginner:
     1:
     0.108,0.151,0.022,0.000,0.000: // measure 1
0000
0000
0000
0000
,  // measure 2
0000
0000
0000
0000
,  // measure 3
0000
0000
0000
0000
,  // measure 4
0000
0000
0000
0000
,  // measure 5
0000
0000
0000
0000
,  // measure 6
0001
0000
0000
0000
,  // measure 7
0010
0000
0000
0000
,  // measure 8
0001
0000
0000
0000
,  // measure 9
1000
0000
0000
0000
,  // measure 10
0100
0000
0000
0000
,  // measure 11
1000
0000
0000
0000
,  // measure 12
0001
0000
0000
0000
,  // measure 13
0000
0000
0000
0000
,  // measure 14
0100
0000
0000
0000
,  // measure 15
0100
0000
0000
0000
,  // measure 16
0010
0000
0000
0000
,  // measure 17
0010
0000
0000
0000
,  // measure 18
1000
0000
0000
0000
,  // measure 19
1000
0000
0000
0000
,  // measure 20
0001
0000
0000
0000
,  // measure 21
0001
0000
0000
0000
,  // measure 22
0100
0000
0000
0000
,  // measure 23
0100
0000
0000
0000
,  // measure 24
0010
0000
0000
0000
,  // measure 25
0010
0000
0000
0000
,  // measure 26
1000
0000
0000
0000
,  // measure 27
1000
0000
0000
0000
,  // measure 28
0100
0000
0000
0000
,  // measure 29
0100
0000
0000
0000
,  // measure 30
0010
0000
0000
0000
,  // measure 31
0010
0000
0000
0000
,  // measure 32
0001
0000
0000
0000
,  // measure 33
0000
0000
0000
0000
,  // measure 34
1000
0000
0000
0000
,  // measure 35
0000
0000
0000
0000
,  // measure 36
0010
0000
0000
0000
,  // measure 37
0000
0000
0000
0000
,  // measure 38
0100
0000
0100
0000
,  // measure 39
0100
0000
0000
0000
,  // measure 40
0010
0000
0000
0000
,  // measure 41
1000
0000
1000
0000
,  // measure 42
1000
0000
0000
0000
,  // measure 43
0001
0000
0001
0000
,  // measure 44
0001
0000
0000
0000
,  // measure 45
0100
0000
0000
0000
,  // measure 46
0010
0000
0000
0000
,  // measure 47
1000
0000
1000
0000
,  // measure 48
1000
0000
0000
0000
,  // measure 49
0001
0000
0001
0000
,  // measure 50
0001
0000
0000
0000
,  // measure 51
0100
0000
0100
0000
,  // measure 52
0100
0000
0000
0000
,  // measure 53
0010
0000
0000
0000
,  // measure 54
1000
0000
0000
0000
,  // measure 55
0001
0000
0001
0000
,  // measure 56
0001
0000
0000
0000
,  // measure 57
1000
0000
0000
0000
,  // measure 58
1001
0000
0000
0000
,  // measure 59
0000
0000
0000
0000
,  // measure 60
1000
0000
0000
0000
,  // measure 61
0010
0000
0000
0000
,  // measure 62
0100
0000
0000
0000
,  // measure 63
0001
0000
0000
0000
,  // measure 64
0010
0000
0000
0000
,  // measure 65
0100
0000
0000
0000
,  // measure 66
1001
0000
0000
0000
,  // measure 67
0000
0000
0000
0000
,  // measure 68
1000
0000
0001
0001
;

//---------------dance-single - ----------------
#NOTES:
     dance-single:
     :
     Easy:
     3:
     0.249,0.264,0.011,0.000,0.000: // measure 1
0000
0000
0000
0000
,  // measure 2
0000
0000
0000
0000
,  // measure 3
0000
0000
0000
0000
,  // measure 4
0000
0000
0000
0000
,  // measure 5
0000
0000
0000
0000
,  // measure 6
1000
0000
0001
0000
,  // measure 7
0010
0000
0001
0001
,  // measure 8
0001
0000
0100
0000
,  // measure 9
0010
0000
1000
1000
,  // measure 10
1000
0000
0100
0000
,  // measure 11
0010
0000
0001
0001
,  // measure 12
0001
0000
1000
0000
,  // measure 13
0010
0000
0100
0000
,  // measure 14
0001
0000
0010
0000
,  // measure 15
0100
1000
0010
1000
,  // measure 16
0100
0000
0010
0000
,  // measure 17
0001
0000
1000
0000
,  // measure 18
0010
0000
1000
0000
,  // measure 19
0001
0000
0010
0000
,  // measure 20
0001
0000
0100
0000
,  // measure 21
0010
0000
1000
0000
,  // measure 22
0100
0000
0010
0000
,  // measure 23
0001
0000
1000
0001
,  // measure 24
1000
0000
0010
0000
,  // measure 25
1000
0000
0001
0100
,  // measure 26
0001
0000
0100
0000
,  // measure 27
0010
0000
1000
0100
,  // measure 28
1000
0000
0100
0000
,  // measure 29
0010
0000
0001
1000
,  // measure 30
0001
0000
0100
0000
,  // measure 31
0010
0000
1000
0000
,  // measure 32
1001
0000
0001
0000
,  // measure 33
0010
0000
0100
1000
,  // measure 34
0100
0000
0010
0000
,  // measure 35
0001
0000
1000
0010
,  // measure 36
1000
0000
0010
0000
,  // measure 37
0100
0000
0001
0000
,  // measure 38
1000
1000
0001
0001
,  // measure 39
1000
1000
0010
0010
,  // measure 40
0100
0000
0001
0000
,  // measure 41
0010
0100
0010
0000
,  // measure 42
0100
0000
1000
0000
,  // measure 43
0010
0100
0010
0000
,  // measure 44
0100
0000
0001
0000
,  // measure 45
0010
0000
0100
0000
,  // measure 46
1000
0000
0001
0000
,  // measure 47
0010
0001
0100
0000
,  // measure 48
0010
0000
1000
0000
,  // measure 49
0100
1000
0100
0000
,  // measure 50
0010
0000
0001
0000
,  // measure 51
1000
0001
1000
0000
,  // measure 52
0010
0000
0100
0000
,  // measure 53
0001
0000
0010
0000
,  // measure 54
1000
0100
1000
0000
,  // measure 55
0001
0100
0001
0000
,  // measure 56
1000
0000
0010
0000
,  // measure 57
0100
0001
0010
0100
,  // measure 58
1000
0000
0001
0000
,  // measure 59
1000
0000
0010
0000
,  // measure 60
1000
0000
0001
0000
,  // measure 61
0010
0000
0001
0001
,  // measure 62
0001
0000
0100
0000
,  // measure 63
0010
0000
1000
1000
,  // measure 64
1000
0000
0100
0000
,  // measure 65
0010
0000
0001
0001
,  // measure 66
0001
0000
1000
0000
,  // measure 67
0010
0000
0100
0000
,  // measure 68
0001
0010
0100
1000
;

//---------------dance-single - ----------------
#NOTES:
     dance-single:
     :
     Medium:
     6:
     0.459,0.416,0.123,0.033,0.000: // measure 1
0000
0000
0000
0000
,  // measure 2
0000
0000
0000
0000
,  // measure 3
0000
0000
0000
0000
,  // measure 4
0000
0000
0000
0000
,  // measure 5
1000
0001
0010
0001
,  // measure 6
1001
1000
0010
1000
,  // measure 7
0001
0000
0010
0000
0001
0000
0100
0001
,  // measure 8
0100
0010
1000
0001
,  // measure 9
0010
0000
0001
0000
1000
0000
0100
1000
,  // measure 10
0100
0010
0001
1000
,  // measure 11
0010
0010
0100
0100
,  // measure 12
1001
1000
0010
1000
,  // measure 13
0001
0010
0001
0100
,  // measure 14
0010
1000
0100
0001
,  // measure 15
0100
0000
1000
0000
0010
0100
0010
0000
,  // measure 16
0100
0001
0010
0001
,  // measure 17
1000
0000
0010
0000
0100
0000
0001
0100
,  // measure 18
0001
0100
0010
1000
,  // measure 19
0100
0000
0010
0000
0001
0000
1000
0001
,  // measure 20
1000
0010
1000
0100
,  // measure 21
0001
0100
1000
0010
,  // measure 22
0100
0000
0000
0001
0000
0000
0010
0000
,  // measure 23
0000
0100
1000
0000
0100
0000
0010
0000
,  // measure 24
0011
0010
0100
1000
,  // measure 25
0010
0000
0100
0000
0001
0000
1000
0001
,  // measure 26
1000
0010
1000
0100
,  // measure 27
0010
0000
0001
0000
0100
0000
0010
0100
,  // measure 28
0010
1000
0001
0010
,  // measure 29
0001
0000
1000
0000
0100
0000
1000
0001
,  // measure 30
1000
0010
1000
0100
,  // measure 31
0001
0100
1000
0010
,  // measure 32
0110
0100
0001
0010
,  // measure 33
0001
0000
1000
0000
0010
0000
0100
0001
,  // measure 34
0100
0010
1000
0100
,  // measure 35
0001
0100
1000
0010
,  // measure 36
0110
0100
0001
0010
,  // measure 37
0100
1000
0001
0010
,  // measure 38
0001
1000
0000
0001
1000
0000
0010
0100
,  // measure 39
0000
0010
0100
0000
0010
0000
0100
0000
,  // measure 40
0001
0100
0010
1000
,  // measure 41
0001
0010
0001
0000
1001
0000
0000
0000
,  // measure 42
1000
0010
0100
0001
,  // measure 43
1000
0100
1000
0000
1001
0000
0000
0000
,  // measure 44
1000
0100
0010
0001
,  // measure 45
1000
0010
0100
0001
,  // measure 46
1000
0100
0001
0100
,  // measure 47
1000
0010
1000
0000
0001
0000
1001
0000
,  // measure 48
1000
0010
0100
0001
,  // measure 49
0010
0001
0010
0000
0011
0000
0000
0000
,  // measure 50
0010
0100
1000
0001
,  // measure 51
0100
0001
0100
0000
0101
0000
0000
0000
,  // measure 52
0200
0010
0010
0310
,  // measure 53
2000
0001
0001
3001
,  // measure 54
0020
0100
0100
0130
,  // measure 55
1000
0001
1000
0000
0001
0010
0001
0000
,  // measure 56
0100
0010
1000
0100
,  // measure 57
0010
0001
0010
0000
0100
0000
1000
0000
,  // measure 58
0001
0000
0000
1000
0000
0000
0010
0000
,  // measure 59
0100
0000
0001
0000
0010
0000
0100
1000
,  // measure 60
0100
0010
0001
1000
,  // measure 61
0010
0000
0100
0000
0001
0000
1000
0100
,  // measure 62
1000
0100
0010
0001
,  // measure 63
1000
0000
0010
0000
0100
0000
0001
0100
,  // measure 64
0001
1000
0100
0010
,  // measure 65
0001
0001
1000
1000
,  // measure 66
1001
1000
0010
1000
,  // measure 67
0001
0000
0010
0000
0001
0100
0001
0000
,  // measure 68
0100
0000
0010
0000
1000
0000
0001
1000
;
