#TITLE:まほろば;
#SUBTITLE:;
#ARTIST:HHH+H;
#TITLETRANSLIT:Mahoroba;
#SUBTITLETRANSLIT:;
#ARTISTTRANSLIT:;
#CREDIT:;
#BANNER:Mahoroba BN.png;
#BACKGROUND:Mahoroba BG.png;
#LYRICSPATH:;
#CDTITLE:;
#MUSIC:Mahoroba.mp3;
#OFFSET:-0.384;
#SAMPLESTART:16.440;
#SAMPLELENGTH:15.620;
#SELECTABLE:YES;
#BPMS:0.000=149.000;
#STOPS:;
#BGCHANGES:;

//---------------dance-single - ----------------
#NOTES:
     dance-single:
     :
     Hard:
     9:
     0.662,0.642,0.373,0.191,0.507: // measure 1
0000
0000
0000
0000
,  // measure 2
1000
0100
0001
0100
1000
0000
0010
0100
,  // measure 3
0001
0000
0000
0010
0000
0000
0100
0000
1000
0000
0010
0000
0100
0001
0000
0000
,  // measure 4
1000
0010
1000
0100
0001
0000
0100
1000
,  // measure 5
0010
0000
0000
1000
0000
0000
0001
0000
0011
0000
0000
0000
0110
0000
0000
0000
,  // measure 6
0100
1000
0001
0010
0001
0000
0100
0010
,  // measure 7
1000
0000
0000
0010
0000
0000
0100
0000
0001
0000
0100
0000
0010
0100
0000
0100
,  // measure 8
0010
0000
0100
0000
0001
0000
0010
0000
0100
0000
0000
1000
0000
0000
0001
0000
,  // measure 9
2000
0001
0001
3001
,  // measure 10
0000
1001
0000
0000
1100
0000
0000
0000
1001
0000
0001
0000
0101
0000
0000
0000
,  // measure 11
0001
0000
0100
0000
0010
0000
1000
0000
0200
0000
0000
0000
0301
0100
0001
0000
,  // measure 12
0100
0000
0000
1000
0000
0000
0010
0000
1000
0000
0001
0000
0010
0001
0000
0000
,  // measure 13
0100
0000
0010
0000
1000
0000
0100
0000
0020
0000
0000
0000
0031
1000
0001
0000
,  // measure 14
0100
0000
0000
0010
0000
0000
1000
0000
1100
0000
0000
0000
0101
0000
0000
0000
,  // measure 15
0001
0000
0100
0000
0010
0000
1000
0000
0200
0000
0000
0000
0310
0001
0010
0000
,  // measure 16
0100
0000
0000
1000
0000
0000
0010
0000
1000
0000
0100
0000
0001
0100
0000
0100
,  // measure 17
1000
0000
0100
0000
0010
0000
0001
0000
0100
0000
0000
0010
0000
0000
0100
0000
,  // measure 18
0020
1000
0100
1030
,  // measure 19
0000
1001
0000
0000
0101
0000
0000
0000
1001
0000
1000
0000
1100
0000
0000
0000
,  // measure 20
1000
0000
0010
0100
0000
0001
0100
0000
0010
0000
1000
0100
0000
1000
0000
0010
,  // measure 21
0100
0000
0001
0010
0001
0000
0100
0000
0010
1000
0010
0000
0100
0000
0001
0000
,  // measure 22
1000
0000
0100
0010
0000
0001
0010
0000
0100
0000
1000
0010
0000
1000
0000
0001
,  // measure 23
0100
0010
1000
0010
0000
0100
0000
0001
0000
0010
0000
0100
0000
1000
0001
0000
,  // measure 24
1000
0000
0100
0010
0000
0001
0100
0000
0010
0000
1000
0001
0000
0010
0000
0001
,  // measure 25
1000
0000
0100
1000
0100
0000
0010
0000
0001
1000
0001
0000
0100
0000
0010
0000
,  // measure 26
1000
0000
0001
0010
0000
0001
1000
0000
0010
0000
1000
0100
0000
0010
0000
0001
,  // measure 27
1000
0010
0100
0001
0000
0010
0000
0100
0000
1000
0000
0001
0000
1000
0001
0000
,  // measure 28
1001
0000
1000
0100
0001
0100
1000
0000
,  // measure 29
0010
0000
0100
0001
0010
0001
0100
0010
,  // measure 30
2000
0000
0001
0010
3001
0000
0010
0000
,  // measure 31
0002
0000
1000
0100
1003
0000
0100
1000
,  // measure 32
1100
0000
0100
0010
0001
1000
0010
0000
,  // measure 33
0100
0000
0001
0010
1000
0010
0001
0100
,  // measure 34
0020
0000
1000
0100
1030
0000
0100
1000
,  // measure 35
0100
0010
0001
0000
1001
0000
1010
0000
,  // measure 36
0201
0000
0301
0000
0100
0010
0000
1000
,  // measure 37
0200
0001
1000
0301
,  // measure 38
2000
0000
3010
0000
0100
0001
0000
1000
,  // measure 39
0200
0000
0310
0001
1000
0010
0100
0000
,  // measure 40
2002
0000
0000
3003
,  // measure 41
0001
0010
1000
0010
0001
0000
0100
0010
,  // measure 42
1010
0000
0000
0010
0000
0000
0100
0000
0001
0000
0010
0000
0100
1000
0000
0000
,  // measure 43
0001
0010
1000
0010
0001
0000
0100
0010
,  // measure 44
1010
0000
0000
0010
0000
0000
1000
0000
0100
0000
0000
0000
0010
0000
0000
0000
,  // measure 45
0011
0000
0000
0110
0000
0000
0100
0000
1100
0000
0000
0000
1010
0000
0000
0000
,  // measure 46
0101
0000
0000
0100
0000
0000
0010
0000
1000
0000
0010
0000
0100
0010
0000
0010
,  // measure 47
0100
0000
0000
0110
0000
0000
0010
0000
1010
0000
0000
0000
1000
0000
0001
0000
,  // measure 48
0102
0000
0000
0000
0103
0000
0000
0000
0101
0000
0000
0110
0000
0000
1010
0000
,  // measure 49
0000
1001
0000
0000
0011
0000
0000
0000
1001
0000
1000
0000
1010
0000
0010
0100
,  // measure 50
0000
0101
0000
0000
0011
0000
0000
0000
0110
0000
0100
0000
1100
0000
0000
0000
,  // measure 51
1000
0000
0010
0000
0100
0000
0001
0000
0020
0000
0000
0000
1030
0010
1000
0000
,  // measure 52
0010
0000
0000
0001
0000
0000
0100
0000
0001
0000
1000
0000
0100
1000
0000
0000
,  // measure 53
0010
0000
0100
0000
0001
0000
0010
0000
0200
0000
0000
0000
1300
0001
1000
0000
,  // measure 54
0010
0000
0000
0100
0000
0000
0001
0000
0011
0000
0000
0000
1010
0000
0000
0000
,  // measure 55
1000
0000
0010
0000
0100
0000
0001
0000
0020
0000
0000
0000
0130
1000
0100
0000
,  // measure 56
0010
0000
0000
0001
0000
0000
0100
0000
0001
0000
0010
0000
1000
0010
0000
0010
,  // measure 57
0001
0000
0010
0000
0100
0000
1000
0000
0010
0000
0000
0100
0000
0000
0010
0000
,  // measure 58
0220
0000
0000
0330
,  // measure 59
0001
0000
0100
0010
0000
1000
0010
0000
0100
0000
0001
0010
0000
0001
0000
0100
,  // measure 60
0010
0000
1000
0100
1000
0000
0010
0000
0100
0001
0100
0000
0010
0000
1000
0000
,  // measure 61
0001
0000
0010
0100
0000
1000
0100
0000
0010
0000
0001
0100
0000
0001
0000
1000
,  // measure 62
0010
0100
0001
0100
0000
0010
0000
1000
0000
0100
0000
0010
0000
0001
1000
0000
,  // measure 63
0001
0000
0010
0100
0000
1000
0010
0000
0100
0000
0001
1000
0000
0100
0000
1000
,  // measure 64
0001
0000
0010
0001
0010
0000
0100
0000
1000
0001
1000
0000
0010
0000
0100
0000
,  // measure 65
0001
0000
1000
0100
0000
1000
0001
0000
0100
0000
0001
0010
0000
0100
0000
1000
,  // measure 66
0001
0100
0010
1000
0000
0100
0000
0010
0000
0001
0000
1000
0000
0001
1000
0000
,  // measure 67
0001
0100
0010
1000
0100
0010
0001
1000
,  // measure 68
2002
0000
0000
0000
,  // measure 69
0000
0000
0000
0000
,  // measure 70
0000
0000
0000
0000
,  // measure 71
0000
0000
3003
0000
;

//---------------dance-single - ----------------
#NOTES:
     dance-single:
     :
     Easy:
     4:
     0.233,0.261,0.000,0.000,0.000:
0000
0000
0000
0000
,
1000
0100
0001
0000
,
0001
0100
1000
0000
,
0010
0100
1000
0000
,
1000
0100
0001
0000
,
0001
0010
1000
1000
,
0100
0001
0000
0000
,
1000
0100
0001
0100
,
1000
0000
0000
0000
,
1000
0000
0000
0000
,
0001
1000
0001
0010
,
0001
0000
1000
0000
,
0100
0010
0100
1000
,
0100
0010
0100
0000
,
1000
0100
1000
0100
,
0001
0100
0001
0000
,
0010
0100
0010
0100
,
1000
0000
0000
0000
,
0001
1000
0000
0000
,
0100
1000
0100
0001
,
0100
0001
0100
0010
,
0100
1000
0100
1000
,
0100
0001
0100
1000
,
0100
0001
0100
0010
,
0100
1000
0100
0001
,
0100
1000
0100
0001
,
0100
1000
0100
0001
,
1000
0000
0000
0000
,
0000
0000
1000
0000
,
0100
0000
1000
0000
,
0100
0000
0010
0000
,
0100
0000
1000
0000
,
0100
0000
0001
0000
,
1000
0000
0100
0000
,
1000
0000
0000
0000
,
0100
0000
0001
0000
,
1000
0000
0000
0000
,
0100
0000
1000
0000
,
0100
0000
0000
0000
,
1000
0000
0001
0000
,
1000
0001
1000
0000
,
1000
0100
0001
0000
,
0001
0010
0001
0000
,
0001
0100
1000
0000
,
1000
0010
0001
0000
,
0001
0100
1000
0000
,
1000
0000
0001
0000
,
1000
0000
0000
0000
,
1000
0010
0001
0000
,
1000
0000
0000
0000
,
1000
0100
0001
0100
,
1000
0100
0001
0000
,
1000
0100
1000
0100
,
0010
0001
0010
0000
,
0100
1000
0100
0001
,
0100
0001
1000
0000
,
1000
0100
1000
0100
,
0001
0100
0000
0000
,
0100
0000
1000
0000
,
0100
1000
0100
0001
,
0100
1000
0100
0001
,
0100
1000
0100
0001
,
0001
0010
1000
0010
,
0001
0010
1000
0010
,
0001
0010
1000
0010
,
0100
0010
0100
1000
,
0100
0000
0000
0000
,
1000
0000
0000
0000
;

//---------------dance-single - ----------------
#NOTES:
     dance-single:
     :
     Medium:
     5:
     0.393,0.349,0.043,0.026,0.000:
0000
0000
0000
0000
,
1000
0100
0010
0001
,
1000
0000
0010
0100
0010
0000
0000
0000
,
0100
0001
0010
1000
,
0010
0000
0001
1000
0001
0000
0100
0000
,
0010
1000
0100
0001
,
0100
0000
1000
0010
1000
0000
0010
0000
,
0100
0000
0001
0000
0010
0000
0001
1000
,
0001
1000
0010
0100
,
0000
0000
0001
0000
0010
0100
0010
0000
,
0001
1000
0010
0100
,
0001
0000
0010
0001
0010
0000
0001
0000
,
0100
0010
1000
0100
,
0010
0000
0001
1000
0001
0000
0100
0000
,
0010
1000
0100
0001
,
0100
0000
1000
0100
1000
0000
0100
0000
,
0010
0001
0010
0000
0001
0000
1000
0010
,
1000
0010
0100
0001
,
0000
1000
0001
1001
,
1000
0000
0010
0000
0100
0001
0100
0000
,
0001
0000
0010
0000
0100
1000
0100
1000
,
0100
0000
0010
0000
0001
1000
0001
0000
,
0100
0000
0010
0000
1000
0010
1000
0010
,
1000
0000
0010
0000
0100
0001
0100
0000
,
0001
0000
0010
0000
0100
1000
0100
1000
,
0100
0000
0010
0000
0001
1000
0001
0000
,
0100
0000
0010
0000
1000
0001
1000
0001
,
1000
0000
0001
0000
0010
0001
0010
0000
,
0001
0000
0100
0000
0010
0100
0010
0000
,
2000
0000
0000
0001
3001
0000
0010
0000
,
0200
0000
0000
0001
0301
0000
0100
0000
,
0010
0000
1000
0000
0001
0010
0001
0000
,
1000
0000
0010
0000
0100
0001
0100
0000
,
0010
0000
1000
0001
1000
0000
0001
0010
,
0000
0001
0100
0000
0010
0000
1000
0000
,
1100
0000
0100
0000
0010
0001
0000
0010
,
0100
1000
0010
0100
,
0001
0000
0010
0000
0001
1000
0000
0100
,
1000
0000
0001
0000
0010
0001
0000
0000
,
1000
0010
0100
0001
,
1000
0000
0100
0000
0001
0000
0100
1000
,
0100
0010
0001
0000
,
1000
0000
0010
0000
0100
0000
0001
0010
,
0001
1000
0001
1001
,
1000
0000
0010
0000
0100
0000
0001
0010
,
0001
0010
0100
1000
,
0010
0100
0010
0000
0100
0000
0001
0100
,
0001
1000
0100
0010
,
0000
0001
0100
0010
,
0000
0000
1000
0000
0100
0010
0100
0000
,
0010
0000
0001
0000
1000
0000
0010
0100
,
0010
0100
0001
0010
,
0100
0000
1000
0000
0001
0000
0010
0001
,
0010
0001
1000
1001
,
0001
0000
0010
0000
0001
0000
0100
0010
,
0100
0010
1000
0100
,
0010
0001
0010
0000
0001
0000
0100
0001
,
0200
0000
0000
0300
,
1000
0000
0010
0000
0100
0001
0100
0000
,
0001
0000
0010
0000
0100
1000
0100
1000
,
0100
0000
0010
0000
0001
1000
0001
0000
,
0100
0000
0010
0000
1000
0010
1000
0010
,
1000
0000
0010
0000
0100
0001
0100
0000
,
0001
0000
0010
0000
0100
1000
0100
1000
,
0100
0000
0010
0000
0001
1000
0001
0000
,
0100
0000
0010
0000
1000
0001
1000
0001
,
1000
0010
0100
0001
,
1001
0000
0000
0000
;

//---------------dance-single - ----------------
#NOTES:
     dance-single:
     :
     Beginner:
     1:
     0.119,0.174,0.017,0.026,0.000:
0000
0000
0000
0000
,
1000
0000
0000
0000
,
0001
0000
0001
0000
,
0001
0000
0000
0000
,
0010
0000
0010
0000
,
0010
0000
0000
0000
,
0100
0000
0100
0000
,
0100
0000
0000
0000
,
1000
0000
0000
0000
,
0010
0000
0010
0000
,
0010
0000
0000
0000
,
0100
0000
0100
0000
,
0100
0000
0000
0000
,
0001
0000
0001
0000
,
0001
0000
0000
0000
,
1000
0000
1000
0000
,
1000
0000
0000
0000
,
0100
0000
0000
0000
,
0010
0000
0010
0000
,
0010
0000
0000
0000
,
0001
0000
0000
0000
,
1000
0000
0000
0000
,
0001
0000
0001
0000
,
0001
0000
0000
0000
,
0100
0000
0000
0000
,
0010
0000
0000
0000
,
1000
0000
1000
0000
,
1000
0000
0000
0000
,
0001
0000
0000
0000
,
0010
0000
0010
0000
,
0100
0000
0100
0000
,
1000
0000
0000
0000
,
0010
0000
0000
0000
,
0100
0000
0000
0000
,
0001
0000
0001
0000
,
1000
0000
0000
0000
,
0010
0000
0000
0000
,
0100
0000
0000
0000
,
0001
0000
0001
0000
,
0000
0000
0000
0000
,
1000
0000
0000
0000
,
0010
0000
0010
0000
,
0010
0000
0000
0000
,
0100
0000
0100
0000
,
0100
0000
0000
0000
,
0001
0000
0001
0000
,
0001
0000
0010
0000
,
0020
0000
0000
0030
,
0000
0100
0000
0100
,
0000
1000
0000
1000
,
1000
0000
0000
0000
,
0010
0000
0010
0000
,
0010
0000
0000
0000
,
0100
0000
0100
0000
,
0100
0000
0000
0000
,
0001
0000
0001
0000
,
0001
0000
0000
0000
,
2002
0000
0000
3003
,
1000
0000
0000
0000
,
0001
0000
0001
0000
,
0001
0000
0000
0000
,
0100
0000
0000
0000
,
0010
0000
0000
0000
,
1000
0000
1000
0000
,
1000
0000
0000
0000
,
0001
0000
0001
0000
,
0000
0000
0000
0000
,
1001
0000
0000
0000
;
