#TITLE:LOVE & JOY;
#SUBTITLE:;
#ARTIST:木村由姫;
#TITLETRANSLIT:;
#SUBTITLETRANSLIT:;
#ARTISTTRANSLIT:Yuki Kimura;
#CREDIT:;
#BANNER:bn.PNG;
#BACKGROUND:bg.PNG;
#LYRICSPATH:;
#CDTITLE:;
#MUSIC:Love & Joy.ogg;
#OFFSET:-1.460;
#SAMPLESTART:23.100;
#SAMPLELENGTH:16.420;
#SELECTABLE:YES;
#BPMS:0.000=173.000;
#STOPS:;
#BGCHANGES:;

//---------------dance-single - ----------------
#NOTES:
     dance-single:
     :
     Easy:
     4:
     0.269,0.315,0.051,0.051,0.000:
0000
0000
0000
0000
,
0000
0000
0000
0000
,
0000
0000
0000
0000
,
0000
0000
0000
0000
,
0100
0000
1000
0001
,
0100
0000
0001
0010
,
0100
0000
1000
0000
,
0010
0000
0100
0000
,
0001
0010
0001
0010
,
0001
0000
0010
0000
,
0100
1000
0100
1000
,
0100
0000
1000
0000
,
0010
0100
0010
0100
,
0010
0000
0100
0000
,
0001
1000
0010
0100
,
0001
1000
1001
0000
,
1000
0100
0010
0000
,
0001
0000
0001
0000
,
0100
0010
1000
0000
,
0100
0000
0100
0000
,
0010
0001
0100
0001
,
0010
0001
0100
0001
,
0010
0000
0100
0000
,
2000
0000
3000
0000
,
0100
1000
0010
0000
,
0100
0000
0001
0000
,
0010
0001
0100
0000
,
0010
0000
1000
0000
,
0100
1000
0010
0100
,
0001
0010
0100
1000
,
0001
0000
1000
0000
,
2002
0000
3003
0000
,
1000
0000
0100
1000
,
0001
0000
0010
0001
,
1000
0000
1000
0000
,
0100
0000
0100
0000
,
0010
0000
0001
0100
,
0010
0000
1000
0100
,
0010
0000
0001
0000
,
1000
0000
0010
0000
,
0100
0001
0100
0000
,
0010
0100
0000
0000
,
0010
0000
1000
0000
,
0100
0000
0010
0000
,
0001
0100
0010
0000
,
1000
0100
0000
0000
,
0010
0000
0001
0000
,
0100
0010
1000
0000
,
0100
1000
0100
0000
,
0001
0100
0001
0000
,
1000
0010
1000
0000
,
0001
0000
0010
0001
,
0100
0000
1001
0000
,
1000
0100
0001
0000
,
1000
0000
0100
0000
,
0010
0001
0100
0000
,
0010
0000
1000
0000
,
0100
1000
0010
1000
,
0100
0010
0001
0100
,
0010
0000
1000
0000
,
2002
0000
3003
0000
,
1000
0100
0001
0000
,
0100
0000
0010
0000
,
1000
0100
0010
0000
,
0001
0000
0100
0000
,
0010
1000
0001
0100
,
0001
0010
0100
1000
,
0010
0000
0100
0000
,
1000
0001
0100
0010
,
1001
0000
0000
0000
;

//---------------dance-single - ----------------
#NOTES:
     dance-single:
     :
     Medium:
     7:
     0.549,0.595,0.284,0.416,0.000:
0000
0000
0000
0000
,
0000
0000
0000
0000
,
0000
0000
0000
0000
,
0000
0000
0000
0000
,
2000
0000
0000
3010
0100
0000
0001
0000
,
0010
0000
0100
1000
0100
0000
0010
0000
,
0002
0000
0000
0103
0010
0000
1000
0100
,
1000
0000
0001
0100
0001
0000
0100
0010
,
0100
0110
0010
1010
,
1000
1100
1000
1001
,
0001
0011
0010
0110
,
0100
0000
1100
0000
1000
0000
0010
1000
,
0010
0110
0100
0101
,
0001
0011
0010
0110
,
0100
1100
1000
1010
,
0110
0000
0101
0000
1000
0001
1000
0001
,
1000
0000
0100
0000
0010
0000
0001
0100
,
0000
0010
0000
1000
0001
0000
1001
0000
,
1000
0000
0100
0000
0001
0000
0100
0010
,
0000
1000
0000
0100
0010
0000
0011
0000
,
0002
0203
0320
2030
,
3200
0320
0032
0203
,
0310
0000
1000
0100
0000
0001
0100
0000
,
0010
0000
0010
0000
1000
0001
1000
0001
,
1000
0000
0100
0000
0010
0000
0001
0100
,
0000
0010
0000
1000
0001
0000
0101
0000
,
0001
0000
0010
0000
0100
0000
1000
0010
,
0000
0100
0000
0001
1000
0000
1001
0000
,
2000
3200
0302
0203
,
2300
3020
0032
0023
,
1030
0000
0010
0100
0000
0001
0010
0000
,
0100
0000
0100
0000
1000
0001
1000
0001
,
1000
0000
0100
1000
0000
0100
1000
0000
,
0001
0000
0100
0001
0000
0100
0002
0100
,
0000
0100
0000
0103
0000
0010
1000
0020
,
0000
1000
0000
1000
0030
1000
0010
0000
,
0100
0002
0000
0010
0000
0010
0103
0000
,
1000
0020
0000
0100
0000
0130
0010
2000
,
0000
3200
0000
0302
0000
0103
0010
1000
,
0001
0000
0010
0000
0001
1000
0001
0000
,
1000
0100
1000
0000
0001
0000
0010
0001
,
0000
0100
0001
0000
0010
0000
0100
1000
,
0000
0010
0000
0100
0001
0000
1000
0010
,
0000
1000
0000
0100
0000
1000
0001
0000
,
0010
0001
0100
0000
0010
0000
1000
0100
,
0000
0010
0001
0000
0100
0000
0010
1000
,
0000
0001
0000
0100
0001
0000
0010
0001
,
0000
0100
0000
0010
1000
0000
0100
0000
,
1000
0000
0100
1000
0100
0000
1100
0000
,
0001
0000
0100
0001
0100
0000
0101
0000
,
1000
0010
1000
0000
0001
0010
0001
0000
,
1000
1000
0001
0001
,
1001
0000
0110
0000
1000
0001
1000
0001
,
1000
0000
0100
0000
0010
0000
0001
0100
,
0000
0010
0000
1000
0001
0000
1001
0000
,
1000
0000
0100
0000
0001
0000
0100
0010
,
0000
1000
0000
0100
0010
0000
0011
0000
,
0002
0203
0320
2030
,
3200
0320
0032
0203
,
0310
0000
1000
0100
0000
0001
0100
0000
,
0010
0000
0010
0000
1000
0001
1000
0001
,
1000
0000
0100
0000
0010
0000
0001
0100
,
0000
0010
0000
1000
0001
0000
0101
0000
,
0001
0000
0010
0000
0100
0000
1000
0010
,
0000
0100
0000
0001
1000
0000
1001
0000
,
2000
3200
0302
0203
,
2300
3020
0032
0023
,
1030
0000
0010
0100
0000
0001
0010
0000
,
0100
0000
0100
0000
1000
0001
1000
0000
,
1001
0000
0000
0000
;

//---------------dance-single - ----------------
#NOTES:
     dance-single:
     :
     Beginner:
     2:
     0.135,0.175,0.010,0.000,0.000:
0000
0000
0000
0000
,
0000
0000
0000
0000
,
0000
0000
0000
0000
,
0000
0000
0000
0000
,
0100
0000
0000
0000
,
0010
0000
0000
0000
,
1000
0000
0000
0000
,
0100
0000
0000
0000
,
0010
0000
0010
0000
,
0010
0000
0000
0000
,
0001
0000
0001
0000
,
0001
0000
0000
0000
,
0100
0000
0100
0000
,
0100
0000
0000
0000
,
0010
0000
0010
0000
,
0010
0000
0010
0000
,
1000
0000
1000
0000
,
1000
0000
0000
0000
,
0001
0000
0001
0000
,
0001
0000
0000
0000
,
0010
0000
0010
0000
,
0010
0000
0000
0000
,
0100
0000
0100
0000
,
0100
0000
0000
0000
,
1000
0000
1000
0000
,
1000
0000
0000
0000
,
0001
0000
0001
0000
,
0001
0000
0000
0000
,
0010
0000
0010
0000
,
0010
0000
0000
0000
,
0100
0000
0100
0000
,
0100
0000
0000
0000
,
1000
0000
0000
0000
,
0001
0000
0000
0000
,
0010
0000
0000
0000
,
0100
0000
0000
0000
,
1000
0000
0000
0000
,
0001
0000
0000
0000
,
0010
0000
0000
0000
,
0100
0000
0000
0000
,
1000
0000
1000
0000
,
1000
0000
0000
0000
,
0001
0000
0001
0000
,
0001
0000
0000
0000
,
0010
0000
0010
0000
,
0010
0000
0000
0000
,
0100
0000
0100
0000
,
0100
0000
0000
0000
,
1000
0000
0000
0000
,
0001
0000
0000
0000
,
0010
0000
0000
0000
,
0100
0000
0100
0000
,
0100
0000
0000
0000
,
1000
0000
1000
0000
,
1000
0000
0000
0000
,
0001
0000
0001
0000
,
0001
0000
0000
0000
,
0010
0000
0010
0000
,
0010
0000
0000
0000
,
0100
0000
0100
0000
,
0100
0000
0000
0000
,
1000
0000
1000
0000
,
1000
0000
0000
0000
,
0001
0000
0001
0000
,
0001
0000
0000
0000
,
0010
0000
0010
0000
,
0010
0000
0000
0000
,
0100
0000
0100
0000
,
0100
0000
0000
0000
,
1001
0000
0000
0000
;

//---------------dance-single - ----------------
#NOTES:
     dance-single:
     :
     Hard:
     9:
     0.691,0.630,0.446,0.608,0.183: // measure 1
0000
0000
0000
0000
,  // measure 2
0000
0000
0000
0000
,  // measure 3
0000
0000
0000
0000
,  // measure 4
0000
0000
0000
0000
,  // measure 5
2000
0000
3100
0010
0001
0000
0100
0010
,  // measure 6
2000
0000
3001
0010
0100
0000
1000
0001
,  // measure 7
0020
0000
0031
0100
0010
0000
1000
0100
,  // measure 8
0001
0000
0100
1000
0010
0000
0100
0001
,  // measure 9
0010
0001
1000
1001
,  // measure 10
1000
0000
0010
0000
0100
0000
0001
0010
,  // measure 11
0100
1000
0010
0110
,  // measure 12
0100
0000
0001
0000
0010
0000
1000
0010
,  // measure 13
0001
0101
0100
0110
,  // measure 14
0010
0000
1010
0000
1000
0000
0100
0010
,  // measure 15
0001
1001
1000
1010
,  // measure 16
0110
0000
0101
0000
0012
0010
0010
0013
,  // measure 17
0110
0000
1100
0000
1010
0000
0010
0200
,  // measure 18
0000
0302
0000
0013
1000
0000
1010
0000
,  // measure 19
0020
0000
0032
0000
0203
0000
0310
2000
,  // measure 20
0000
3002
0000
0013
0001
0000
1001
0000
,  // measure 21
1000
0100
0000
0000
0100
0010
0000
0000
0010
0001
0000
0000
0001
0100
0000
0000
,  // measure 22
0100
0010
0000
0000
0010
1000
0000
0000
1000
0100
0000
0000
0100
0000
0010
0000
,  // measure 23
0002
0000
0103
0020
0000
1030
0001
0000
,  // measure 24
1001
0000
0000
0000
0101
0000
0000
0100
0001
0000
1000
0000
0100
0000
0010
0000
,  // measure 25
0011
0000
0101
0000
0011
0000
0010
0200
,  // measure 26
0000
2300
0000
3001
0100
0000
0101
0000
,  // measure 27
0200
0000
0320
0000
2030
0000
3100
0020
,  // measure 28
0000
0032
0000
1003
0100
0000
1100
0000
,  // measure 29
1000
0010
0000
0000
0010
0100
0000
0000
0100
0001
0000
0000
0001
0010
0000
0000
,  // measure 30
0010
1000
0000
0000
1000
0010
0000
0000
0010
0001
0000
0000
1000
0000
0001
0000
,  // measure 31
0020
0000
0130
2000
0000
3001
0010
0000
,  // measure 32
0011
0000
0000
0000
0101
0000
0000
0100
0010
0000
1000
0000
0001
0000
0000
0000
,  // measure 33
1000
0020
0000
0100
0030
0100
0001
0000
,  // measure 34
0010
0200
0000
1300
0000
1000
0010
0200
,  // measure 35
0000
0302
0000
0023
0000
1030
0010
0002
,  // measure 36
0000
0203
0000
0320
0000
1030
0100
0010
,  // measure 37
0001
0200
0000
0010
0000
1300
0010
0000
,  // measure 38
0100
0002
0000
0013
0000
0100
1000
0002
,  // measure 39
0000
0023
0000
2030
0000
3010
0001
0100
,  // measure 40
0110
0000
0000
0000
1010
0000
0000
1000
0010
0000
0100
0000
0001
0000
1000
0000
,  // measure 41
0100
0010
0001
0010
0100
0000
1000
0010
,  // measure 42
0000
0100
0001
0000
0010
1000
0010
0001
,  // measure 43
0000
0100
0010
1000
0100
0001
0100
2000
,  // measure 44
0000
3020
0000
0230
0000
0301
0010
0100
,  // measure 45
1000
0010
0100
0001
0010
0000
1000
0010
,  // measure 46
0000
0001
0100
0000
0010
1000
0100
0001
,  // measure 47
0000
0100
1000
0010
0100
0001
0010
0200
,  // measure 48
0000
0000
1300
0000
0010
0000
0000
0100
0001
0000
0010
0000
0100
0000
1000
0000
,  // measure 49
0001
0010
1000
0010
0002
0000
0103
0000
,  // measure 50
0010
1000
0100
0001
0200
0000
1300
0000
,  // measure 51
0010
1000
0100
0010
0001
0100
0010
1000
,  // measure 52
0001
0000
0000
0010
0000
0000
0100
0000
1000
0000
0000
0010
0000
0000
0100
0000
,  // measure 53
0101
0000
0011
0000
0210
0010
0010
0310
,  // measure 54
0011
0000
0110
0000
1100
0000
1000
0020
,  // measure 55
0000
0230
0000
0301
0010
0000
1010
0000
,  // measure 56
0020
0000
0032
0000
0203
0000
0310
2000
,  // measure 57
0000
3002
0000
0013
0001
0000
1001
0000
,  // measure 58
1000
0010
0000
0000
0010
0100
0000
0000
0100
0001
0000
0000
0001
0010
0000
0000
,  // measure 59
0010
0100
0000
0000
0100
1000
0000
0000
1000
0010
0000
0000
0010
0000
0100
0000
,  // measure 60
0002
0000
0013
0200
0000
1300
0010
0000
,  // measure 61
0110
0000
0000
0000
0101
0000
0000
0100
0001
0000
0010
0000
0100
0000
1000
0000
,  // measure 62
1001
0000
0011
0000
1001
0000
1000
0020
,  // measure 63
0000
0230
0000
0301
0010
0000
0110
0000
,  // measure 64
0200
0000
2300
0000
3020
0000
1030
0200
,  // measure 65
0000
0320
0000
0031
0100
0000
0110
0000
,  // measure 66
0010
1000
0000
0000
1000
0001
0000
0000
0001
0010
0000
0000
0010
0100
0000
0000
,  // measure 67
0100
1000
0000
0000
1000
0010
0000
0000
0010
0100
0000
0000
0001
0000
0010
0000
,  // measure 68
0200
0000
1300
0020
0000
0130
0001
0000
,  // measure 69
1001
0000
0000
0000
1010
0000
0000
1000
0010
0000
0100
0000
0001
0000
1000
0000
,  // measure 70
1001
0000
0000
0000
;
