#TITLE:Keep it -秋葉工房mix-;
#SUBTITLE:;
#ARTIST:DJ Command feat. NAGISA;
#TITLETRANSLIT:Keep it -Akiba Koubou mix-;
#SUBTITLETRANSLIT:;
#ARTISTTRANSLIT:;
#CREDIT:;
#BANNER:Keep it (Akiba Koubou mix).png;
#BACKGROUND:Keep it (Akiba Koubou mix)-bg.png;
#LYRICSPATH:;
#CDTITLE:;
#MUSIC:Keep it -Akiba Koubou mix-.ogg;
#OFFSET:-1.418;
#SAMPLESTART:59.205;
#SAMPLELENGTH:17.220;
#SELECTABLE:YES;
#BPMS:0.000=166.000;
#STOPS:;
#BGCHANGES:;

//---------------dance-single - ----------------
#NOTES:
     dance-single:
     :
     Hard:
     8:
     0.625,0.609,0.347,0.274,0.123: // measure 1
0000
0000
0000
0000
,  // measure 2
0000
0000
0000
0000
,  // measure 3
0000
0000
0000
0000
,  // measure 4
0000
0000
0000
0000
,  // measure 5
0000
0000
0000
0000
,  // measure 6
0000
0000
0000
0000
,  // measure 7
0000
0000
0000
0000
,  // measure 8
0000
0000
0000
0000
,  // measure 9
2100
0001
0100
3001
,  // measure 10
1000
0010
0100
0001
1000
0100
0010
0001
,  // measure 11
2000
0000
3010
0200
0000
0301
2000
0000
,  // measure 12
3001
0100
0010
0000
1000
0000
0001
0100
,  // measure 13
0210
0310
2010
3001
,  // measure 14
1002
0103
0210
0310
,  // measure 15
2010
0000
3001
0000
1000
1000
0001
0001
,  // measure 16
1000
0010
0001
0010
1000
0100
0001
0100
,  // measure 17
1000
1000
0010
1000
1000
0001
1000
0100
,  // measure 18
1000
0000
1010
0000
0010
0100
0001
0000
,  // measure 19
0010
0001
0100
0001
0010
0100
1000
0100
,  // measure 20
0010
0000
0000
0010
0000
0000
0001
0000
0000
0001
0000
0000
1000
0000
0001
0000
,  // measure 21
0102
0000
1003
0001
0001
0100
0001
0010
,  // measure 22
0001
0000
0101
0000
0100
0010
1000
0000
,  // measure 23
0100
1000
0010
1000
0100
0010
0001
0100
,  // measure 24
0010
0000
0000
0010
0000
0000
1000
0000
0000
1000
0000
0000
0001
0000
0100
0000
,  // measure 25
0010
1000
0100
2000
0000
3002
0000
0103
,  // measure 26
0000
0010
0110
0000
0010
0000
1000
0100
,  // measure 27
0010
0000
0001
0100
0000
0001
0100
0010
,  // measure 28
1000
0100
0011
0000
0001
0100
1010
0000
,  // measure 29
1001
0001
0100
2000
0000
3200
0000
0301
,  // measure 30
0000
0000
0100
0000
0110
0000
0000
0000
0100
0000
0000
0001
0000
0000
0010
0000
,  // measure 31
0100
0000
0000
1000
0000
0000
0001
0000
0010
0000
0000
0001
0000
0000
0100
0000
,  // measure 32
0010
0000
1000
0000
0001
0100
0002
0000
0000
0000
1000
0000
1003
0010
1000
0000
,  // measure 33
0001
0100
0010
1000
0002
1000
0103
0000
,  // measure 34
0101
0000
0100
0010
2000
0100
3001
0000
,  // measure 35
1000
0001
0100
0020
0000
2030
0000
3100
,  // measure 36
1000
0000
1010
0000
0010
0010
0100
0100
,  // measure 37
0102
0000
0010
0010
0000
0100
0103
0000
,  // measure 38
2100
0000
0010
0010
0000
0100
3100
0000
,  // measure 39
1002
0000
0010
0010
0000
0100
0103
0000
,  // measure 40
1001
0000
0001
0100
0010
0010
0100
0100
,  // measure 41
0010
1000
0000
1010
0000
1100
0000
1001
,  // measure 42
0000
1000
0010
0000
0100
0001
0010
0001
,  // measure 43
1000
0100
0010
0002
0000
1000
1000
1003
,  // measure 44
0001
0000
0100
0000
0010
1000
0000
0010
0000
0100
0001
0000
1000
0000
0000
0000
,  // measure 45
0001
0010
0000
0110
0000
1100
0000
1010
,  // measure 46
0000
0110
0100
0000
0001
0001
1000
0000
,  // measure 47
0002
0000
0100
0203
0000
0010
0310
0000
,  // measure 48
0010
1000
0100
1000
0010
0100
0001
0100
,  // measure 49
0001
1000
0000
1001
0000
0011
0000
1001
,  // measure 50
0000
0001
0100
0000
0010
1000
0100
1000
,  // measure 51
0001
0100
1000
0100
0001
0010
1000
0010
,  // measure 52
0001
0000
0100
0000
0010
1000
0000
0010
0000
0100
0001
0000
0100
0000
0000
0000
,  // measure 53
0010
0100
0000
0110
0000
1010
0000
0101
,  // measure 54
0000
0110
0010
0000
1000
1000
0001
0000
,  // measure 55
2000
0000
0010
3020
0000
0100
0130
0000
,  // measure 56
0001
0010
0100
1000
0001
0001
1000
1000
,  // measure 57
0001
0100
1000
0100
0001
0100
1000
0100
,  // measure 58
0001
0010
1000
0010
0001
0010
1000
0010
,  // measure 59
0001
0100
0010
0100
0001
0010
0100
0010
,  // measure 60
0001
0000
1000
0000
0010
1000
0000
0100
0000
1000
0001
0000
0010
0000
0000
0000
,  // measure 61
0001
0010
1000
0010
0001
0010
1000
0010
,  // measure 62
0001
0100
1000
0100
0001
0100
1000
0100
,  // measure 63
0001
0010
0100
0010
0001
0100
0010
1000
,  // measure 64
0010
1000
0000
0010
0000
0100
0000
0001
0000
1000
0001
0000
0100
0000
0000
0000
,  // measure 65
0001
0001
0100
0001
0001
1000
0001
0010
,  // measure 66
0001
0000
0101
0000
0100
0010
1000
0000
,  // measure 67
0100
1000
0010
1000
0100
0010
0001
0010
,  // measure 68
0100
0000
0000
0100
0000
0000
1000
0000
0000
1000
0000
0000
0001
0000
1000
0000
,  // measure 69
2010
0000
3001
1000
1000
0010
1000
0100
,  // measure 70
1000
0000
1010
0000
0010
0100
0001
0000
,  // measure 71
0010
0001
0100
0001
0010
0100
1000
0010
,  // measure 72
0100
0000
0000
0100
0000
0000
0001
0000
0000
0001
0000
0000
1000
0000
0010
0000
,  // measure 73
0220
0000
0000
0000
,  // measure 74
0000
0000
0000
0000
,  // measure 75
0330
0000
0000
0000
;

//---------------dance-single - ----------------
#NOTES:
     dance-single:
     :
     Easy:
     5:
     0.338,0.329,0.055,0.064,0.000:
0000
0000
0000
0000
,
0000
0000
0000
0000
,
0000
0000
0000
0000
,
0000
0000
0000
0000
,
0000
0000
0000
0000
,
0000
0000
0000
0000
,
0000
0000
0000
0000
,
0000
0000
0000
0000
,
2000
0010
0010
0010
,
0100
0100
0100
3100
,
0002
0010
0010
0010
,
0100
0100
0100
0103
,
0001
0100
1000
0100
,
0001
0010
1000
0010
,
0001
0100
0010
1000
,
0001
0001
1000
1001
,
1000
0010
0100
0010
,
2000
0000
3001
0000
,
1000
0100
0001
0100
,
0010
0010
0100
0100
,
0001
0010
0100
0010
,
0002
0000
1003
0000
,
0001
0010
1000
0010
,
0001
0001
1000
1000
,
0001
0100
0010
0100
,
0001
0010
0100
0010
,
0001
0100
1000
0100
,
0010
0010
0100
0100
,
1000
0010
0100
0010
,
1000
0100
0010
0100
,
1000
0010
0001
0010
,
0100
0100
0010
0010
,
1000
0100
0011
0000
,
0001
0100
1010
0000
,
0001
0100
0010
1000
,
0002
0000
0100
0103
,
0001
0010
0001
0010
,
1000
0010
1000
0010
,
0001
0100
0001
0100
,
1000
0100
0010
0010
,
1000
0100
0001
0100
,
1000
0100
0001
0001
,
0100
1000
0100
0001
,
0100
1000
0001
0001
,
1000
0010
0001
0010
,
1000
0010
0001
0001
,
0010
1000
0010
0001
,
0010
0010
1000
1000
,
0001
0010
1000
0010
,
0001
0100
1000
0100
,
0010
1000
0100
0001
,
0100
0010
0001
0001
,
1000
0010
0100
1000
,
0100
0010
1000
0100
,
0001
0100
0010
0001
,
1000
1000
0001
0001
,
1000
1000
1000
1000
,
0010
0010
0010
0010
,
0100
0100
0100
0100
,
0001
0010
0100
1001
,
0001
0001
0001
0001
,
0010
0010
0010
0010
,
0100
0100
0100
0100
,
1000
0010
0100
1001
,
0001
0100
0010
0100
,
0002
0000
1003
0000
,
0001
0010
1000
0010
,
0100
0100
0010
0010
,
1000
0100
0010
0100
,
2000
0000
3001
0000
,
1000
0100
0001
0100
,
1000
1000
0001
0001
,
1001
0000
0000
0000
;

//---------------dance-single - ----------------
#NOTES:
     dance-single:
     :
     Medium:
     6:
     0.512,0.541,0.320,0.247,0.009:
0000
0000
0000
0000
,
0000
0000
0000
0000
,
0000
0000
0000
0000
,
0000
0000
0000
0000
,
0000
0000
0000
0000
,
0000
0000
0000
0000
,
0000
0000
0000
0000
,
0000
0000
0000
0000
,
2100
0001
0001
3001
,
1000
0010
1000
0000
0001
0010
0001
0000
,
2000
3010
0200
0301
,
0010
0100
0010
0000
0001
0000
1000
0001
,
2000
3010
0200
0301
,
2000
3100
0020
0031
,
2000
0000
0010
0000
3100
0000
1000
0001
,
1002
0023
0230
1300
,
0001
0001
0001
0000
1000
1000
1000
0000
,
0001
0011
1000
1010
,
0001
0010
0100
0000
1000
0010
0100
0000
,
0102
0013
2100
3010
,
1001
0000
0010
0010
0010
0000
0100
0100
,
0100
0101
0010
1100
,
1000
0010
0100
0000
0001
0010
0100
0000
,
2100
3010
0102
0013
,
0001
0010
0100
1000
,
0001
1000
0001
0000
0100
0000
1001
0000
,
0001
0010
0100
1000
,
0010
0010
0010
0000
0100
0100
0100
0000
,
0001
0010
1000
0010
,
0001
1000
0001
0000
0100
0000
0110
0000
,
1000
0100
0001
0100
,
1000
0001
1000
0001
1000
0000
0110
0000
,
1000
0000
0010
0000
0100
0100
0100
0000
,
0001
0000
0010
0000
0100
0100
0100
0000
,
1000
0001
1000
0001
0000
0010
0000
0200
,
0000
0000
1300
0000
0001
1000
0001
0000
,
0012
0100
1000
1003
,
2010
0100
0001
3001
,
1002
0010
0100
1003
,
0001
0100
0010
1000
0010
0100
0001
1000
,
0001
0010
0000
0100
0000
1000
0000
0002
,
0000
0000
1003
0000
0010
0100
0010
0000
,
1000
0100
1000
0100
0000
0010
0001
0010
,
0000
0100
1000
0000
0001
0000
1001
0000
,
1000
0010
0000
0100
0000
0001
0000
0100
,
0000
0010
1000
0000
0001
1000
0001
0000
,
0020
0000
0100
0100
0000
1000
1030
0000
,
0010
0001
0100
0000
0010
1000
0100
0000
,
1000
0100
0000
0010
0000
0001
0000
2000
,
0000
0000
3001
0000
0100
0010
0100
0000
,
0001
0010
0001
0010
0000
0100
1000
0100
,
0000
0010
0001
0000
1000
0000
1001
0000
,
0001
0100
0000
0010
0000
1000
0000
0010
,
0000
0100
0001
0000
1000
0001
1000
0000
,
0200
0000
0010
0010
0000
0001
0301
0000
,
0100
1000
0010
0000
0100
0001
0010
0000
,
0100
1000
0100
1000
0100
1000
0100
0000
,
0010
0001
0010
0001
0010
0001
0010
0000
,
0001
0100
0001
0100
0001
0100
0001
0000
,
1010
1010
0011
0011
,
1000
0100
1000
0100
1000
0100
1000
0000
,
0001
0010
0001
0010
0001
0010
0001
0000
,
1000
0010
1000
0010
1000
0010
1000
0000
,
0101
0101
1100
1100
,
0001
0001
0001
0000
1000
1000
1000
0000
,
0001
0011
1000
1010
,
0001
0010
0100
0000
1000
0010
0100
0000
,
0102
0013
2100
3010
,
1001
0000
0010
0010
0010
0000
0100
0100
,
0100
0101
0010
1100
,
1000
0010
0100
0000
0001
0010
0100
0000
,
1000
0000
0000
1000
0000
0000
0001
0000
0000
0001
0000
0000
0010
0000
0100
0000
,
2002
0000
0000
0000
,
0000
0000
0000
0000
,
3003
0000
0000
0000
;
