#TITLE:Heart & Soul;
#SUBTITLE:;
#ARTIST:玉置成実;
#TITLETRANSLIT:;
#SUBTITLETRANSLIT:;
#ARTISTTRANSLIT:Nami Tamaki;
#CREDIT:;
#BANNER:Heart & Soul-bn.png;
#BACKGROUND:Heart & Soul.png;
#LYRICSPATH:;
#CDTITLE:;
#MUSIC:Heart & Soul.mp3;
#OFFSET:-0.101;
#SAMPLESTART:38.625;
#SAMPLELENGTH:13.620;
#SELECTABLE:YES;
#BPMS:0.000=136.860;
#STOPS:;
#BGCHANGES:;

//---------------dance-single - ----------------
#NOTES:
     dance-single:
     :
     Hard:
     7:
     0.568,0.530,0.338,0.570,0.021:
0000
0000
0000
0000
,
0000
0000
0000
0000
,
0000
0000
0000
0000
,
1001
0101
2002
3003
,
1000
0100
0001
0100
1000
0000
0010
1000
,
0100
0010
0001
0000
1000
1000
0010
0000
,
1000
0100
0010
0001
0100
0000
0010
1000
,
0001
0010
0001
0000
1000
1000
0010
0000
,
1000
0100
0010
0001
1000
0010
0100
0001
,
2000
0000
3200
0000
0310
0010
0001
0000
,
0100
0010
1000
0000
0001
0000
1000
0010
,
0200
0000
0000
0000
0320
0000
0000
0000
1030
0000
0001
0000
0010
0001
0010
0000
,
0100
1000
0010
0000
0100
0001
1001
0000
,
1000
0100
0001
0100
1000
0010
1000
0100
,
0010
0001
0100
0000
0010
0010
0100
0000
,
0010
0100
0001
0010
1000
0000
0010
0001
,
0100
0010
1000
0000
0001
0001
0100
0000
,
0010
1000
0100
1000
0010
0100
0001
0010
,
2000
0000
3020
0000
0031
0001
0100
0000
,
0010
1000
0100
1000
0001
0010
1000
0010
,
0002
0000
0000
0000
0203
0000
0000
0000
0310
0000
1000
0000
0001
1000
0001
0000
,
1000
0010
0100
0000
0001
0010
0110
0000
,
1100
0000
1010
0000
1001
0000
1000
0002
,
0000
0023
0000
0230
0000
1000
1300
0100
,
0020
0000
0032
0000
1003
0010
0100
0001
,
2000
0000
3200
0000
0310
0001
0101
0000
,
0110
0000
1010
0000
0110
0000
0100
0002
,
0000
0023
0000
0230
0000
1000
1300
0100
,
0020
0000
0032
0000
1003
0010
0100
0001
,
1001
0000
0000
0000
1100
0000
0000
0000
1000
0000
0001
0000
1000
0001
1000
0000
,
1001
0000
0101
0000
1001
0000
0001
2000
,
0000
3200
0000
0320
0000
0001
0031
0010
,
0200
0000
2300
0000
3001
0100
0010
1000
,
0002
0000
0023
0000
0130
1000
1010
0000
,
0110
0000
0101
0000
0110
0000
0010
2000
,
0000
3200
0000
0320
0000
0001
0031
0010
,
0200
0000
2300
0000
3001
0100
0010
1000
,
1001
0000
0000
0000
0011
0000
0000
0000
0001
0000
1000
0000
0001
1000
0001
0000
,
2001
0000
3200
0000
0320
0000
0031
0200
,
0000
0320
0000
2030
0000
0001
3001
1000
,
1010
0000
1100
0000
1000
0100
0010
0001
,
0200
0000
0310
0000
1000
0001
1001
0000
,
1020
0000
0230
0000
0302
0000
0013
2000
,
0000
3020
0000
0032
0000
0100
0103
0001
,
0101
0000
0110
0000
0010
1000
0100
0010
,
0001
0100
0001
0010
0100
1000
0100
0010
,
0012
0000
0010
0000
0103
0000
1000
0010
,
0200
0000
0010
0000
1300
0000
0010
0100
,
0002
0000
1000
0000
0013
0000
1000
0010
,
0200
0000
0001
0000
0310
0000
0001
0100
,
0020
0000
1000
0000
0130
0000
1000
0001
,
0200
0000
0010
0000
1300
0000
0010
0100
,
0002
0000
0013
0000
0100
1000
0001
1001
;

//---------------dance-single - ----------------
#NOTES:
     dance-single:
     :
     Easy:
     3:
     0.282,0.280,0.137,0.000,0.000: // measure 1
0000
0000
0000
0000
,  // measure 2
0000
0000
0000
0000
,  // measure 3
0000
0000
0000
0000
,  // measure 4
1000
0001
1001
0000
,  // measure 5
1000
0010
0100
0001
,  // measure 6
0010
1000
0010
0000
,  // measure 7
0001
0100
0010
1000
,  // measure 8
0100
0001
0100
0000
,  // measure 9
1000
0010
0100
0001
,  // measure 10
0010
0001
1000
0000
,  // measure 11
0100
1000
0001
0010
,  // measure 12
1000
0010
0001
0100
,  // measure 13
0010
1000
0000
1001
,  // measure 14
1000
0100
0001
0100
,  // measure 15
1000
0010
0001
0000
,  // measure 16
0010
1000
0100
0010
,  // measure 17
0001
0100
0010
0000
,  // measure 18
1000
0001
0010
0001
,  // measure 19
1000
0100
1000
0000
,  // measure 20
0001
0010
1000
0010
,  // measure 21
0001
0100
0010
1000
,  // measure 22
0100
0010
0000
0110
,  // measure 23
0010
0001
1000
0010
,  // measure 24
1000
0100
0001
0000
,  // measure 25
0100
1000
0010
0100
,  // measure 26
0001
0010
1000
0000
,  // measure 27
0010
0001
0100
0010
,  // measure 28
1000
0100
0001
0000
,  // measure 29
0100
1000
0010
1000
,  // measure 30
0100
0010
0001
0011
,  // measure 31
0010
0100
1000
0010
,  // measure 32
1000
0001
0010
0000
,  // measure 33
1000
0010
0001
0100
,  // measure 34
0010
1000
0100
0000
,  // measure 35
0001
0100
1000
0010
,  // measure 36
0100
0001
0010
0000
,  // measure 37
1000
0010
0001
0100
,  // measure 38
0010
1000
0001
1001
,  // measure 39
1000
0010
1000
0000
,  // measure 40
0001
0010
0001
0000
,  // measure 41
1000
0100
0001
0100
,  // measure 42
1000
0010
0100
0000
,  // measure 43
0001
0010
0001
0000
,  // measure 44
1000
0010
1000
0000
,  // measure 45
0001
0010
0100
1000
,  // measure 46
0010
0100
0001
1000
,  // measure 47
1001
0000
1000
0010
,  // measure 48
1010
0000
0010
0100
,  // measure 49
0110
0000
0100
0001
,  // measure 50
0101
0000
0001
0010
,  // measure 51
0011
0000
0010
0100
,  // measure 52
0110
0000
0100
1000
,  // measure 53
1100
0000
1000
0010
,  // measure 54
0110
0000
0000
0000
;

//---------------dance-single - ----------------
#NOTES:
     dance-single:
     :
     Beginner:
     1:
     0.103,0.168,0.074,0.000,0.000: // measure 1
0000
0000
0000
0000
,  // measure 2
0000
0000
0000
0000
,  // measure 3
0000
0000
0000
0000
,  // measure 4
1000
0000
1000
0000
,  // measure 5
1000
0000
0000
0000
,  // measure 6
0001
0000
0000
0000
,  // measure 7
0010
0000
0000
0000
,  // measure 8
0001
0000
0000
0000
,  // measure 9
0100
0000
0000
0000
,  // measure 10
0010
0000
0000
0000
,  // measure 11
1000
0000
0000
0000
,  // measure 12
0100
0000
0100
0000
,  // measure 13
0000
0000
0010
0000
,  // measure 14
0010
0000
0000
0000
,  // measure 15
0001
0000
0000
0000
,  // measure 16
1000
0000
0000
0000
,  // measure 17
0100
0000
0000
0000
,  // measure 18
1000
0000
0000
0000
,  // measure 19
0010
0000
0000
0000
,  // measure 20
0100
0000
0000
0000
,  // measure 21
0001
0000
0001
0000
,  // measure 22
0000
0000
1000
0000
,  // measure 23
1000
0000
0000
0000
,  // measure 24
0010
0000
0000
0000
,  // measure 25
0100
0000
0000
0000
,  // measure 26
0001
0000
0001
0000
,  // measure 27
0001
0000
0000
0000
,  // measure 28
1000
0000
0000
0000
,  // measure 29
0100
0000
0000
0000
,  // measure 30
0010
0000
0010
0000
,  // measure 31
0010
0000
0000
0000
,  // measure 32
0001
0000
0000
0000
,  // measure 33
1000
0000
0000
0000
,  // measure 34
0100
0000
0100
0000
,  // measure 35
0100
0000
0000
0000
,  // measure 36
1000
0000
0000
0000
,  // measure 37
0010
0000
0000
0000
,  // measure 38
0100
0000
0100
0000
,  // measure 39
0100
0000
0000
0000
,  // measure 40
0001
0000
0000
0000
,  // measure 41
0010
0000
0000
0000
,  // measure 42
0001
0000
0001
0000
,  // measure 43
0001
0000
0000
0000
,  // measure 44
1000
0000
0000
0000
,  // measure 45
0100
0000
0000
0000
,  // measure 46
1000
0000
1000
0000
,  // measure 47
1000
0000
0000
0000
,  // measure 48
1001
0000
0000
0000
,  // measure 49
0110
0000
0000
0000
,  // measure 50
1001
0000
0000
0000
,  // measure 51
0110
0000
0000
0000
,  // measure 52
1001
0000
0000
0000
,  // measure 53
0110
0000
0000
1000
,  // measure 54
1001
0000
0000
0000
;

//---------------dance-single - ----------------
#NOTES:
     dance-single:
     :
     Medium:
     5:
     0.353,0.335,0.200,0.000,0.000: // measure 1
0000
0000
0000
0000
,  // measure 2
0000
0000
0000
0000
,  // measure 3
0000
0000
0000
0000
,  // measure 4
1001
1001
1001
0000
,  // measure 5
1000
0100
0010
0001
,  // measure 6
0100
0001
0100
0000
0010
0000
0000
0000
,  // measure 7
1000
0100
0001
0100
,  // measure 8
1000
0100
1000
0000
0100
0000
0000
0000
,  // measure 9
0010
0001
1000
0010
,  // measure 10
0100
0001
0101
0000
,  // measure 11
0100
0010
1000
0100
,  // measure 12
0010
0001
0101
0100
,  // measure 13
0010
1000
0010
0000
1000
0000
1001
0000
,  // measure 14
1000
0100
0001
0100
,  // measure 15
1000
0010
1000
0000
0010
0000
0000
0000
,  // measure 16
0100
0001
0010
1000
,  // measure 17
0010
0001
0010
0000
0001
0000
0000
0000
,  // measure 18
0100
0010
1000
0001
,  // measure 19
0010
0001
1001
0000
,  // measure 20
1000
0010
0100
0001
,  // measure 21
0010
0100
1100
0100
,  // measure 22
0010
0001
0010
0000
0001
0000
1001
0000
,  // measure 23
1000
0000
0010
0000
0100
0000
0001
0100
,  // measure 24
0000
0010
0000
1000
0000
0010
0100
0000
,  // measure 25
0001
0000
0010
0000
0100
0000
1000
0100
,  // measure 26
1000
0100
0010
0011
,  // measure 27
0001
0000
0100
0000
0010
0000
1000
0001
,  // measure 28
0000
0010
0000
0001
0000
1000
0100
0000
,  // measure 29
1000
0000
0001
0000
0010
0001
0010
0000
,  // measure 30
0001
0100
0010
0110
,  // measure 31
0010
0000
1000
0000
0001
0000
0010
0001
,  // measure 32
0000
1000
0000
0100
0000
1000
0001
0000
,  // measure 33
0010
0000
1000
0000
0010
0001
0010
0000
,  // measure 34
0001
0100
0010
0110
,  // measure 35
0010
0000
1000
0000
0100
0000
0001
0100
,  // measure 36
0000
1000
0000
0010
0000
0100
0001
0000
,  // measure 37
0010
0000
0001
0000
1000
0100
1000
0000
,  // measure 38
0001
1000
0010
1010
,  // measure 39
0010
0000
0100
0000
0101
0000
0000
0001
,  // measure 40
0000
0010
0000
0110
0000
0000
0100
0000
,  // measure 41
1000
0000
0010
0000
1000
0001
1000
0000
,  // measure 42
0001
0010
0001
0101
,  // measure 43
0100
0000
0010
0000
1010
0000
0000
0010
,  // measure 44
0000
0100
0000
0101
0000
0000
0001
0000
,  // measure 45
0010
0000
0100
0000
1000
0100
1000
0000
,  // measure 46
0100
0010
0001
1000
,  // measure 47
1001
0000
1000
0000
0010
0000
0100
0001
,  // measure 48
0100
0000
0010
0000
1000
0000
0001
0010
,  // measure 49
0001
0000
1000
0000
0100
0000
1000
0001
,  // measure 50
1000
0000
0010
0000
0100
0000
0001
0010
,  // measure 51
0001
0000
0100
0000
0010
0000
1000
0001
,  // measure 52
1000
0000
0010
0000
1000
0000
0100
1000
,  // measure 53
0100
0000
0010
0000
0001
1000
0010
0100
;
