#TITLE:HARMONY;
#SUBTITLE:;
#ARTIST:REGINA;
#TITLETRANSLIT:;
#SUBTITLETRANSLIT:;
#ARTISTTRANSLIT:;
#CREDIT:;
#BANNER:HARMONY bn.png;
#BACKGROUND:HARMONY bg.png;
#LYRICSPATH:;
#CDTITLE:;
#MUSIC:HARMONY.mp3;
#OFFSET:-0.120;
#SAMPLESTART:85.560;
#SAMPLELENGTH:17.220;
#SELECTABLE:YES;
#BPMS:0.000=160.000;
#STOPS:;
#BGCHANGES:;

//---------------dance-single - ----------------
#NOTES:
     dance-single:
     :
     Hard:
     8:
     0.593,0.547,0.167,0.627,0.100: // measure 1
0000
0000
0000
0000
,  // measure 2
0000
0000
0000
0000
,  // measure 3
0000
0000
0000
0000
,  // measure 4
0000
0000
0000
0000
0000
0000
0001
1001
,  // measure 5
1000
0000
0010
0200
0000
0001
0000
0310
,  // measure 6
2000
0010
0000
0001
0000
0100
0000
3001
,  // measure 7
0020
0100
0000
1000
0000
0100
0000
0031
,  // measure 8
0200
1000
0000
0010
0000
0301
0100
1000
,  // measure 9
1001
0000
0000
0000
,  // measure 10
1000
0000
0000
0010
0000
0000
0100
0000
0001
0000
0000
0010
0000
0000
1000
0000
,  // measure 11
0010
0000
0000
0001
0000
0000
0100
0000
0010
0000
1000
0000
0100
0000
0001
0000
,  // measure 12
0100
0000
0000
1000
0000
0000
0010
0000
1000
0000
0000
0100
0000
0000
0001
0000
,  // measure 13
0100
0000
0000
1000
0000
0000
0010
0000
0100
0000
0001
0000
0010
0000
1000
0000
,  // measure 14
0010
0000
0000
0001
0000
0000
0100
0000
0010
0000
0000
0010
0000
0000
1000
0000
,  // measure 15
0100
0000
0000
0001
0000
0000
0100
0000
1000
0000
0010
0000
0100
0000
0001
0000
,  // measure 16
1000
0000
0000
0100
0000
0000
0010
0000
0000
0001
0000
0000
0010
0000
0100
0000
,  // measure 17
1000
0000
0000
0010
0000
0000
0100
0000
0000
0100
0002
0000
0000
0000
0003
0000
,  // measure 18
1000
0010
0100
0002
0000
0023
0000
0130
,  // measure 19
1000
0000
0010
0100
0001
0010
0001
2000
,  // measure 20
0000
3200
0000
0302
0000
0203
0000
1300
,  // measure 21
0010
0200
0000
0302
0000
0023
0000
0031
,  // measure 22
1000
0100
0001
0200
0000
2300
0000
3010
,  // measure 23
0100
0000
0110
0000
0100
0001
0010
0002
,  // measure 24
0000
2003
0000
3200
0000
0320
0000
0031
,  // measure 25
1000
0020
0000
0230
0000
0301
0010
0000
,  // measure 26
0110
0000
0100
2000
0000
3010
0100
0002
,  // measure 27
0000
2003
0000
3200
0000
0320
0000
0032
,  // measure 28
0000
0203
0000
0320
0000
2030
0000
3001
,  // measure 29
1000
0100
0001
0100
1000
0010
0000
1000
,  // measure 30
0100
0001
0100
2000
0000
3010
0100
0000
,  // measure 31
0001
0010
1000
0020
0000
0031
0100
0000
,  // measure 32
0020
0000
1030
0200
0000
0320
0000
0031
,  // measure 33
0000
0011
0000
0110
0000
1100
0000
0000
,  // measure 34
1010
0000
0010
0100
0000
0001
0010
1000
,  // measure 35
0020
0000
0031
0100
0010
1000
0100
0001
,  // measure 36
0100
0000
1000
0010
0100
0000
0001
0020
,  // measure 37
0000
1030
0010
0001
0100
0010
1000
0100
,  // measure 38
0001
0100
1000
0020
0000
0230
0000
0302
,  // measure 39
0000
0023
0000
0230
0000
2300
0000
3010
,  // measure 40
0100
0000
0110
0000
0100
0001
0010
0100
,  // measure 41
1000
0010
0001
0010
1000
0100
0001
0100
,  // measure 42
1000
0000
0010
0100
0000
0001
0010
0100
,  // measure 43
2000
0000
3001
0010
0001
0100
0010
1000
,  // measure 44
0100
0000
0001
0100
1000
0000
0100
0020
,  // measure 45
0000
0031
0100
0010
1000
0001
0010
1000
,  // measure 46
0010
0001
0100
0020
0000
2030
0000
3200
,  // measure 47
0000
0320
0000
0032
0000
1003
0010
0100
,  // measure 48
0001
1000
0010
0100
0001
0010
0001
0100
,  // measure 49
0000
0110
0000
1010
0000
2200
0000
3300
,  // measure 50
1000
0000
0000
0010
0000
0000
0100
0000
0001
0000
0000
0010
0000
0000
1000
0000
,  // measure 51
0010
0000
0000
0001
0000
0000
0100
0000
0010
0000
1000
0000
0100
0000
0001
0000
,  // measure 52
0100
0000
0000
1000
0000
0000
0010
0000
1000
0000
0000
0100
0000
0000
0001
0000
,  // measure 53
0100
0000
0000
1000
0000
0000
0010
0000
0100
0000
0001
0000
0010
0000
1000
0000
,  // measure 54
0010
0000
0000
0001
0000
0000
0100
0000
0010
0000
0000
0010
0000
0000
1000
0000
,  // measure 55
0100
0000
0000
0001
0000
0000
0100
0000
1000
0000
0010
0000
0100
0000
0001
0000
,  // measure 56
1000
0000
0000
0100
0000
0000
0010
0000
0000
0001
0000
0000
0010
0000
0100
0000
,  // measure 57
1000
1100
0000
0110
0000
0011
0000
0000
,  // measure 58
0101
0000
0100
0010
0000
1000
0100
0001
,  // measure 59
0200
0000
1300
0010
0100
0001
0010
1000
,  // measure 60
0010
0000
0001
0100
0010
0000
1000
0200
,  // measure 61
0000
0301
0100
1000
0010
0100
0001
0010
,  // measure 62
1000
0010
0001
0200
0000
0320
0000
2030
,  // measure 63
0000
3200
0000
0320
0000
0032
0000
0103
,  // measure 64
0010
0000
0110
0000
0010
1000
0100
0010
,  // measure 65
0001
0100
1000
0100
0001
0010
1000
0010
,  // measure 66
0001
0000
0100
0010
0000
1000
0100
0010
,  // measure 67
0002
0000
1003
0100
1000
0010
0100
0001
,  // measure 68
0010
0000
1000
0010
0001
0000
0010
0200
,  // measure 69
0000
1300
0010
0100
0001
1000
0100
0001
,  // measure 70
0100
1000
0010
0200
0000
0302
0000
0023
,  // measure 71
0000
0230
0000
2300
0000
3001
0100
0010
,  // measure 72
1000
0010
0100
0002
0000
0013
0100
2002
,  // measure 73
0000
0000
3003
2200
0000
0000
0000
3300
,  // measure 74
0022
0000
0000
0000
,  // measure 75
0000
0000
0000
0000
,  // measure 76
0000
0000
0000
0000
,  // measure 77
0000
0000
0000
0000
0000
0000
0000
0000
0000
0000
0000
0000
0000
0000
0000
0033
;

//---------------dance-single - ----------------
#NOTES:
     dance-single:
     :
     Beginner:
     1:
     0.118,0.161,0.084,0.017,0.000: // measure 1
0000
0000
0000
0000
,  // measure 2
0000
0000
0000
0000
,  // measure 3
0000
0000
0000
0000
,  // measure 4
0000
0000
0000
0000
,  // measure 5
1000
0000
0000
0000
,  // measure 6
0001
0000
0000
0000
,  // measure 7
0010
0000
0000
0000
,  // measure 8
0001
0000
0000
0000
,  // measure 9
1001
0000
0000
0000
,  // measure 10
1000
0000
0000
0000
,  // measure 11
0001
0000
0001
0000
,  // measure 12
0001
0000
0000
0000
,  // measure 13
1000
0000
1000
0000
,  // measure 14
1000
0000
0000
0000
,  // measure 15
0010
0000
0010
0000
,  // measure 16
0010
0000
0000
0000
,  // measure 17
0100
0000
0100
0000
,  // measure 18
0100
0000
0000
0000
,  // measure 19
0010
0000
0000
0000
,  // measure 20
1000
0000
1000
0000
,  // measure 21
1000
0000
0000
0000
,  // measure 22
0001
0000
0000
0000
,  // measure 23
0010
0000
0000
0000
,  // measure 24
0001
0000
0001
0000
,  // measure 25
0001
0000
0000
0000
,  // measure 26
1000
0000
0000
0000
,  // measure 27
0010
0000
0000
0000
,  // measure 28
0100
0000
0100
0000
,  // measure 29
0100
0000
0000
0000
,  // measure 30
0001
0000
0000
0000
,  // measure 31
0010
0000
0000
0000
,  // measure 32
0100
0000
0000
0000
,  // measure 33
1000
0000
1000
0000
,  // measure 34
1000
0000
0000
0000
,  // measure 35
1001
0000
0000
0000
,  // measure 36
0001
0000
0000
0000
,  // measure 37
1001
0000
0000
0000
,  // measure 38
1000
0000
0000
0000
,  // measure 39
0010
0000
0010
0000
,  // measure 40
0010
0000
0000
0000
,  // measure 41
0100
0000
0000
0000
,  // measure 42
0001
0000
0000
0000
,  // measure 43
1001
0000
0000
0000
,  // measure 44
1000
0000
0000
0000
,  // measure 45
1001
0000
0000
0000
,  // measure 46
0001
0000
0000
0000
,  // measure 47
0010
0000
0010
0000
,  // measure 48
0010
0000
0000
0000
,  // measure 49
0100
0000
0000
0000
,  // measure 50
1000
0000
0000
0000
,  // measure 51
0010
0000
0010
0000
,  // measure 52
0010
0000
0000
0000
,  // measure 53
0100
0000
0100
0000
,  // measure 54
0100
0000
0000
0000
,  // measure 55
0001
0000
0001
0000
,  // measure 56
0001
0000
0000
0000
,  // measure 57
1000
0000
1000
0000
,  // measure 58
1000
0000
0000
0000
,  // measure 59
1001
0000
0000
0000
,  // measure 60
0001
0000
0000
0000
,  // measure 61
1001
0000
0000
0000
,  // measure 62
1000
0000
0000
0000
,  // measure 63
0010
0000
0010
0000
,  // measure 64
0010
0000
0000
0000
,  // measure 65
0100
0000
0000
0000
,  // measure 66
0001
0000
0000
0000
,  // measure 67
1001
0000
0000
0000
,  // measure 68
1000
0000
0000
0000
,  // measure 69
1001
0000
0000
0000
,  // measure 70
0001
0000
0000
0000
,  // measure 71
0010
0000
0010
0000
,  // measure 72
0010
0000
0000
0000
,  // measure 73
0100
0000
0100
0000
,  // measure 74
0220
0000
0000
0000
,  // measure 75
0000
0000
0000
0000
,  // measure 76
0000
0000
0000
0000
,  // measure 77
0000
0000
0000
0000
0000
0000
0000
0000
0000
0000
0000
0000
0000
0000
0000
0330
;

//---------------dance-single - ----------------
#NOTES:
     dance-single:
     :
     Easy:
     3:
     0.251,0.290,0.084,0.042,0.000: // measure 1
0000
0000
0000
0000
,  // measure 2
0000
0000
0000
0000
,  // measure 3
0000
0000
0000
0000
,  // measure 4
0000
0000
0000
0000
,  // measure 5
1000
0100
1000
0000
,  // measure 6
0001
0000
0000
0000
,  // measure 7
0010
0000
0000
0000
,  // measure 8
0001
0000
0000
1000
,  // measure 9
1001
0000
0000
0000
,  // measure 10
0001
0000
0010
0000
,  // measure 11
0100
0000
1000
0100
,  // measure 12
1000
0000
0100
0000
,  // measure 13
0010
0000
0001
0100
,  // measure 14
0001
0000
0100
0000
,  // measure 15
0010
0000
1000
0010
,  // measure 16
1000
0000
0010
0000
,  // measure 17
1000
0000
1001
0000
,  // measure 18
0001
0010
0001
0100
,  // measure 19
0001
0000
0010
0000
,  // measure 20
0100
1000
0100
0010
,  // measure 21
0002
0000
0103
0000
,  // measure 22
0010
1000
0001
0010
,  // measure 23
0001
0000
1000
0000
,  // measure 24
0010
0100
0001
0100
,  // measure 25
0020
0000
0130
0000
,  // measure 26
0010
0000
0110
0000
,  // measure 27
0010
1000
0001
0000
,  // measure 28
0010
0001
1000
0100
,  // measure 29
2000
0000
3100
0000
,  // measure 30
0010
0001
0100
0000
,  // measure 31
0010
1000
0100
0000
,  // measure 32
0010
0001
1000
0010
,  // measure 33
1000
0001
0010
0000
,  // measure 34
0001
0100
0010
0000
,  // measure 35
0110
0000
0010
1000
,  // measure 36
0100
1000
0010
0000
,  // measure 37
0100
0001
0010
0000
,  // measure 38
0001
1000
0010
0000
,  // measure 39
1000
0001
0010
0001
,  // measure 40
1000
0000
0100
0000
,  // measure 41
1000
0001
0010
0000
,  // measure 42
0001
0100
0010
0000
,  // measure 43
0110
0000
0010
1000
,  // measure 44
0100
1000
0010
0000
,  // measure 45
0100
0010
0100
0000
,  // measure 46
0001
0010
0100
1000
,  // measure 47
0010
0100
0001
1000
,  // measure 48
0001
0000
1000
0000
,  // measure 49
0010
0010
0010
0110
,  // measure 50
0100
0000
0001
0000
,  // measure 51
1000
0000
0010
1000
,  // measure 52
0010
0000
1000
0000
,  // measure 53
0001
0000
0100
1000
,  // measure 54
0100
0000
1000
0000
,  // measure 55
0001
0000
0010
0001
,  // measure 56
0010
0000
0001
0000
,  // measure 57
0010
0000
0110
0000
,  // measure 58
1000
0010
0100
0000
,  // measure 59
0110
0000
0100
0001
,  // measure 60
0010
0001
0100
0000
,  // measure 61
0010
1000
0100
0000
,  // measure 62
1000
0001
0100
0000
,  // measure 63
0001
1000
0100
1000
,  // measure 64
0001
0000
0010
0000
,  // measure 65
0001
1000
0100
0000
,  // measure 66
1000
0010
0100
0000
,  // measure 67
0110
0000
0100
0001
,  // measure 68
0010
0001
0100
0000
,  // measure 69
0010
0100
0010
0000
,  // measure 70
1000
0100
0010
0001
,  // measure 71
0100
0010
1000
0001
,  // measure 72
1000
0010
0100
0001
,  // measure 73
1000
0000
0001
0000
,  // measure 74
2002
0000
0000
0000
,  // measure 75
0000
0000
0000
0000
,  // measure 76
0000
0000
0000
0000
,  // measure 77
0000
0000
0000
0000
0000
0000
0000
0000
0000
0000
0000
0000
0000
0000
0000
3003
;

//---------------dance-single - ----------------
#NOTES:
     dance-single:
     :
     Medium:
     5:
     0.423,0.451,0.184,0.176,0.000: // measure 1
0000
0000
0000
0000
,  // measure 2
0000
0000
0000
0000
,  // measure 3
0000
0000
0000
0000
,  // measure 4
0000
0000
0000
0000
,  // measure 5
1000
0000
0001
0020
0000
0000
0031
0000
,  // measure 6
0020
0100
0100
0130
,  // measure 7
2000
0001
0001
3001
,  // measure 8
2000
0010
3010
1000
,  // measure 9
1001
0000
0000
0000
,  // measure 10
0001
0000
0010
0000
0100
1000
0100
0000
,  // measure 11
0010
0000
0001
0000
1000
0000
0010
0100
,  // measure 12
0010
0000
0100
0000
0001
0010
0001
0000
,  // measure 13
1000
0000
0010
0000
0100
0000
0001
1000
,  // measure 14
0001
0000
1000
0000
0100
1000
0100
0000
,  // measure 15
0010
0000
0001
0000
0100
0000
0010
1000
,  // measure 16
0010
0100
0001
1000
,  // measure 17
0100
0010
0000
0100
0000
0110
0000
0000
,  // measure 18
0100
0000
0010
0001
0000
0010
0000
0100
,  // measure 19
1000
0000
0010
0000
0100
0000
0001
0100
,  // measure 20
0000
0010
0000
1000
0000
0001
0000
0010
,  // measure 21
0000
0002
0000
2003
0000
3020
0000
1030
,  // measure 22
0001
0000
0010
0100
0000
1000
0000
0010
,  // measure 23
1000
0000
0001
0000
0010
0000
0001
1000
,  // measure 24
0000
0100
0000
1000
0000
0100
0000
0010
,  // measure 25
0001
0010
0000
0001
0000
0010
0100
0000
,  // measure 26
1000
0000
0000
1001
0000
1000
0010
1000
,  // measure 27
0000
0001
0000
0010
0000
1000
0000
0010
,  // measure 28
0000
0001
0000
0100
0000
0010
0000
2000
,  // measure 29
0000
3200
0000
2300
0000
3002
0000
0003
,  // measure 30
1000
0000
0100
1000
0000
0100
0000
0000
,  // measure 31
0010
0000
0001
0010
0000
0001
0000
0000
,  // measure 32
0100
0000
0010
1000
0000
0001
0000
0010
,  // measure 33
0000
0001
0000
1000
0000
0010
0000
0000
,  // measure 34
1000
0000
0010
0100
0000
0001
0100
0000
,  // measure 35
0010
0110
0010
1000
,  // measure 36
0100
0000
0010
0001
0010
0000
0100
1000
,  // measure 37
0000
0010
0100
0000
0001
0000
0101
0000
,  // measure 38
0100
0000
0010
1000
0000
0100
0000
0010
,  // measure 39
0000
0001
0000
1000
0000
0010
0000
0100
,  // measure 40
0001
0000
0101
0000
0100
0000
0010
1000
,  // measure 41
0020
2030
3200
0320
,  // measure 42
0031
0000
1000
0001
0000
1000
0010
0000
,  // measure 43
1000
0000
1010
0000
0010
0100
0010
0000
,  // measure 44
0100
0000
0001
0010
0001
0000
0100
0010
,  // measure 45
0000
1000
0001
0000
1000
0000
1001
0000
,  // measure 46
1000
0000
0010
0100
0000
0001
0000
0010
,  // measure 47
0100
0000
1000
0000
0001
0000
0010
0001
,  // measure 48
0010
0000
0100
0000
1000
0000
0010
0100
,  // measure 49
0000
0101
0000
0011
0000
0110
0000
0000
,  // measure 50
1000
0000
0100
0000
0010
0001
0010
0000
,  // measure 51
0100
0000
1000
0000
0001
0000
0100
0010
,  // measure 52
0100
0000
0010
0000
1000
0100
1000
0000
,  // measure 53
0001
0000
0100
0000
0010
0000
1000
0001
,  // measure 54
1000
0000
0001
0000
0010
0001
0010
0000
,  // measure 55
0100
0000
1000
0000
0010
0000
0100
0001
,  // measure 56
0100
0010
1000
0001
,  // measure 57
0010
0011
0000
0110
0000
1100
0000
0000
,  // measure 58
1000
0000
0010
0100
0000
0001
0100
0000
,  // measure 59
0010
0110
0010
1000
,  // measure 60
0100
0000
0010
0001
0010
0000
0100
1000
,  // measure 61
0000
0010
0100
0000
0001
0000
0101
0000
,  // measure 62
0100
0000
0010
1000
0000
0100
0000
0010
,  // measure 63
0000
0001
0000
1000
0000
0010
0000
0100
,  // measure 64
0001
0000
0101
0000
0100
0000
0010
1000
,  // measure 65
0020
2030
3200
0320
,  // measure 66
0031
0000
1000
0001
0000
1000
0010
0000
,  // measure 67
1000
0000
1010
0000
0010
0100
0010
0000
,  // measure 68
0100
0000
0001
0010
0001
0000
0100
0010
,  // measure 69
0000
1000
0001
0000
1000
0000
1001
0000
,  // measure 70
1000
0000
0010
0100
0000
0001
0000
0010
,  // measure 71
0100
0000
1000
0000
0001
0000
0010
0001
,  // measure 72
0010
0000
0100
1000
0000
0001
0000
1001
,  // measure 73
0000
0000
0000
1100
0000
0000
0000
0000
,  // measure 74
2002
0000
0000
0000
,  // measure 75
0000
0000
0000
0000
,  // measure 76
0000
0000
0000
0000
,  // measure 77
0000
0000
0000
0000
0000
0000
0000
0000
0000
0000
0000
0000
0000
0000
0000
3003
;
