#TITLE:Go!Go!Carlito!;
#SUBTITLE:;
#ARTIST:Carlito;
#TITLETRANSLIT:;
#SUBTITLETRANSLIT:;
#ARTISTTRANSLIT:;
#CREDIT:;
#BANNER:Go!Go!Carlito! BN.png;
#BACKGROUND:Go!Go!Carlito! BG.png;
#LYRICSPATH:;
#CDTITLE:;
#MUSIC:Go!Go!Carlito!.mp3;
#OFFSET:-2.200;
#SAMPLESTART:74.140;
#SAMPLELENGTH:15.620;
#SELECTABLE:YES;
#BPMS:0.000=120.000;
#STOPS:;
#BGCHANGES:;

//---------------dance-single - ----------------
#NOTES:
     dance-single:
     :
     Hard:
     8:
     0.544,0.586,0.227,0.118,0.552:
0000
0000
0000
0000
,
0000
0000
0000
0000
,
0000
0000
0000
0000
,
0000
0000
0000
0000
0000
0000
0000
0000
0000
0000
0000
0000
0000
1000
0001
0000
,
1000
0000
0010
1000
0010
0000
0100
0000
0001
0100
0001
0000
1000
0010
1000
0000
,
1010
0000
0000
0000
0000
0000
0000
0000
0000
1001
0000
0000
0000
0000
0000
0000
0000
0000
0101
0000
0000
0000
0000
0000
0001
0000
0000
0000
0100
0000
0000
0000
0001
0000
0000
0000
1000
0000
0000
0000
0010
0000
0000
0000
1000
0000
0000
0000
,
0001
0000
0010
0001
0010
0000
0001
0000
0100
0010
0100
0000
0010
1000
0010
0000
,
1010
0000
0000
1001
0000
0000
0012
0000
0000
0000
0010
0000
0013
0000
0000
0000
,
0100
0000
1000
0001
0000
0000
0010
0000
0001
0000
0100
0000
0010
0000
1000
0000
,
0100
0000
0000
0100
0001
0000
0100
0000
1000
0000
0000
1000
0010
0000
0100
0000
,
0001
0000
0010
0001
0000
0000
1000
0000
0100
0000
0001
0000
0100
0000
1000
0000
,
0010
0000
1000
0001
0000
0010
0000
0000
0001
0000
1000
0100
0000
1000
0000
0000
,
0001
0000
0010
0100
0000
0000
1000
0000
0100
0000
0010
0000
0001
0000
0000
0001
,
0100
0000
0000
0100
0010
0000
1000
0000
0010
0000
0100
0001
0000
0010
0000
0000
,
0001
0000
0100
0010
0000
0000
1000
0000
0100
0000
0001
0000
0100
0000
1000
0000
,
0000
0010
0100
0001
1001
0000
1010
0000
,
1000
0000
0010
0100
0000
0001
0000
0010
0000
0001
0000
1000
0000
0100
1000
0000
,
0010
0000
0001
0010
0000
1000
0000
0100
0000
0010
0000
0000
0001
0000
0100
0000
,
0010
0000
1000
0001
0000
0010
0000
0001
0000
1000
0000
0100
0000
0001
0000
0100
,
1000
0000
0010
0000
0000
0000
0100
0000
0001
0010
0001
0010
0001
0000
0100
0000
,
0010
0000
1000
0001
0000
0010
0000
0001
0000
1000
0000
0100
0000
0001
0000
0100
,
0000
1000
0000
0010
0000
0100
0000
0001
0000
0010
0001
0000
1001
0000
0000
0000
,
1000
0000
0010
0100
0000
0001
0000
0100
0000
0010
0000
1000
0000
0100
0000
0010
,
0000
0001
0000
0010
0100
0000
1000
0000
1001
0000
0000
1000
0001
0000
1000
0000
,
0010
0000
0100
0001
0000
0100
0000
0010
0000
1000
0000
0100
0000
0010
0000
0001
,
0000
1000
0000
0001
0010
0000
0001
0000
2000
0000
0000
0000
3001
1000
0001
0000
,
1001
0000
0000
0000
1000
0000
0100
0000
0001
0000
0000
0100
0000
0000
1000
0000
,
0010
0000
0000
0000
0100
0000
0001
0000
0010
0000
0000
0001
0000
0000
1000
0000
,
0100
0000
0000
0001
0000
0000
0100
0000
1000
0000
0000
0010
0000
0000
0100
0000
,
0001
0000
0000
0000
1000
0000
0010
0000
0100
0000
0000
0001
0000
0000
1000
0000
,
0100
0000
0000
0000
1000
0000
0010
0000
0100
0000
0000
0001
0000
0000
1000
0000
,
0100
0000
0000
0000
1000
0000
0010
0000
0100
0000
0000
0001
0000
0000
0010
0000
,
1000
0000
0000
0010
0000
0000
0001
0000
0100
0000
0000
0010
0000
0000
1000
0000
,
0100
0000
2000
0000
0000
0000
3001
0000
0010
0000
0002
0000
0000
0103
0010
0000
,
1000
0000
0100
1000
0100
0000
1000
0000
0010
0100
0010
0000
0100
0001
0100
0000
,
0101
0000
0000
0110
0000
0000
2020
0000
0000
0000
3030
0000
0202
0000
0303
0000
,
0001
0000
0010
0100
0000
0000
1000
0000
0010
0000
0100
0000
0001
0000
1000
0000
,
0100
0000
0000
0100
1000
0000
0001
0000
0010
0000
0000
0010
0001
0000
1000
0000
,
0100
0000
1000
0010
0000
0000
0100
0000
0001
0000
0010
0000
1000
0000
0010
0000
,
0001
0000
1000
0001
0000
1000
0000
0000
0100
0000
0010
0100
0000
0010
0000
0000
,
0100
0000
1000
0010
0000
0000
0100
0000
0001
0000
0010
0000
1000
0000
0000
1000
,
0010
0000
0000
0010
0001
0000
0100
0000
0010
0000
1000
0100
0000
1000
0000
0000
,
0001
0000
0010
0001
0000
0000
1000
0000
0100
0000
1000
0000
0001
0000
0100
0000
,
0000
0010
1000
0100
1100
0000
0011
0000
,
1001
0000
0000
0001
0000
0000
1000
0000
0000
0000
0100
0000
1000
0000
0000
0000
,
1001
0000
0000
0000
0001
0000
0010
0000
0000
0000
0010
0000
0100
0000
0000
0000
0100
0000
1000
0000
0000
0001
0000
0000
,
1000
0000
0010
1000
0010
0000
0100
0000
0001
0010
0001
0000
1000
0010
1000
0000
,
1001
0000
0000
0101
0000
0000
2020
0000
0000
0000
3030
0000
2200
0000
3300
0000
,
0100
0000
0010
0001
0000
0000
0010
0000
0100
0000
1000
0000
0001
0000
0100
0000
,
0010
0000
0000
0010
1000
0000
0100
0000
0010
0000
0000
0010
0001
0000
0100
0000
,
0001
0000
0010
1000
0000
0000
0010
0000
0001
0000
0100
0000
0010
0000
1000
0000
,
0100
0000
1000
0001
0000
0010
0000
0000
0001
0000
0100
0010
0000
1000
0000
0000
,
0100
0000
1000
0001
0000
0000
0010
0000
1000
0000
0010
0000
0001
0000
0000
0001
,
0100
0000
0000
0100
0010
0000
1000
0000
0100
0000
1000
0001
0000
0010
0000
0000
,
0001
0000
1000
0100
0000
0000
1000
0000
0010
0000
0100
0000
0001
0000
0010
0000
,
0000
1000
0010
0001
0101
0000
1010
0000
,
1001
0000
0000
0001
0000
0000
0100
0000
0010
0000
1000
0000
0100
0000
0000
0000
,
0100
0000
0000
0100
1000
0000
0000
1000
0010
0000
0100
0000
2002
0000
0000
0000
,
3003
0000
0000
0000
;

//---------------dance-single - ----------------
#NOTES:
     dance-single:
     :
     Easy:
     3:
     0.267,0.316,0.185,0.126,0.000:
0000
0000
0000
0000
,
0000
0000
0000
0000
,
0000
0000
0000
0000
,
0000
0000
0000
0000
,
1000
0100
0010
0001
,
0011
0101
0220
0330
,
0010
1000
0001
0010
,
0011
0101
0220
0330
,
0010
1000
0100
0001
,
0000
0100
0000
1000
,
0010
0100
0001
0010
,
0001
0001
1000
1000
,
0100
1000
0010
0100
,
0001
0010
0100
1000
,
0001
0010
0001
1000
,
0000
0001
1001
1001
,
1000
0010
1000
0001
,
0010
0001
1000
0000
,
0100
1000
0001
0010
,
0002
0000
1000
1003
,
0001
1000
0100
0001
,
0100
1000
0010
0000
,
0100
0001
0010
0001
,
1000
0100
0001
0000
,
0100
1000
0010
0100
,
0001
0010
0001
0000
,
1001
0000
1000
0100
,
0001
0000
0001
0100
,
1000
0010
0100
0001
,
0010
0000
0001
0100
,
0010
0000
1000
0100
,
0010
0000
0001
1000
,
0010
1000
0001
0010
,
0002
0003
2000
3000
,
0001
0010
0100
1000
,
1001
0110
2002
3003
,
1000
0010
0100
0001
,
0000
0010
0000
0100
,
1000
0010
1000
0001
,
0010
0010
0100
0100
,
1000
0010
1000
0100
,
0010
0001
1000
0001
,
0010
0001
1000
0010
,
0000
1000
1100
0011
,
2002
0000
0000
3003
,
1000
0100
0010
0001
,
1000
0010
0100
0001
,
0101
0110
2020
3030
,
1000
0010
0100
0001
,
0000
0010
0000
0100
,
1000
0010
0001
0010
,
1000
1000
0001
0001
,
0010
0001
0100
0010
,
1000
0100
0010
0001
,
1000
0010
1000
0001
,
0000
0010
0011
0101
,
0220
0000
0000
0330
,
0010
1000
0001
1001
;

//---------------dance-single - ----------------
#NOTES:
     dance-single:
     :
     Medium:
     5:
     0.390,0.365,0.244,0.076,0.000:
0000
0000
0000
0000
,
0000
0000
0000
0000
,
0000
0000
0000
0000
,
0000
0000
0000
0000
,
1000
0100
1000
0000
0001
0100
0001
0000
,
1001
0000
0000
2002
0000
0000
3003
0000
,
1000
0010
1000
0000
0001
0010
0001
0000
,
0101
0000
0000
2020
0000
0000
3030
0000
,
1000
0010
1000
0000
0001
0010
0001
0000
,
1000
1100
0001
0101
,
1000
0010
1000
0000
0001
0010
0001
0000
,
1000
1000
1000
0000
0001
0001
0001
0000
,
1000
0010
0100
0000
0001
0010
0100
0000
,
1000
0010
1000
0010
0100
0001
0100
0000
,
0001
0010
0001
0000
1000
0010
1000
0000
,
0001
0010
0001
1000
0001
0000
1001
0000
,
1000
0100
0010
0001
,
1000
0010
1000
0001
0010
0001
0000
0000
,
1000
0100
0001
0100
,
1000
0010
0000
0000
0100
0001
0100
0000
,
0010
1000
0001
0010
,
0001
1000
0010
1000
0001
0010
0000
0000
,
0001
0100
0001
0000
1000
0010
1000
0000
,
0100
1000
0010
1000
0001
0000
1001
0000
,
1000
0100
1000
0000
0001
0010
0001
0000
,
0100
0010
1000
0001
0010
0000
0001
1000
,
0001
0000
1001
0000
1000
0000
0100
0010
,
0100
0000
0110
0000
0010
0000
0001
0100
,
0001
0000
1001
0000
1000
0000
0010
0100
,
0010
0000
0110
0000
0100
0000
0001
0010
,
0001
0000
0011
0000
0001
0000
1000
0100
,
1000
0000
1100
0000
0100
0000
0010
0001
,
0010
0000
0001
0100
0001
0000
0100
0010
,
0100
0010
0000
1000
0010
1000
0000
0010
,
0110
0000
0000
0101
0000
0000
0001
0000
,
0011
0000
0000
2200
0000
0000
3300
0000
,
0001
0100
0001
0000
1000
0100
1000
0000
,
0001
0011
1000
1010
,
0001
0100
0001
0000
1000
0100
1000
0000
,
0001
0001
0001
0000
1000
1000
1000
0000
,
0001
0100
0010
0000
1000
0100
0010
0000
,
0001
0100
0001
0100
0010
1000
0010
0000
,
1000
0100
1000
0000
0001
0100
0001
0000
,
1000
0100
1000
0001
1000
0000
1001
0000
,
2010
0010
0100
3001
,
1000
0100
1000
0000
0001
0100
0001
0000
,
1000
0010
1000
0000
0001
0010
0001
0000
,
1001
0000
0000
2020
0000
0000
3030
0000
,
1000
0100
1000
0000
0001
0010
0001
0000
,
1000
1010
0010
0110
,
0100
0001
0010
0000
0100
1000
0001
0000
,
0010
0010
0010
0000
0100
0100
0100
0000
,
1000
0010
0100
0000
0001
0010
0100
0000
,
1000
0001
1000
0001
0010
0100
0010
0000
,
0100
1000
0010
0000
0100
0001
0010
0000
,
0001
1000
0010
1000
0001
0000
1001
0000
,
1010
0010
0100
0001
,
1000
0100
0010
0001
1000
0000
1001
0000
;

//---------------dance-single - ----------------
#NOTES:
     dance-single:
     :
     Beginner:
     1:
     0.115,0.146,0.051,0.000,0.000: // measure 1
0000
0000
0000
0000
,  // measure 2
0000
0000
0000
0000
,  // measure 3
0000
0000
0000
0000
,  // measure 4
0000
0000
0000
0000
,  // measure 5
1000
0000
1000
0000
,  // measure 6
1001
0000
0000
0000
,  // measure 7
0001
0000
0001
0000
,  // measure 8
1001
0000
0000
0000
,  // measure 9
1000
0000
1000
0000
,  // measure 10
0010
0000
0010
0000
,  // measure 11
0100
0000
0100
0000
,  // measure 12
0001
0000
0001
0000
,  // measure 13
0010
0000
0010
0000
,  // measure 14
0100
0000
0100
0000
,  // measure 15
1000
0000
1000
0000
,  // measure 16
0001
0000
0001
0000
,  // measure 17
1000
0000
0000
0000
,  // measure 18
0010
0000
0010
0000
,  // measure 19
0010
0000
0000
0000
,  // measure 20
0100
0000
0100
0000
,  // measure 21
0100
0000
0000
0000
,  // measure 22
0001
0000
0001
0000
,  // measure 23
0001
0000
0000
0000
,  // measure 24
1000
0000
1000
0000
,  // measure 25
1000
0000
0000
0000
,  // measure 26
0100
0000
0100
0000
,  // measure 27
0100
0000
0000
0000
,  // measure 28
0010
0000
0000
0000
,  // measure 29
0001
0000
0001
0000
,  // measure 30
0001
0000
0000
0000
,  // measure 31
1000
0000
0000
0000
,  // measure 32
0010
0000
0000
0000
,  // measure 33
0100
0000
0100
0000
,  // measure 34
0100
0000
0000
0000
,  // measure 35
0001
0000
0001
0000
,  // measure 36
1001
0000
0000
0000
,  // measure 37
1000
0000
1000
0000
,  // measure 38
0010
0000
0010
0000
,  // measure 39
0100
0000
0100
0000
,  // measure 40
0001
0000
0001
0000
,  // measure 41
1000
0000
1000
0000
,  // measure 42
0100
0000
0100
0000
,  // measure 43
0001
0000
0001
0000
,  // measure 44
0100
0000
0100
0000
,  // measure 45
1000
0000
0000
0000
,  // measure 46
0010
0000
0010
0000
,  // measure 47
0010
0000
0100
0000
,  // measure 48
0110
0000
0000
0000
,  // measure 49
0010
0000
0010
0000
,  // measure 50
1000
0000
1000
0000
,  // measure 51
0001
0000
0001
0000
,  // measure 52
0010
0000
0010
0000
,  // measure 53
0001
0000
0001
0000
,  // measure 54
1000
0000
1000
0000
,  // measure 55
0100
0000
0100
0000
,  // measure 56
1000
0000
1000
0000
,  // measure 57
1001
0000
0000
0000
,  // measure 58
0000
0000
0000
0110
;
