#TITLE:Fortune;
#SUBTITLE:;
#ARTIST:玉置成実;
#TITLETRANSLIT:;
#SUBTITLETRANSLIT:;
#ARTISTTRANSLIT:Nami Tamaki;
#CREDIT:;
#BANNER:Fortune bn.png;
#BACKGROUND:Fortune bg.png;
#LYRICSPATH:;
#CDTITLE:;
#MUSIC:Fortune.mp3;
#OFFSET:-0.060;
#SAMPLESTART:56.000;
#SAMPLELENGTH:15.620;
#SELECTABLE:YES;
#BPMS:0.000=137.130;
#STOPS:;
#BGCHANGES:;

//---------------dance-single - ----------------
#NOTES:
     dance-single:
     :
     Hard:
     7:
     0.518,0.538,0.078,0.470,0.186:
0000
0000
0000
0000
,
0000
0000
0000
0000
,
0000
0000
0000
0000
,
2000
0000
3200
0000
0320
0000
0031
0100
,
0020
1000
0130
1000
,
0002
0000
0100
0000
1003
0010
0100
0000
,
0020
1000
0100
1030
,
0010
0000
1000
0000
0000
0100
0000
0000
0010
0000
0001
0000
1000
0000
0010
0000
,
0100
0000
0000
0001
0000
0000
0010
0000
0000
0000
1000
0000
0010
0000
0001
0000
,
0100
0000
0000
0010
0000
0000
2000
0000
0000
0100
0000
0000
3100
0000
0000
0000
,
1000
0000
0000
0010
0000
0000
0001
0000
0010
0000
1000
0000
0100
0000
0010
0000
,
0000
0000
0001
0000
1000
0000
0000
0000
0010
0100
0000
0000
0110
0000
0100
0000
,
0001
0000
0010
0200
0000
1300
0010
1000
,
0001
0000
0010
0000
0001
0000
1000
0001
0000
1000
0000
0000
1001
0000
0000
0000
,
1000
0000
0010
0000
0100
0000
0001
0200
0000
0000
0310
0000
1000
0000
0001
0000
,
0010
0000
0001
0000
1000
0000
0100
1000
0100
0000
0010
0000
0001
0000
1000
0000
,
0010
0000
0000
0100
0000
0000
0001
0000
0000
0000
0010
0000
1000
0000
0010
0000
,
0001
0000
0000
0100
0000
0000
0020
0000
1000
0000
0000
1000
0000
0000
1030
0000
,
0010
0000
0000
0100
0000
0000
0001
0000
0010
0000
1000
0000
0010
0000
0001
0000
,
0000
0000
1000
0000
0010
0000
0000
0000
0100
0001
0000
0000
0101
0000
0100
0000
,
0010
0000
1000
0002
0000
1003
0010
0100
,
0001
0000
0100
0000
0010
0000
1000
0001
0000
1000
0000
0000
1100
0000
0000
0000
,
0100
0000
0010
0000
0001
0000
0010
0100
0000
0000
1000
0000
0010
0000
0100
0000
,
0001
0000
1000
0000
0100
0000
1000
0000
0001
0000
0010
0000
0001
0000
1000
0001
,
2000
0000
0010
0000
3100
1000
0010
0100
,
0002
0023
0230
2300
,
3020
0000
0100
0000
0031
0010
1000
0100
,
0010
0000
0000
0001
0000
0000
1000
0000
0010
0000
0100
0000
0000
0001
0000
0000
,
1001
0000
1000
0000
0010
0000
1000
0002
0000
0000
0010
0000
0013
0000
0100
0000
,
1000
0000
0010
0200
0000
0302
0000
0013
,
0100
1000
0001
0010
1000
0010
0001
1000
,
0020
0000
0000
0000
0000
0000
0000
0000
0130
0000
0001
0000
1000
0001
1000
0000
,
0010
0000
0000
1000
0000
0000
0100
0000
0001
0000
0000
0100
0000
0000
1000
0000
,
0010
0000
0100
0001
0020
0000
0031
1000
,
0100
0000
0000
0010
0000
0000
0001
0000
0100
0000
0000
0010
0000
0000
1000
0000
,
0001
0010
2000
0000
3020
0000
0032
0000
,
0103
0000
0000
0010
0000
0000
1000
0000
0100
0000
0000
1000
0000
0000
0001
0000
,
0010
0000
1000
0010
0000
0001
0100
0010
,
2000
0000
0010
0000
0100
0000
3001
1001
,
0000
0000
1000
0000
0010
0000
1010
0000
0000
0000
0010
0100
0000
0100
0001
0000
,
0010
0000
0000
0100
0000
0000
1000
0000
0010
0000
0000
1000
0000
0000
0100
0000
,
0010
0000
0001
0200
0000
0320
0000
1030
,
0002
0000
0100
0000
1003
0010
1000
0100
,
0000
0010
0002
0000
2003
0000
3020
0000
,
0130
0000
0000
0001
0000
0000
0010
0000
1000
0000
0000
0010
0000
0000
0001
0000
,
0100
0000
0010
1000
0000
0100
0010
0001
,
0020
0000
0000
0032
0000
0000
0203
0000
,
0310
0000
1000
0000
0001
1000
0001
0000
1000
0000
0010
0000
0100
0000
0001
0100
,
0002
0010
0100
1003
,
1000
0020
0230
0302
,
2003
0100
0010
3001
,
2000
0000
3200
0000
0320
0000
0031
0100
,
0020
1000
0130
1000
,
0002
0000
0100
0000
1003
0010
0100
0000
,
0020
1000
0100
1030
,
0010
0000
1000
0000
0000
0100
0000
0000
0010
0000
0001
0000
1000
0000
0010
0000
,
2002
0000
0000
0000
,
0000
0000
0000
3003
;

//---------------dance-single - ----------------
#NOTES:
     dance-single:
     :
     Beginner:
     1:
     0.099,0.110,0.029,0.000,0.000: // measure 1
0000
0000
0000
0000
,  // measure 2
0000
0000
0000
0000
,  // measure 3
0000
0000
0000
0000
,  // measure 4
1000
0000
1000
0000
,  // measure 5
1000
0000
0000
0000
,  // measure 6
0001
0000
0000
0000
,  // measure 7
0010
0000
0000
0000
,  // measure 8
0100
0000
0000
0000
,  // measure 9
1000
0000
0000
0000
,  // measure 10
0010
0000
0000
0000
,  // measure 11
0100
0000
0100
0000
,  // measure 12
0100
0000
0000
0000
,  // measure 13
0001
0000
0000
0000
,  // measure 14
0010
0000
0000
0000
,  // measure 15
1000
0000
0000
0000
,  // measure 16
0001
0000
0001
0000
,  // measure 17
0001
0000
0000
0000
,  // measure 18
1000
0000
0000
0000
,  // measure 19
0100
0000
0100
0000
,  // measure 20
0100
0000
0000
0000
,  // measure 21
0010
0000
0000
0000
,  // measure 22
0001
0000
0000
0000
,  // measure 23
1000
0000
0000
0000
,  // measure 24
0010
0000
0010
0000
,  // measure 25
0010
0000
0000
0000
,  // measure 26
0100
0000
0000
0000
,  // measure 27
0001
0000
0000
0000
,  // measure 28
1000
0000
0000
0000
,  // measure 29
0100
0000
0000
0000
,  // measure 30
0010
0000
0010
0000
,  // measure 31
0010
0000
0000
0000
,  // measure 32
0001
0000
0000
0000
,  // measure 33
1000
0000
1000
0000
,  // measure 34
1000
0000
0000
0000
,  // measure 35
0010
0000
0010
0000
,  // measure 36
0010
0000
0000
0000
,  // measure 37
0100
0000
0100
0000
,  // measure 38
0100
0000
0000
0000
,  // measure 39
0001
0000
0000
0000
,  // measure 40
1001
0000
0000
0000
,  // measure 41
1000
0000
1000
0000
,  // measure 42
1000
0000
0000
0000
,  // measure 43
0010
0000
0010
0000
,  // measure 44
0010
0000
0000
0000
,  // measure 45
0100
0000
0100
0000
,  // measure 46
0100
0000
0000
0000
,  // measure 47
0001
0000
0000
0000
,  // measure 48
1001
0000
0000
0000
,  // measure 49
1000
0000
0000
0000
,  // measure 50
0010
0000
0010
0000
,  // measure 51
0010
0000
0000
0000
,  // measure 52
0100
0000
0100
0000
,  // measure 53
0100
0000
0000
0000
,  // measure 54
0001
0000
0000
0000
,  // measure 55
1000
0000
0000
0000
,  // measure 56
0010
0000
0000
0000
,  // measure 57
1001
0000
0000
0000
;

//---------------dance-single - ----------------
#NOTES:
     dance-single:
     :
     Easy:
     3:
     0.235,0.247,0.010,0.157,0.000: // measure 1
0000
0000
0000
0000
,  // measure 2
0000
0000
0000
0000
,  // measure 3
0000
0000
0000
0000
,  // measure 4
1000
0001
0010
0001
,  // measure 5
2000
0000
3000
0010
,  // measure 6
0200
0000
0300
0001
,  // measure 7
0020
0000
0000
0000
,  // measure 8
0230
0000
0000
0000
,  // measure 9
1300
0001
0010
0001
,  // measure 10
1000
0010
1000
0000
,  // measure 11
0001
0010
0100
1000
,  // measure 12
0010
0100
0000
0001
,  // measure 13
0010
0001
1000
0000
,  // measure 14
0100
1000
0001
0000
,  // measure 15
0010
0001
0100
0010
,  // measure 16
1000
0100
0001
0000
,  // measure 17
0100
1000
0010
1000
,  // measure 18
0100
0010
0001
0000
,  // measure 19
1000
0010
1000
0001
,  // measure 20
0010
0001
0000
0100
,  // measure 21
0010
1000
0100
0000
,  // measure 22
0010
0001
0100
0000
,  // measure 23
0010
1000
0001
0010
,  // measure 24
0001
1000
0000
0010
,  // measure 25
2000
0000
3001
0010
,  // measure 26
0001
0100
0010
1000
,  // measure 27
0200
0000
0310
0001
,  // measure 28
1000
0010
0100
0000
,  // measure 29
0001
0010
0100
0000
,  // measure 30
1000
0010
1000
0001
,  // measure 31
0020
0000
0000
0000
,  // measure 32
0230
0000
0000
0000
,  // measure 33
1300
0001
0010
0001
,  // measure 34
1000
0010
1000
0000
,  // measure 35
0001
0010
0100
1000
,  // measure 36
0010
0100
0001
0000
,  // measure 37
1000
0010
0100
0001
,  // measure 38
1000
0000
0100
0010
,  // measure 39
0002
0000
0000
0000
,  // measure 40
2003
0000
0000
0000
,  // measure 41
3010
0100
0001
0100
,  // measure 42
0010
1000
0100
0010
,  // measure 43
0001
0000
1000
0010
,  // measure 44
1000
0001
0010
0000
,  // measure 45
0001
0100
0010
1000
,  // measure 46
0100
0000
0001
0100
,  // measure 47
2000
0000
0000
0000
,  // measure 48
3002
0000
0000
0000
,  // measure 49
1003
0000
0010
0000
,  // measure 50
1000
0001
0010
0001
,  // measure 51
1000
0000
0010
0000
,  // measure 52
1000
0001
0010
0100
,  // measure 53
2000
0000
3000
0010
,  // measure 54
0200
0000
0300
0001
,  // measure 55
0020
0000
0000
0000
,  // measure 56
0230
0000
0000
0300
,  // measure 57
1001
0000
0000
0000
;

//---------------dance-single - ----------------
#NOTES:
     dance-single:
     :
     Medium:
     5:
     0.358,0.384,0.088,0.216,0.000: // measure 1
0000
0000
0000
0000
,  // measure 2
0000
0000
0000
0000
,  // measure 3
0000
0000
0000
0000
,  // measure 4
2000
3200
0320
0032
,  // measure 5
0203
0010
0310
1000
,  // measure 6
0002
1000
1003
0001
,  // measure 7
2000
0010
0100
3001
,  // measure 8
0002
0010
0100
1003
,  // measure 9
0001
0000
1000
0000
0010
0000
0100
0001
,  // measure 10
0100
0010
1000
0000
,  // measure 11
0001
0000
0010
0000
0001
0100
0001
0000
,  // measure 12
0100
0010
0000
1000
,  // measure 13
0100
0000
0010
0000
0001
0000
1000
0010
,  // measure 14
1000
0001
0010
0000
,  // measure 15
0100
1000
0001
0010
,  // measure 16
0001
0100
0001
0000
1000
0000
1001
0000
,  // measure 17
1000
0000
0010
0000
1000
0000
0001
0010
,  // measure 18
0001
1000
0010
0000
,  // measure 19
0100
0000
0001
0000
0010
0001
0010
0000
,  // measure 20
0100
1000
0000
0001
,  // measure 21
0010
0000
0100
0000
1000
0000
0010
0100
,  // measure 22
0010
0100
0001
0000
,  // measure 23
1000
0000
0100
0000
0010
0000
0001
1000
,  // measure 24
0001
0000
1000
0000
0010
0100
0010
0000
,  // measure 25
0110
0000
0100
0000
0001
0000
0010
0100
,  // measure 26
0010
0100
1000
0010
,  // measure 27
1000
0000
0001
0000
0010
0000
0001
0100
,  // measure 28
0001
0100
0010
1000
,  // measure 29
1001
0000
1000
0000
0010
0000
1000
0100
,  // measure 30
1000
0000
0100
0000
0010
0000
0001
0010
,  // measure 31
0001
0100
0010
1000
,  // measure 32
2002
0000
0000
3003
,  // measure 33
1000
0000
0001
0000
0010
0000
0001
0100
,  // measure 34
0001
0100
0010
0100
,  // measure 35
0010
0000
1000
0000
0100
0000
1000
0100
,  // measure 36
1000
0100
0010
0011
,  // measure 37
0001
0000
0100
0000
0010
0000
1000
0001
,  // measure 38
1000
0000
0010
0000
1000
0000
0100
1000
,  // measure 39
0100
0010
0001
1000
,  // measure 40
1010
0000
0101
0000
,  // measure 41
0001
0000
0010
0000
0100
0000
1000
0001
,  // measure 42
1000
0000
0010
0000
0100
0000
0001
0100
,  // measure 43
0001
0100
0010
1000
,  // measure 44
0100
1000
0100
0000
0010
0000
0001
0000
,  // measure 45
1000
0000
0010
0000
1000
0000
0001
0010
,  // measure 46
0001
0000
1000
0000
0010
0000
0100
0001
,  // measure 47
0100
0000
0000
0010
0000
0000
1000
0000
,  // measure 48
0001
0010
0001
0000
1000
0010
1000
0000
,  // measure 49
1001
0001
0010
0100
,  // measure 50
1000
0020
2030
3002
,  // measure 51
0203
0310
1000
0001
,  // measure 52
2000
3200
0320
0032
,  // measure 53
0203
0010
0310
1000
,  // measure 54
0002
1000
1003
0001
,  // measure 55
2000
0010
0100
3001
,  // measure 56
0002
0010
0100
1003
,  // measure 57
1001
0000
0000
0000
;
