#TITLE:DIAVOLO;
#SUBTITLE:;
#ARTIST:DOKYOU KYOUDAI;
#TITLETRANSLIT:;
#SUBTITLETRANSLIT:;
#ARTISTTRANSLIT:;
#CREDIT:;
#BANNER:DIAVOLO.png;
#BACKGROUND:DIAVOLO-bg.png;
#LYRICSPATH:;
#CDTITLE:;
#MUSIC:DIAVOLO.mp3;
#OFFSET:-0.095;
#SAMPLESTART:18.045;
#SAMPLELENGTH:12.000;
#SELECTABLE:YES;
#BPMS:0.000=160.000;
#STOPS:;
#BGCHANGES:;

//---------------dance-single - ----------------
#NOTES:
     dance-single:
     :
     Challenge:
     10:
     1.000,1.000,1.000,0.573,1.000: // measure 1
0000
0000
0000
0000
,  // measure 2
0000
0000
0000
0000
,  // measure 3
0000
0000
0000
0000
,  // measure 4
0000
0000
0000
0000
,  // measure 5
2001
0000
0000
0000
3001
0100
0010
1000
1020
0000
0000
1000
1030
0010
0100
0001
,  // measure 6
0102
0000
0000
0000
1003
0010
0100
0001
0210
0000
0000
0010
0310
1000
0100
1000
,  // measure 7
1002
0000
0000
0100
0103
0010
1000
0001
0102
0000
0000
0100
0103
0001
0100
0010
,  // measure 8
1010
0000
0000
1010
0000
0000
0101
0000
0000
0101
0000
0000
1001
0000
0000
0100
0010
0100
0010
0000
0000
1000
0001
1000
,  // measure 9
0001
0000
1000
0010
1000
0100
1000
0001
0010
0001
0100
0010
1000
0010
0100
0000
,  // measure 10
0101
0000
0001
0010
0100
1000
0001
0100
0010
1000
1001
0000
0102
0000
1003
0000
,  // measure 11
1001
0000
1000
0010
0100
0010
1000
0100
0010
0100
1000
0010
0100
0001
1000
0000
,  // measure 12
1010
0000
0010
0100
0001
0010
0001
0100
0010
1000
1010
0000
2100
0000
3001
0000
,  // measure 13
0102
0000
1003
0000
0001
0100
0010
1000
0200
0000
1300
0010
0010
1000
0100
0010
,  // measure 14
0002
0000
0103
0000
0001
0010
0100
1000
0200
0000
0310
0100
0100
1000
0010
0100
,  // measure 15
0002
0000
1003
0010
0010
1000
0100
0010
0002
0000
1003
0001
0001
0100
0010
1000
,  // measure 16
0002
0000
0103
0010
0010
0100
0010
1000
0100
0001
0100
1000
0010
0001
0010
1000
,  // measure 17
1100
0000
0100
0010
0100
0010
0001
0010
0001
0010
0001
0100
0001
0100
0010
0100
,  // measure 18
0010
0100
0010
1000
0010
1000
0100
1000
0100
1000
0001
1000
0001
1000
0001
0100
,  // measure 19
0110
0000
0010
1000
0100
1000
0001
0010
0011
0000
0001
0100
0010
1000
0100
1000
,  // measure 20
0101
0000
0000
0100
0000
0000
0110
0000
0000
0000
0000
0000
1010
0000
0000
1000
0000
0000
1001
0000
0000
0000
0000
0000
0101
0000
0000
0001
0000
0000
1001
0000
0000
0000
0000
0000
1001
0000
0000
0001
0000
0000
1000
0000
0100
0000
0010
0000
,  // measure 21
0002
0000
0000
2003
3020
0230
0302
0000
,  // measure 22
0023
0000
0000
0230
2300
3020
2030
3100
,  // measure 23
0010
0001
0010
0100
1100
0100
0010
0001
0100
0010
1000
0010
0110
0100
0001
0010
,  // measure 24
0100
0000
0000
1000
0000
0000
0001
0000
0000
0010
0000
0000
0011
0000
0000
0001
0000
0000
0100
0000
0000
0010
0000
0000
1010
0000
0000
0000
0000
0000
0101
0000
0000
0000
0000
0000
0001
0000
0100
0000
0001
0000
1000
0000
0100
0000
1000
0000
,  // measure 25
0001
0100
0010
1000
0001
0100
0010
1000
0001
0010
0100
1000
0001
0010
0100
1000
,  // measure 26
0001
0100
0010
1000
0001
0010
0100
1000
0001
0100
0010
1000
0001
0010
0100
1000
,  // measure 27
0001
0100
1000
0100
0001
0010
1000
0010
0001
0100
0010
0100
0001
0010
0100
0010
,  // measure 28
0001
0000
0000
0100
0000
0000
0010
0000
0000
1000
0000
0000
0100
0000
0000
1000
0000
0000
0001
0000
0000
0010
0000
0000
0011
0000
0000
0000
0000
0000
0000
0000
0101
0000
0000
0000
0110
0000
0000
0000
1010
0000
0000
0000
1001
0000
0000
0000
,  // measure 29
1000
0100
0010
0200
0000
1300
0100
0010
0001
0200
0000
0301
,  // measure 30
0100
0010
1000
0001
0000
1000
0020
0000
0000
0130
0000
0000
,  // measure 31
0010
1000
0100
0001
0000
0010
0001
0100
1000
0010
0000
1000
,  // measure 32
1100
1100
1100
0011
0011
0011
1001
0000
0110
0000
1001
0000
,  // measure 33
1000
0010
1000
0000
0010
0000
0100
0000
0000
0000
0100
0000
0001
0000
0010
0000
1000
0000
0001
0000
0100
0000
1000
0000
,  // measure 34
0001
0100
0001
0000
0100
0000
0010
0000
0000
0000
0010
0000
1000
0000
0010
0000
0001
0000
1000
0000
0100
0000
0001
0000
,  // measure 35
1100
1100
1100
0011
0011
0011
0101
0101
0101
1010
1010
1010
,  // measure 36
0101
0000
1010
0000
1100
0000
0011
0000
0101
0000
0110
0000
2020
0000
0000
0000
3030
0000
1000
0001
1000
0001
1000
0001
,  // measure 37
0100
0000
0000
0010
1000
0010
1000
0000
0000
0100
1000
0100
1000
0000
0000
0001
1000
0001
1000
0000
0000
0001
0010
0001
,  // measure 38
0010
0000
0000
0001
0100
0001
0100
0000
0000
0001
1000
0001
1000
0000
0000
0010
0100
0010
0100
0000
0000
0001
1000
0001
,  // measure 39
2000
0000
0000
3001
0000
0000
1000
0010
1000
0001
0010
0001
2000
0000
0000
3001
0000
0000
0100
0001
0100
0010
0100
0010
,  // measure 40
2000
0000
0000
3100
0000
0000
0010
0001
0010
0001
0100
0001
0100
0010
0100
0010
1000
0010
1000
0100
1000
0001
1000
0001
,  // measure 41
1000
0010
0100
0010
0000
0000
1000
0100
1000
0001
0100
0001
1000
0010
1000
0001
0010
0001
1000
0100
1000
0001
0000
0000
,  // measure 42
0100
0001
0100
0010
0000
0000
1000
0010
1000
0001
0010
0001
0100
0001
0100
0010
0100
0010
1000
0010
1000
0100
1000
0100
,  // measure 43
0010
0001
0100
0002
0000
0000
1003
0000
0000
0001
0100
0010
1000
0100
0010
0200
0000
0000
1300
0010
0100
0001
0000
0000
,  // measure 44
1000
0100
0010
0002
0000
0000
1003
0000
0000
0001
0100
1000
0001
0010
1000
0001
0100
1000
0001
0010
1000
0001
0010
1000
,  // measure 45
1002
0000
1003
0000
0001
0100
1000
0100
0001
0010
1000
0010
0011
0001
0100
0010
,  // measure 46
2010
0000
0000
0000
0000
0000
3001
0000
0000
0000
0000
0000
1000
0000
0000
0010
0000
0000
0100
0000
0000
0001
0000
0000
0010
0000
0000
0001
0000
0000
0100
0000
0000
0010
0000
0000
1010
0000
0000
1000
0000
0000
0001
0000
1000
0000
0001
0000
,  // measure 47
0102
0000
1003
0000
0001
0100
0010
1000
0001
0010
0100
1000
0001
0010
1000
0010
,  // measure 48
0001
0000
0000
0100
0000
0000
1000
0000
0000
0100
0000
0000
0001
0000
0000
0010
0000
0000
0100
0000
0000
1000
0000
0000
0101
0000
0000
0000
0000
0000
1010
0000
0000
0000
0000
0000
1001
0000
0000
0000
0000
0000
1000
0000
0010
0000
0100
0000
,  // measure 49
2001
0000
3001
0000
1000
0010
0001
0010
1000
0100
0001
0100
1100
1000
0010
0100
,  // measure 50
0102
0000
0000
0000
0000
0000
1003
0000
0000
0000
0000
0000
0001
0000
0000
0100
0000
0000
0010
0000
0000
1000
0000
0000
0100
0000
0000
1000
0000
0000
0010
0000
0000
0100
0000
0000
0101
0000
0000
0001
0000
0000
1000
0000
0001
0000
1000
0000
,  // measure 51
2010
0000
3001
0000
1000
0010
0100
0001
1000
0100
0010
0001
1000
0100
0001
0100
,  // measure 52
1000
0010
0001
0010
1000
0100
0010
0001
1001
0000
2000
3100
0002
0103
2000
3010
,  // measure 53
0002
0013
2000
3100
0020
0031
2000
3001
0200
0310
2000
3001
0020
0031
0200
0310
,  // measure 54
2000
3100
0020
0031
2000
3100
0002
0103
1000
0000
1010
0000
0110
0000
0101
0000
,  // measure 55
0011
0110
1100
1001
0011
0101
0110
1010
,  // measure 56
1001
0000
0000
0101
0000
0000
0110
0000
0000
1010
0000
0000
1000
0100
0010
0001
0010
0100
1000
0100
0010
0001
0000
0000
,  // measure 57
1000
0000
0000
0010
0000
0000
1000
0000
0000
0010
0000
0000
0100
0000
0000
0001
0000
0000
0100
0000
0000
0001
0000
0000
1000
0000
0010
0000
0100
0000
0001
0000
0100
0000
0010
0000
1000
0000
0010
0000
0100
0000
0001
0000
0000
0000
0000
0000
,  // measure 58
1000
0001
1000
0001
0010
0001
0100
0001
0100
0010
0000
0000
0100
0001
1000
0010
0100
0001
1000
0010
0100
0001
0000
0000
,  // measure 59
1000
0000
0000
0100
0000
0000
1000
0000
0000
0100
0000
0000
0010
0000
0000
0001
0000
0000
0010
0000
0000
0001
0000
0000
0010
0000
0100
0000
1000
0000
0001
0000
0010
0000
0100
0000
1000
0000
0001
0000
0010
0000
0100
0000
0000
0000
0000
0000
,  // measure 60
1000
0000
0010
0000
1000
0000
0001
0000
0100
0000
0001
0000
1000
0000
0100
0000
1000
0000
0001
0000
0000
0000
0000
0000
1000
0000
0000
0010
0000
0000
0001
0000
0000
0010
0000
0000
1000
0000
0000
0100
0000
0000
0001
0000
0000
0100
0000
0000
,  // measure 61
2000
0000
0000
0000
0000
0000
3010
0000
0000
0000
0000
0000
1010
0000
0000
0000
0000
0000
0110
0000
0000
0000
0000
0000
0100
0000
0000
0001
0000
0000
0010
0000
0000
0001
0000
0000
0100
0000
0000
0010
0000
0000
1000
0000
0010
0000
0100
0000
,  // measure 62
0002
1003
1100
0110
0012
1003
2010
3100
,  // measure 63
0102
0013
2100
3010
1100
1100
0011
0011
,  // measure 64
0001
1000
0001
1000
0001
1000
0001
1000
0001
1000
0001
1000
0001
0100
0010
1000
0010
0100
0001
0100
0010
1000
0000
0000
,  // measure 65
0001
0010
0100
1000
0100
0010
0001
0010
0100
1000
0000
0000
0001
0100
0010
1000
0010
0100
0001
0100
0010
1000
0000
0000
,  // measure 66
0110
0000
0000
0010
0000
0000
0100
0000
0000
0001
0000
0000
1001
0000
0000
1000
0000
0000
0010
0000
0000
0000
0000
0000
1000
0000
0010
0000
0100
0000
0001
0000
0100
0000
0010
0000
1000
0000
0010
0000
0100
0000
0001
0000
0000
0000
0000
0000
,  // measure 67
1000
0100
0010
0001
0010
0100
1000
0100
0010
0001
0000
0000
0100
0010
1000
0010
0100
0001
0100
0010
1000
0001
0000
0000
,  // measure 68
1001
0000
0000
0001
0000
0000
1000
0000
0000
0100
0000
0000
1100
0000
0000
1000
0000
0000
0010
0000
0000
0000
0000
0000
0100
0000
1000
0000
0010
0000
1000
0000
0100
0000
1000
0000
0010
0000
1000
0000
0100
0000
1000
0000
0000
0000
0000
0000
,  // measure 69
0001
0010
0001
0100
0001
0010
0001
0100
0001
0010
0000
0000
0001
1000
0100
1000
0001
0010
0001
1000
0010
1000
0000
0000
,  // measure 70
1001
0000
0000
0001
0000
0000
0101
0000
0000
0100
0000
0000
0010
1000
0010
1000
0010
1000
0010
1000
0010
1000
0010
1000
,  // measure 71
0001
0100
0001
0100
0010
1000
0001
0100
0001
0100
0010
1000
0001
0000
0000
0000
0000
0000
2002
0000
0000
0000
0000
0000
,  // measure 72
0000
0000
0000
0000
,  // measure 73
0000
0000
0000
0000
,  // measure 74
3003
0000
0000
0000
;
