#TITLE:Closer;
#SUBTITLE:;
#ARTIST:井上 ジョー;
#TITLETRANSLIT:;
#SUBTITLETRANSLIT:;
#ARTISTTRANSLIT:Inoue Joe;
#CREDIT:;
#BANNER:Closer bn.png;
#BACKGROUND:Closer bg.png;
#LYRICSPATH:;
#CDTITLE:;
#MUSIC:Closer.mp3;
#OFFSET:-0.078;
#SAMPLESTART:48.460;
#SAMPLELENGTH:14.820;
#SELECTABLE:YES;
#BPMS:0.000=166.080;
#STOPS:;
#BGCHANGES:;

//---------------dance-single - ----------------
#NOTES:
     dance-single:
     :
     Hard:
     8:
     0.650,0.574,0.141,0.784,0.025: // measure 1
0000
0000
0000
0000
,  // measure 2
0000
0000
0000
0000
1000
0010
0100
0002
,  // measure 3
0000
0023
0000
0230
0000
2300
0000
3010
,  // measure 4
0100
0000
0010
0100
0001
0010
0000
2000
,  // measure 5
0000
3020
0000
0032
0000
0103
0010
2000
,  // measure 6
0000
3200
0000
0310
0000
0001
1000
0002
,  // measure 7
0000
0103
0010
2000
0000
3020
0000
0230
,  // measure 8
0000
0301
0010
0000
1000
0010
0001
0200
,  // measure 9
0000
0320
0000
2030
0000
3001
0010
0011
,  // measure 10
0000
0110
0110
0000
0100
1000
0010
0100
,  // measure 11
0001
0010
1000
0000
0010
0001
0000
0100
,  // measure 12
0010
1000
0100
0000
0001
0100
0000
1000
,  // measure 13
0010
0100
0001
0000
1000
0001
0000
0010
,  // measure 14
0100
1000
0010
1000
0100
0001
0100
1000
,  // measure 15
0010
0100
0001
0000
0010
0001
0000
0100
,  // measure 16
0010
1000
0100
0000
0010
0001
0000
1000
,  // measure 17
0001
0000
1001
0000
1000
0010
0100
0001
,  // measure 18
0000
0000
0010
0000
0100
0000
0000
0000
1000
0000
0001
1000
0001
0000
2000
0000
,  // measure 19
0010
3010
0000
1000
0010
0100
0001
0020
,  // measure 20
0100
0130
0000
1000
0100
0010
0001
2000
,  // measure 21
0001
3001
0000
1000
0010
0100
0001
0020
,  // measure 22
0001
0000
0031
0000
0000
0000
2000
0000
0100
0000
3100
0000
0000
0010
0002
0000
,  // measure 23
0100
0103
0000
0010
1000
0001
0010
0002
,  // measure 24
1000
1003
0000
0001
1000
0100
0010
0002
,  // measure 25
0010
0013
0000
0100
1000
0001
0010
0002
,  // measure 26
0100
0000
0103
0000
0000
0000
0020
0000
1000
0000
1030
0000
0000
0001
0010
0000
,  // measure 27
0001
1000
0100
0000
1100
0100
0010
0000
,  // measure 28
0001
0100
0010
0000
0110
0010
1000
0000
,  // measure 29
0001
0010
0100
0000
1100
0100
0010
0000
,  // measure 30
0001
1000
0010
0000
1010
0010
0100
0000
,  // measure 31
0001
0010
1000
0000
1010
0010
0001
0000
,  // measure 32
0100
0010
1000
0000
1010
1000
0100
0000
,  // measure 33
0001
0100
0010
0000
1000
0001
0010
0001
,  // measure 34
0000
1000
0010
0000
0001
0100
0010
2000
,  // measure 35
0000
3200
0000
0320
0000
0032
0000
0103
,  // measure 36
0010
0000
0110
0010
1000
0100
0000
0002
,  // measure 37
0000
0203
0000
2300
0000
3010
0100
0002
,  // measure 38
0000
0023
0000
0130
0000
1000
0001
2000
,  // measure 39
0000
3010
0100
0002
0000
0203
0000
0320
,  // measure 40
0000
1030
0100
0000
0001
0100
1000
0020
,  // measure 41
0000
0230
0000
0302
0000
1003
0100
0020
,  // measure 42
0000
0031
1000
0000
0100
1000
0010
0200
,  // measure 43
0000
0301
0010
2000
0000
3020
0000
0032
,  // measure 44
0000
0103
0010
0000
1000
0100
0001
0200
,  // measure 45
0000
2300
0000
3020
0000
0230
0000
0302
,  // measure 46
0000
0013
0100
0000
1000
0020
0000
2030
,  // measure 47
0000
3200
0000
0302
0000
0103
1000
0010
,  // measure 48
0100
0001
0010
1000
0010
0001
0100
0110
,  // measure 49
0000
0010
1000
0002
0000
0023
0000
0130
,  // measure 50
1000
0000
1010
0010
1000
0001
0010
2000
,  // measure 51
0000
3010
0001
0200
0000
0310
1000
0200
,  // measure 52
0000
0310
0001
0000
1000
0010
0100
0002
,  // measure 53
0000
0013
0100
2000
0000
3010
1000
0002
,  // measure 54
0000
0013
0001
0000
1000
0100
0001
0200
,  // measure 55
0000
1300
0010
0200
0000
0301
0010
1000
,  // measure 56
0000
0010
0001
0000
0100
0010
1000
0002
,  // measure 57
0000
0013
0001
0200
0000
0310
1000
0200
,  // measure 58
0000
0310
0001
0000
1000
0100
0001
0200
,  // measure 59
0000
1300
0010
0200
0000
0301
0010
2000
,  // measure 60
0000
3010
0001
0000
0100
0020
0000
2030
,  // measure 61
0000
3002
0000
0023
0000
0031
1000
0100
,  // measure 62
0010
0000
0000
0010
0001
0000
1000
0000
0000
1000
0010
0000
0100
0000
0000
0000
,  // measure 63
2002
0000
0000
0000
,  // measure 64
0000
0000
0000
0000
,  // measure 65
0000
0000
0000
0000
,  // measure 66
0000
0000
0000
0000
,  // measure 67
0000
0000
0000
0000
,  // measure 68
0000
3003
0000
0000
;

//---------------dance-single - ----------------
#NOTES:
     dance-single:
     :
     Beginner:
     1:
     0.111,0.169,0.010,0.020,0.000: // measure 1
0000
0000
0000
0000
,  // measure 2
0000
0000
0000
0000
,  // measure 3
1000
0000
0000
0000
,  // measure 4
0001
0000
0000
0000
,  // measure 5
0010
0000
0000
0000
,  // measure 6
0001
0000
0000
0000
,  // measure 7
0100
0000
0000
0000
,  // measure 8
0010
0000
0000
0000
,  // measure 9
1000
0000
0000
0000
,  // measure 10
0001
0000
0001
0000
,  // measure 11
0001
0000
0000
0000
,  // measure 12
0100
0000
0000
0000
,  // measure 13
0010
0000
0000
0000
,  // measure 14
1000
0000
0000
0000
,  // measure 15
0001
0000
0000
0000
,  // measure 16
1000
0000
0000
0000
,  // measure 17
0100
0000
0000
0000
,  // measure 18
0010
0000
0010
0000
,  // measure 19
0010
0000
0000
0000
,  // measure 20
0001
0000
0000
0000
,  // measure 21
0100
0000
0000
0000
,  // measure 22
0010
0000
0010
0000
,  // measure 23
0010
0000
0000
0000
,  // measure 24
1000
0000
0000
0000
,  // measure 25
0001
0000
0000
0000
,  // measure 26
0100
0000
0100
0000
,  // measure 27
0100
0000
0000
0000
,  // measure 28
0010
0000
0000
0000
,  // measure 29
1000
0000
0000
0000
,  // measure 30
0001
0000
0001
0000
,  // measure 31
0001
0000
0000
0000
,  // measure 32
1000
0000
0000
0000
,  // measure 33
0100
0000
0000
0000
,  // measure 34
0010
0010
0000
0000
,  // measure 35
0001
0000
0000
0000
,  // measure 36
0100
0000
0000
0000
,  // measure 37
0010
0000
0000
0000
,  // measure 38
1000
0000
1000
0000
,  // measure 39
1000
0000
0000
0000
,  // measure 40
0001
0000
0000
0000
,  // measure 41
1000
0000
0000
0000
,  // measure 42
0100
0000
0100
0000
,  // measure 43
0100
0000
0000
0000
,  // measure 44
0010
0000
0000
0000
,  // measure 45
0001
0000
0000
0000
,  // measure 46
1000
0000
1000
0000
,  // measure 47
1000
0000
0000
0000
,  // measure 48
0010
0000
0000
0000
,  // measure 49
0100
0000
0000
0000
,  // measure 50
0001
0000
0000
0000
,  // measure 51
0010
0000
0000
0000
,  // measure 52
0001
0000
0001
0000
,  // measure 53
0001
0000
0000
0000
,  // measure 54
1000
0000
0000
0000
,  // measure 55
0100
0000
0000
0000
,  // measure 56
0010
0000
0010
0000
,  // measure 57
0010
0000
0000
0000
,  // measure 58
0001
0000
0000
0000
,  // measure 59
0100
0000
0000
0000
,  // measure 60
0010
0000
0010
0000
,  // measure 61
0010
0000
0000
0000
,  // measure 62
1000
0000
1000
0000
,  // measure 63
2002
0000
0000
0000
,  // measure 64
0000
0000
0000
0000
,  // measure 65
0000
0000
0000
0000
,  // measure 66
0000
0000
0000
0000
,  // measure 67
0000
0000
0000
0000
,  // measure 68
0000
3003
0000
0000
;

//---------------dance-single - ----------------
#NOTES:
     dance-single:
     :
     Easy:
     4:
     0.314,0.338,0.030,0.020,0.000: // measure 1
0000
0000
0000
0000
,  // measure 2
0000
0000
0000
0000
,  // measure 3
1000
0001
0010
0001
,  // measure 4
1000
0000
0100
0000
,  // measure 5
1000
0010
0100
0001
,  // measure 6
0010
1000
0000
0010
,  // measure 7
0001
0100
0010
1000
,  // measure 8
0100
0001
0000
0100
,  // measure 9
1000
0010
0100
0001
,  // measure 10
1000
1001
0000
0000
,  // measure 11
1000
0010
1000
0010
,  // measure 12
0100
0001
0100
0000
,  // measure 13
0001
0010
0001
0010
,  // measure 14
0100
1000
0100
0000
,  // measure 15
1000
0010
0100
0001
,  // measure 16
1000
0100
0010
0000
,  // measure 17
0001
1000
0010
0100
,  // measure 18
0001
0010
0100
1000
,  // measure 19
1001
0000
1000
0010
,  // measure 20
1000
0001
0010
0001
,  // measure 21
1000
0000
0100
1000
,  // measure 22
0001
0010
0001
0100
,  // measure 23
0010
0000
1000
0100
,  // measure 24
0001
0100
1000
0010
,  // measure 25
0100
0000
0001
0010
,  // measure 26
1000
0010
0001
0100
,  // measure 27
0010
0000
1000
0100
,  // measure 28
0001
0100
1000
0010
,  // measure 29
0001
0000
0010
1000
,  // measure 30
0100
1000
0001
0010
,  // measure 31
0001
0000
0100
0010
,  // measure 32
1000
0100
0001
0100
,  // measure 33
1000
0010
0100
0001
,  // measure 34
1000
0001
0000
0000
,  // measure 35
1000
0010
0100
0001
,  // measure 36
0100
0000
0010
0000
,  // measure 37
1000
0100
0010
0001
,  // measure 38
0010
0100
0000
1000
,  // measure 39
0010
0001
0010
1000
,  // measure 40
0100
0001
0000
0100
,  // measure 41
1000
0010
0100
0001
,  // measure 42
0010
1000
0010
0001
,  // measure 43
0100
0010
1000
0001
,  // measure 44
0010
0001
0000
1000
,  // measure 45
0100
0001
0100
1000
,  // measure 46
0010
0100
0001
0010
,  // measure 47
1000
0010
0001
0100
,  // measure 48
0010
1000
0001
0010
,  // measure 49
0001
0100
0010
1000
,  // measure 50
0100
0000
1000
0010
,  // measure 51
0100
0001
0010
1000
,  // measure 52
0010
0001
0000
0100
,  // measure 53
0010
1000
0100
0001
,  // measure 54
0100
1000
0000
0010
,  // measure 55
0100
0001
0010
1000
,  // measure 56
0010
0001
0100
0010
,  // measure 57
1000
0100
0010
0001
,  // measure 58
1000
0010
0000
0100
,  // measure 59
0001
0010
1000
0010
,  // measure 60
0001
0100
0010
1000
,  // measure 61
0100
1000
0001
0010
,  // measure 62
0001
0100
0010
1000
,  // measure 63
2002
0000
0000
0000
,  // measure 64
0000
0000
0000
0000
,  // measure 65
0000
0000
0000
0000
,  // measure 66
0000
0000
0000
0000
,  // measure 67
0000
0000
0000
0000
,  // measure 68
0000
3003
0000
0000
;

//---------------dance-single - ----------------
#NOTES:
     dance-single:
     :
     Medium:
     6:
     0.409,0.406,0.010,0.020,0.000: // measure 1
0000
0000
0000
0000
,  // measure 2
0000
0000
0000
0000
,  // measure 3
1000
0000
0010
0000
0100
0000
0001
0100
,  // measure 4
0001
0000
0100
0000
0010
0000
1000
0100
,  // measure 5
1000
0000
0100
0000
1000
0000
0001
1000
,  // measure 6
0001
0000
0100
0000
0010
0000
1000
0010
,  // measure 7
1000
0000
0010
0000
1000
0000
0001
0010
,  // measure 8
0001
0000
1000
0000
0100
0000
1000
0001
,  // measure 9
1000
0000
0001
0000
0010
0000
0001
1000
,  // measure 10
0000
0010
0100
0000
0000
0000
0000
0000
,  // measure 11
0001
0000
0010
0000
0100
0000
1000
0100
,  // measure 12
1000
0000
0100
0000
0010
0000
0001
0010
,  // measure 13
0001
0000
0100
0000
0010
0000
1000
0010
,  // measure 14
1000
0000
0010
0000
0100
0000
0001
0100
,  // measure 15
0001
0000
0100
0000
0010
0000
1000
0001
,  // measure 16
1000
0000
0001
0000
0010
0000
0001
0100
,  // measure 17
0001
0000
0100
0000
0010
0000
1000
0010
,  // measure 18
0000
1000
0100
0000
0010
0000
0001
0000
,  // measure 19
1000
0001
0000
0000
1000
0000
0010
0000
,  // measure 20
0100
0001
0000
0000
0100
0000
0010
0000
,  // measure 21
1000
0001
0000
0000
0010
0000
0001
0000
,  // measure 22
1000
0100
0000
0000
0010
0001
0000
0000
,  // measure 23
0100
0010
0000
0000
1000
0000
0001
0000
,  // measure 24
0010
0001
0000
0000
0100
0000
0010
0000
,  // measure 25
1000
0100
0000
0000
0010
0000
0001
0000
,  // measure 26
1000
0010
0000
0000
0100
0001
0000
0100
,  // measure 27
0010
1000
0000
0000
0010
0000
0100
0000
,  // measure 28
0001
0010
0000
0000
0100
0000
1000
0000
,  // measure 29
0001
0010
0000
0000
0001
0000
0100
0000
,  // measure 30
0010
1000
0000
0000
0010
0100
0000
0000
,  // measure 31
0001
0010
0000
0000
0100
0000
1000
0000
,  // measure 32
0001
0010
0000
0000
1000
0000
0010
0000
,  // measure 33
0001
0000
0100
0000
0010
0000
1000
0001
,  // measure 34
0000
0100
0001
0000
0000
0000
0000
0000
,  // measure 35
1000
0000
0100
0000
0010
0001
0010
0000
,  // measure 36
0001
0000
0100
0000
0010
1000
0010
0000
,  // measure 37
1000
0000
0100
0000
1000
0001
1000
0000
,  // measure 38
0001
0000
0010
0000
0001
0100
0001
0000
,  // measure 39
0100
0000
0010
0000
1000
0100
1000
0000
,  // measure 40
0010
0000
1000
0000
0001
0100
0001
0000
,  // measure 41
0100
0000
0010
0000
1000
0100
1000
0000
,  // measure 42
0100
0000
0010
0000
0001
0100
0001
0100
,  // measure 43
0001
0000
0100
0000
0010
1000
0010
0000
,  // measure 44
1000
0000
0100
0000
1000
0001
1000
0000
,  // measure 45
0001
0000
0010
0000
0001
0100
0001
0000
,  // measure 46
0100
0000
0010
0000
1000
0010
1000
0000
,  // measure 47
0010
0000
1000
0000
0100
1000
0100
0000
,  // measure 48
0010
0001
0010
0000
0001
0100
0001
0100
,  // measure 49
0000
0010
1000
0000
0100
0000
1000
0010
,  // measure 50
0000
0100
0001
0000
0010
0000
0001
1000
,  // measure 51
0000
0100
1000
0000
0001
0000
0010
1000
,  // measure 52
0000
0010
0001
0000
0100
0000
0010
1000
,  // measure 53
0000
0001
0010
0000
0001
0000
1000
0100
,  // measure 54
0000
1000
0001
0000
0010
0000
0001
0100
,  // measure 55
0000
0010
1000
0000
0100
0000
1000
0001
,  // measure 56
0000
0010
0001
0000
0100
0000
0010
1000
,  // measure 57
0000
0010
0100
0000
0001
0000
0010
0100
,  // measure 58
0000
1000
0100
0000
0010
0000
0001
1000
,  // measure 59
0000
0010
1000
0000
0001
0000
0010
0001
,  // measure 60
0000
1000
0100
0000
1000
0000
0010
0100
,  // measure 61
0000
0001
0100
0000
0010
0000
1000
0000
,  // measure 62
0100
0010
0000
0001
0000
0000
0010
0000
,  // measure 63
2002
0000
0000
0000
,  // measure 64
0000
0000
0000
0000
,  // measure 65
0000
0000
0000
0000
,  // measure 66
0000
0000
0000
0000
,  // measure 67
0000
0000
0000
0000
,  // measure 68
0000
3003
0000
0000
;
