#TITLE:超電子バイオマン;
#SUBTITLE:;
#ARTIST:宮内 タカユキ;
#TITLETRANSLIT:Choudenshi Bioman;
#SUBTITLETRANSLIT:;
#ARTISTTRANSLIT:Takayuki Miyauchi;
#CREDIT:;
#BANNER:Choudenshi Bioman bn.png;
#BACKGROUND:Choudenshi Bioman bg.png;
#LYRICSPATH:;
#CDTITLE:;
#MUSIC:Choudenshi Bioman.mp3;
#OFFSET:-0.282;
#SAMPLESTART:43.780;
#SAMPLELENGTH:14.640;
#SELECTABLE:YES;
#BPMS:0.000=143.200,140.000=142.500,141.000=143.200;
#STOPS:;
#BGCHANGES:;

//---------------dance-single - ----------------
#NOTES:
     dance-single:
     :
     Hard:
     8:
     0.591,0.635,0.151,0.179,0.206:
0000
0000
0000
0000
,
0000
0000
0000
0000
,
1000
0001
0000
0010
0000
0000
0001
1000
0000
0010
1000
0000
0100
0000
0010
0000
,
0002
0000
0103
0020
0000
1030
0100
0001
,
0100
1000
0010
0200
0000
0301
0010
0100
,
1000
0000
0001
0000
1000
0000
0010
0000
0100
0000
0001
0000
0010
0000
0100
1000
,
0100
0000
0010
0001
0000
0011
0000
0010
,
0100
0000
0000
0000
1000
0000
0010
0000
0000
0000
0100
0001
0100
0000
0000
0000
,
0010
1000
0100
0001
0000
0100
1000
0010
,
0100
0000
0000
0000
0010
0000
1000
0001
2000
0000
0000
0000
3020
0000
0000
0030
,
0100
0010
1000
0100
0000
0001
0100
1000
,
0010
0100
0001
0010
0000
1000
0010
0000
,
0001
0000
0000
0000
0100
0000
0000
0010
1000
0000
0010
0000
0100
0000
0000
0000
,
0001
0000
0000
0000
0010
0000
0000
0100
1000
0000
0100
0000
0010
0000
0000
0000
,
0001
0000
0000
0000
1000
0000
0100
0000
1000
0000
0000
1000
0001
0000
0000
0001
,
0200
0000
0000
0000
0310
0000
2000
0000
0000
0000
3001
0000
0010
0000
0100
1000
,
0100
0010
0001
0100
0000
0010
1000
0100
,
0001
0100
0000
1000
0010
0100
0001
0000
,
0010
0001
1000
0100
1000
0010
0100
0001
,
0010
0000
0100
1000
0001
0100
0010
0000
,
1000
0010
0100
0001
0000
0010
0001
1000
,
0100
0001
0100
1000
0020
0000
0130
0000
,
0001
2000
0000
3001
0000
0100
0001
1000
,
1100
0000
0110
0000
0010
0001
0000
0101
,
0000
0000
0100
0000
0000
0100
0000
0000
0010
0000
0000
0010
1000
0000
0001
0000
,
0100
0000
0001
0000
0010
0000
1000
0010
0000
0000
2002
0000
3003
0000
0001
1000
,
0002
0000
0000
0000
0003
0000
1000
0000
0001
0100
0001
0000
1000
0000
0001
0000
,
0010
0100
0000
1000
0010
0100
0101
0000
,
0001
0010
1000
0010
0000
0001
0100
1000
,
0100
0000
0001
0000
0010
0000
0000
0000
0100
0000
1000
0000
0010
0000
0100
0001
,
2000
0000
0000
0000
3000
0000
0100
0000
0010
0001
0010
0000
0100
0000
0000
0000
,
1000
0001
0000
0100
0010
1000
1001
0000
,
0001
0010
0000
0100
1000
0010
0100
0001
,
1000
0100
0001
0100
1000
0000
0010
0100
,
0001
0000
0010
0000
0000
0000
0100
0000
0000
0000
1000
0000
0001
1000
0001
1000
,
0001
0000
1001
0000
0001
0000
0100
0110
,
0000
0010
1000
0100
0001
0100
1000
0010
,
0100
0000
0001
0000
0010
0000
0100
0000
1000
0000
0001
0000
0100
0000
0010
1000
,
0001
0000
0100
0000
0000
0000
0010
0000
0000
0000
1000
0000
0010
1000
0010
1000
,
0010
0000
1010
0000
0010
0000
0100
0101
,
0000
0001
0010
0100
1000
0010
0100
0001
,
1000
0001
1000
0001
1000
0000
0001
1000
0010
1000
0010
1000
0010
0000
1000
0010
,
0100
0000
0000
0000
;

//---------------dance-single - ----------------
#NOTES:
     dance-single:
     :
     Beginner:
     1:
     0.118,0.173,0.014,0.000,0.000:
0000
0000
0000
0000
,
0000
0000
0000
0000
,
0000
0000
0000
0000
,
1000
0000
0000
0000
,
0001
0000
0000
0000
,
0010
0000
0000
0000
,
0001
0000
0000
0000
,
0100
0000
0000
0000
,
0010
0000
0010
0000
,
0010
0000
0000
0000
,
1000
0000
0000
0000
,
0001
0000
0000
0000
,
0010
0000
0000
0000
,
0100
0000
0000
0000
,
1000
0000
0000
0000
,
0001
0000
0001
0000
,
0001
0000
0000
0000
,
1000
0000
0000
0000
,
0010
0000
0000
0000
,
0100
0000
0100
0000
,
0100
0000
0000
0000
,
0001
0000
0000
0000
,
0010
0000
0000
0000
,
0001
0000
0001
0000
,
0001
0000
0000
0000
,
1000
0000
0000
0000
,
0010
0000
0010
0000
,
0100
0000
0100
0000
,
0001
0000
0001
0000
,
1000
0000
1000
0000
,
0010
0000
0010
0000
,
1000
0000
1000
0000
,
0100
0000
0100
0000
,
0010
0000
0010
0000
,
0001
0000
0000
0000
,
1000
1000
0000
0000
,
0001
0000
0001
0000
,
0010
0000
0010
0000
,
0100
0000
0100
0000
,
1000
1000
0000
0000
,
0010
0000
0010
0000
,
0100
0000
0100
0000
,
1001
0000
0000
0000
;

//---------------dance-single - ----------------
#NOTES:
     dance-single:
     :
     Easy:
     3:
     0.290,0.288,0.220,0.000,0.000:
0000
0000
0000
0000
,
0000
0000
0000
0000
,
1000
0001
0010
0001
,
1000
0010
1000
0000
,
0001
0010
0001
0000
,
1000
0010
0100
0001
,
0010
0100
1000
0000
,
0010
0100
0001
0000
,
1000
0010
1000
0001
,
0010
0000
0011
0000
,
0010
0100
1000
0010
,
0100
0001
0010
1000
,
0010
0000
0011
0000
,
0001
0000
0101
0000
,
0100
0010
1000
0010
,
0110
0000
0101
0000
,
0001
0010
0100
1000
,
0010
0100
0001
0000
,
1000
0010
0001
0010
,
1000
0100
0001
0000
,
0100
1000
0010
0100
,
0001
0010
1000
0000
,
0010
0001
0100
0010
,
1000
0100
0010
0001
,
1000
0000
0010
0000
,
0100
0001
0010
0001
,
1001
0000
0110
0000
,
1001
0000
0110
0000
,
1000
0001
0010
0100
,
1000
0010
0100
0000
,
0011
0000
1100
0000
,
0101
0000
1010
0000
,
0001
0010
1000
0010
,
0001
0100
0010
0000
,
1000
0100
0010
0001
,
1000
1001
0000
1000
,
0010
0100
0001
0010
,
1000
0010
0001
0100
,
0010
1000
0100
0010
,
0001
1001
0000
1000
,
0010
0100
0001
0010
,
1000
0010
0001
0100
,
0110
0000
0000
0000
;

//---------------dance-single - ----------------
#NOTES:
     dance-single:
     :
     Medium:
     6:
     0.440,0.433,0.261,0.014,0.000: // measure 1
0000
0000
0000
0000
,  // measure 2
0000
0000
0000
0000
,  // measure 3
1000
0000
0001
0000
0010
0000
0001
1000
,  // measure 4
0010
0000
1000
0010
0000
0100
0010
0000
,  // measure 5
0100
0000
0001
0100
0000
0001
0010
0000
,  // measure 6
0001
0000
1000
0000
0010
0100
0001
0100
,  // measure 7
0010
0000
1000
0001
0000
0010
0000
0001
,  // measure 8
1000
0000
0100
1000
0000
0001
0010
0000
,  // measure 9
0001
0100
0010
1000
0000
0010
0100
0000
,  // measure 10
0001
1000
1100
0011
,  // measure 11
0001
0100
0001
0100
0000
0010
1000
0000
,  // measure 12
0100
1000
0100
1000
0000
0100
0010
0000
,  // measure 13
0001
0000
0000
1000
0000
1001
0000
0000
,  // measure 14
0001
0000
0000
0100
0000
0110
0000
0000
,  // measure 15
0010
0000
1000
0001
0000
0010
0001
0000
,  // measure 16
1001
0000
0000
0110
0000
0000
1001
0000
,  // measure 17
0001
0000
0010
0001
0000
0100
0001
0000
,  // measure 18
0100
0010
0000
0100
0010
0000
0110
0000
,  // measure 19
0010
0000
1000
0010
1000
0000
0001
0000
,  // measure 20
0010
0000
0001
0100
0001
0000
0101
0000
,  // measure 21
0100
0000
0010
1000
0000
0100
0010
0000
,  // measure 22
0001
1000
0001
0000
1000
0000
1001
0000
,  // measure 23
1000
0010
0000
0100
0000
0001
0010
0000
,  // measure 24
0011
0000
0110
0000
0100
1000
0000
1100
,  // measure 25
0000
0100
0000
0010
0001
0000
1001
0000
,  // measure 26
1000
0010
1000
0000
0001
2000
0000
3000
,  // measure 27
1001
0000
0000
1000
0010
1000
0001
0000
,  // measure 28
0010
0001
0000
1000
0100
1000
0001
0000
,  // measure 29
1000
0010
0000
0100
0000
0001
0010
0000
,  // measure 30
0100
1000
0001
0000
1000
0000
0010
0000
,  // measure 31
1010
0000
0000
0010
0100
0001
0100
0000
,  // measure 32
0010
1000
0000
0100
0010
0001
1000
0000
,  // measure 33
0001
1000
0000
0010
0000
0100
0001
0000
,  // measure 34
0010
0100
1000
0000
0001
0000
1000
0010
,  // measure 35
1000
0001
0000
0010
0000
0001
1000
0000
,  // measure 36
0001
0000
1001
0000
1000
0000
0010
0100
,  // measure 37
0000
0001
0010
0000
0100
1000
0100
0000
,  // measure 38
0010
0001
0010
0000
0001
0100
0001
0000
,  // measure 39
0100
0010
0000
1000
0000
0100
0010
0000
,  // measure 40
0001
0000
1001
0000
1000
0000
0010
1000
,  // measure 41
0000
0001
0010
0000
0100
1000
0010
0000
,  // measure 42
0100
0100
0100
0100
0010
0010
0010
0010
,  // measure 43
1001
0000
0000
0000
;
