#TITLE:Breathless Night Slider;
#SUBTITLE:;
#ARTIST:Iceman;
#TITLETRANSLIT:;
#SUBTITLETRANSLIT:;
#ARTISTTRANSLIT:;
#CREDIT:;
#BANNER:Breathless Night Slider bn.png;
#BACKGROUND:Breathless Night Slider bg.png;
#LYRICSPATH:;
#CDTITLE:;
#MUSIC:Breathless Night Slider.mp3;
#OFFSET:0.212;
#SAMPLESTART:2.780;
#SAMPLELENGTH:17.220;
#SELECTABLE:YES;
#BPMS:0.000=157.010;
#STOPS:;
#BGCHANGES:;

//---------------dance-single - ----------------
#NOTES:
     dance-single:
     :
     Hard:
     7:
     0.604,0.554,0.171,0.992,0.026:
0000
0000
0000
0000
,
1000
0100
0010
0001
0010
0100
1000
0010
,
0120
0000
0000
2030
0000
0000
3002
0000
,
1003
1010
2000
3200
,
0320
0032
2003
3020
,
0230
0000
0301
1000
0020
0000
1030
0000
,
1010
0000
0010
0100
0002
0000
0013
0000
,
0200
2300
3002
0023
,
2030
0000
3010
0001
0200
0000
0310
0000
,
2000
0000
3001
0010
0002
0000
0103
0000
,
0201
0000
0000
0320
0000
0000
2030
0000
,
3001
0011
0020
0230
,
2300
3002
0023
0032
,
0203
0000
0310
1000
0200
0000
0310
0000
,
0011
0000
0001
0100
2000
0000
3100
0000
,
0002
0023
0230
2300
,
3020
0000
0130
0001
2000
0000
3010
0100
,
0101
0000
0000
0000
0000
0000
0000
0000
0000
0000
0001
0000
0100
0000
0010
1000
,
0010
1000
0100
1000
0010
0100
0001
0010
,
1000
0010
0001
0100
0010
1000
0100
0001
,
0100
1000
0010
0001
0010
1000
0100
0010
,
0001
0100
0010
1000
0001
0010
0001
0100
,
0010
1000
0100
0000
0010
0001
0100
0000
,
0010
1000
0001
0100
0000
0001
0010
0100
,
2000
3020
0230
0302
,
2003
0000
3100
0010
0002
0000
1003
0000
,
0001
0100
0010
0000
1000
0100
0001
0000
,
0100
1000
0010
0100
0000
0001
0010
1000
,
0020
0032
0203
0320
,
1030
0000
0000
0001
0000
0000
0010
0000
0001
0000
0000
0000
1000
0000
0100
0000
,
1100
0000
0000
0000
0100
0000
0000
0000
0010
0000
0000
0001
0000
0000
0010
0000
,
0100
2000
3020
0230
,
0302
0000
1003
0100
1000
0010
0000
0100
,
0001
0000
0010
0100
0000
1000
0001
1000
,
1010
0000
1000
0010
0100
0001
0000
0010
,
0100
0000
1000
0001
0000
0010
1000
0000
,
0020
0001
0100
1030
,
0010
0001
0100
0010
1000
0100
0010
0001
,
2001
0000
0000
3020
0000
0000
0230
0000
,
0301
0011
0020
0230
,
2300
3002
0023
2030
,
3020
0000
0031
0100
0020
0000
1030
0000
,
1001
0000
1000
0010
0200
0000
0301
0000
,
0020
0230
2300
3002
,
0023
0000
1030
0010
0002
0000
0103
0000
,
0020
0000
1030
0100
0020
0000
0031
0000
,
1002
0000
0000
0203
0000
0000
0320
0000
,
1030
1010
0020
2030
,
3200
0302
0203
2300
,
3020
0000
0130
0001
0020
0000
0130
0000
,
1100
0000
1000
0010
0200
0000
0301
0000
,
0020
2030
3020
0032
,
0203
0000
0310
1000
0200
0000
0310
0001
,
1001
0000
0000
1000
0010
0100
0001
0100
,
0020
0000
1030
0002
0000
0103
0020
0000
,
2030
0100
0010
3001
,
0200
0000
0310
2000
0000
3001
0020
0000
,
0032
0100
0010
1003
,
1001
0000
1000
0100
2000
0000
3001
0100
,
0001
0000
0000
1000
0000
0000
0010
0000
1000
0000
0000
0001
0000
0000
0010
0000
,
0002
0000
0100
0000
0013
0100
2000
0000
,
3010
0100
0001
0010
1000
0010
0001
0100
,
0120
0000
0000
2030
0000
0000
3002
0000
,
0023
0000
0100
0000
0130
0010
0001
1000
,
0020
0000
0000
2030
0000
0000
3002
0000
,
0203
0000
0010
0000
0310
0100
0001
0010
,
0210
0000
1300
0001
0020
0000
0031
0100
,
0020
0000
0000
0000
1030
0000
0100
0000
0001
0000
0000
0100
0000
0000
1000
0000
,
0020
0100
1000
0031
,
0010
1000
0100
0010
0001
0100
0010
1000
,
2002
0000
0000
0000
,
0000
0000
0000
0000
,
0000
0000
0000
0000
,
0000
0000
0000
0000
,
0000
0000
0000
0000
,
0000
0000
0000
0000
,
0000
3003
0000
0000
;

//---------------dance-single - ----------------
#NOTES:
     dance-single:
     :
     Easy:
     3:
     0.257,0.299,0.094,0.068,0.000: // measure 1
0000
0000
0000
0000
,  // measure 2
0000
0000
0000
0000
,  // measure 3
2000
0000
3001
0100
,  // measure 4
0001
0000
1000
0010
,  // measure 5
1000
0001
0010
0001
,  // measure 6
1000
0000
0001
0000
,  // measure 7
0001
0100
0001
0000
,  // measure 8
1000
0100
1000
0010
,  // measure 9
0100
0000
0001
0000
,  // measure 10
0010
0000
0100
0000
,  // measure 11
2100
0000
3100
1000
,  // measure 12
0001
0000
0010
0001
,  // measure 13
1000
0010
0100
0001
,  // measure 14
0010
0000
0100
0000
,  // measure 15
1100
0000
0100
0000
,  // measure 16
0010
0001
1000
0010
,  // measure 17
1000
0000
0001
0000
,  // measure 18
1001
0000
0000
0000
,  // measure 19
1000
0010
0100
0001
,  // measure 20
1000
0100
0010
0001
,  // measure 21
1000
0010
0001
0010
,  // measure 22
1000
0100
0001
0100
,  // measure 23
1000
0000
1000
0000
,  // measure 24
0010
0100
0001
0000
,  // measure 25
0010
0100
1000
0001
,  // measure 26
0010
0000
0001
0000
,  // measure 27
0100
0000
0100
0000
,  // measure 28
0010
1000
0100
0000
,  // measure 29
0010
0001
1000
0010
,  // measure 30
0100
0000
0001
0000
,  // measure 31
1001
0000
1000
0010
,  // measure 32
1000
0000
0001
0000
,  // measure 33
1000
0000
0001
0100
,  // measure 34
0001
0000
0100
0000
,  // measure 35
0110
0000
0010
1000
,  // measure 36
0100
0000
0010
0000
,  // measure 37
0001
0000
0010
0000
,  // measure 38
0100
1000
0010
0100
,  // measure 39
0102
0000
0103
0001
,  // measure 40
0100
0000
0010
1000
,  // measure 41
0100
1000
0010
0100
,  // measure 42
0001
0000
1000
0000
,  // measure 43
1001
0000
1000
0000
,  // measure 44
0010
0100
0001
0100
,  // measure 45
0010
0000
1000
0000
,  // measure 46
0001
0000
0010
0000
,  // measure 47
0120
0000
0130
1000
,  // measure 48
0001
0000
0010
0100
,  // measure 49
1000
0001
0010
1000
,  // measure 50
0010
0000
0001
0000
,  // measure 51
1001
0000
1000
0000
,  // measure 52
0010
0100
0001
0100
,  // measure 53
0010
0000
1000
0000
,  // measure 54
1001
0000
0001
0010
,  // measure 55
0100
0000
1000
0010
,  // measure 56
2000
0000
3001
0000
,  // measure 57
0010
0000
0001
0100
,  // measure 58
0002
0000
0103
0000
,  // measure 59
0010
0000
1000
0000
,  // measure 60
0100
0000
0010
0000
,  // measure 61
0001
0000
1000
0000
,  // measure 62
0010
0100
0001
0100
,  // measure 63
0010
0000
1000
0001
,  // measure 64
0020
0000
0031
0000
,  // measure 65
0100
0000
0010
1000
,  // measure 66
0200
0000
0310
0000
,  // measure 67
0001
0000
1000
0000
,  // measure 68
0010
0000
0100
0000
,  // measure 69
0001
0010
0100
1000
,  // measure 70
0010
0100
0001
1000
,  // measure 71
1001
0000
0000
0000
;

//---------------dance-single - ----------------
#NOTES:
     dance-single:
     :
     Medium:
     6:
     0.447,0.449,0.222,0.308,0.000: // measure 1
0000
0000
0000
0000
,  // measure 2
1000
0000
1000
0100
0000
0100
0010
0000
,  // measure 3
0012
0000
0000
0203
0000
0000
0320
0000
,  // measure 4
1030
1001
1000
0010
,  // measure 5
0100
0001
0010
0100
,  // measure 6
1000
0000
0001
1000
0001
0000
1001
0000
,  // measure 7
1000
0000
0010
0100
0010
0000
0100
0000
,  // measure 8
0001
0010
0100
1000
,  // measure 9
0010
0000
1000
0001
1000
0000
0001
0000
,  // measure 10
0010
0000
0001
0100
0001
0000
0100
0000
,  // measure 11
0120
0000
0000
2030
0000
0000
3002
0000
,  // measure 12
0013
0110
0100
1000
,  // measure 13
0001
0010
1000
0010
,  // measure 14
0001
0000
1000
0001
1000
0000
0001
0000
,  // measure 15
1001
0000
0001
0100
0001
0000
0100
0000
,  // measure 16
0010
1000
0100
0010
,  // measure 17
0001
0000
1000
0010
1000
0000
0001
0000
,  // measure 18
1001
0000
0000
0000
1000
0100
0010
0001
,  // measure 19
0010
0100
1000
0010
,  // measure 20
0100
0001
0100
0000
0010
1000
0010
0000
,  // measure 21
1000
0100
0010
0001
,  // measure 22
1000
0010
1000
0000
0001
0100
0001
0000
,  // measure 23
1000
1100
0100
0110
,  // measure 24
0010
0000
0001
0100
0000
0000
0010
0000
,  // measure 25
1000
0001
0010
0001
,  // measure 26
1000
0000
0000
1000
0010
0000
1010
0000
,  // measure 27
0010
0110
0100
0101
,  // measure 28
0001
0000
0010
0100
0000
0000
1000
0000
,  // measure 29
0100
0010
0001
1000
,  // measure 30
0010
0000
1000
0001
1000
0000
0001
0000
,  // measure 31
1001
0000
1000
0000
0010
0000
0100
0001
,  // measure 32
0200
0320
2030
3002
,  // measure 33
0013
0000
0001
0000
0100
0000
0010
1000
,  // measure 34
0020
2030
3200
0320
,  // measure 35
0031
0000
1000
0000
0001
0000
0100
0001
,  // measure 36
0100
0000
0010
0000
1000
0100
1000
0000
,  // measure 37
0200
0320
0032
2003
,  // measure 38
3010
0000
0010
0100
0000
0100
0001
0000
,  // measure 39
0012
0000
0000
0203
0000
0000
0320
0000
,  // measure 40
1030
1001
1000
0010
,  // measure 41
0100
0001
0010
0100
,  // measure 42
1000
0000
0001
1000
0001
0000
1001
0000
,  // measure 43
1000
0000
0010
0100
0010
0000
0100
0000
,  // measure 44
0001
0010
0100
1000
,  // measure 45
0010
0000
1000
0001
1000
0000
0001
0000
,  // measure 46
0010
0000
0001
0100
0001
0000
0100
0000
,  // measure 47
0120
0000
0000
2030
0000
0000
3002
0000
,  // measure 48
0013
0110
0100
1000
,  // measure 49
0001
0010
1000
0010
,  // measure 50
0001
0000
1000
0001
1000
0000
0001
0000
,  // measure 51
1001
0000
0001
0100
0001
0000
0100
0000
,  // measure 52
0010
1000
0100
0010
,  // measure 53
0001
0000
1000
0010
1000
0000
0001
0000
,  // measure 54
1001
0000
0000
0000
1000
0100
0010
0001
,  // measure 55
0020
0000
0000
0230
0000
0000
2300
0000
,  // measure 56
3001
0010
0100
1000
,  // measure 57
0020
0000
0000
0230
0000
0000
0302
0000
,  // measure 58
1003
0100
0010
0001
,  // measure 59
1001
0000
0001
0100
0001
0000
1000
0000
,  // measure 60
0100
0000
1000
0010
1000
0000
0010
0000
,  // measure 61
0100
0000
0001
0000
0010
0000
0001
1000
,  // measure 62
0001
0000
1000
0000
0010
0100
0010
0000
,  // measure 63
0210
0000
0000
0302
0000
0000
0023
0000
,  // measure 64
0130
0000
1000
0000
0001
0010
0001
0000
,  // measure 65
0200
0000
0000
0320
0000
0000
2030
0000
,  // measure 66
3001
0010
0001
1000
,  // measure 67
1001
0000
1000
0100
1000
0000
0001
0000
,  // measure 68
1001
0000
0001
0100
0001
0000
1000
0000
,  // measure 69
1001
1000
0010
0100
,  // measure 70
0001
0000
0001
0010
0000
0010
0100
0000
,  // measure 71
1001
0000
0000
0000
;

//---------------dance-single - ----------------
#NOTES:
     dance-single:
     :
     Beginner:
     1:
     0.114,0.150,0.026,0.034,0.000: // measure 1
0000
0000
0000
0000
,  // measure 2
0000
0000
0000
0000
,  // measure 3
2000
0000
0000
0000
,  // measure 4
3100
0000
0000
0000
,  // measure 5
0010
0000
0000
0000
,  // measure 6
0001
0000
0000
0000
,  // measure 7
1000
0000
0000
0000
,  // measure 8
0010
0000
0000
0000
,  // measure 9
0100
0000
0000
0000
,  // measure 10
0001
0000
0001
0000
,  // measure 11
0002
0000
0000
0000
,  // measure 12
1003
0000
0000
0000
,  // measure 13
0010
0000
0000
0000
,  // measure 14
0100
0000
0000
0000
,  // measure 15
0001
0000
0000
0000
,  // measure 16
0010
0000
0000
0000
,  // measure 17
0100
0000
0100
0000
,  // measure 18
0100
0000
0000
0000
,  // measure 19
1000
0000
0000
0000
,  // measure 20
0010
0000
0010
0000
,  // measure 21
0010
0000
0000
0000
,  // measure 22
0100
0000
0100
0000
,  // measure 23
0100
0000
0000
0000
,  // measure 24
0001
0000
0000
0000
,  // measure 25
1000
0000
1000
0000
,  // measure 26
1000
0000
0000
0000
,  // measure 27
0010
0000
0000
0000
,  // measure 28
1000
0000
0000
0000
,  // measure 29
0001
0000
0001
0000
,  // measure 30
0001
0000
0000
0000
,  // measure 31
1001
0000
0000
0000
,  // measure 32
1000
0000
0000
0000
,  // measure 33
0010
0000
0000
0000
,  // measure 34
0100
0000
0100
0000
,  // measure 35
0100
0000
0000
0000
,  // measure 36
0001
0000
0000
0000
,  // measure 37
0010
0000
0000
0000
,  // measure 38
0100
0000
0100
0000
,  // measure 39
0200
0000
0000
0000
,  // measure 40
1300
0000
0000
0000
,  // measure 41
0010
0000
0000
0000
,  // measure 42
0100
0000
0100
0000
,  // measure 43
0100
0000
0000
0000
,  // measure 44
0001
0000
0000
0000
,  // measure 45
0010
0000
0000
0000
,  // measure 46
0100
0000
0100
0000
,  // measure 47
0200
0000
0000
0000
,  // measure 48
1300
0000
0000
0000
,  // measure 49
0010
0000
0000
0000
,  // measure 50
1000
0000
1000
0000
,  // measure 51
1000
0000
0000
0000
,  // measure 52
0001
0000
0000
0000
,  // measure 53
0010
0000
0010
0000
,  // measure 54
0110
0000
0000
0000
,  // measure 55
0100
0000
0100
0000
,  // measure 56
0100
0000
0000
0000
,  // measure 57
1000
0000
1000
0000
,  // measure 58
1000
0000
0000
0000
,  // measure 59
0010
0000
0000
0000
,  // measure 60
0100
0000
0000
0000
,  // measure 61
0001
0000
0000
0000
,  // measure 62
1000
0000
0000
0000
,  // measure 63
0001
0000
0001
0000
,  // measure 64
0001
0000
0000
0000
,  // measure 65
1000
0000
1000
0000
,  // measure 66
1000
0000
0000
0000
,  // measure 67
0010
0000
0000
0000
,  // measure 68
0100
0000
0000
0000
,  // measure 69
0001
0000
0000
0000
,  // measure 70
1000
0000
1000
0000
,  // measure 71
1001
0000
0000
0000
;
